<?xml version="1.0" standalone="no"?>
<!DOCTYPE svg PUBLIC "-//W3C//DTD SVG 1.1//EN" "http://www.w3.org/Graphics/SVG/1.1/DTD/svg11.dtd" >
<svg xmlns="http://www.w3.org/2000/svg">
<metadata></metadata>
<defs>
<font id="av-web-tel1normal" horiz-adv-x="4" >
<font-face units-per-em="2048" ascent="1638" descent="-410" />
<missing-glyph horiz-adv-x="614" />
<glyph horiz-adv-x="2048" />
<glyph horiz-adv-x="2048" />
<glyph unicode="&#xd;" horiz-adv-x="614" />
<glyph unicode=" "  horiz-adv-x="614" />
<glyph unicode="&#x09;" horiz-adv-x="614" />
<glyph unicode="&#xa0;" horiz-adv-x="614" />
<glyph unicode="!" horiz-adv-x="399" d="M158 45q0 37 26.5 63.5t63.5 26.5t63.5 -26.5t26.5 -63.5q0 -35 -25 -65q-27 -27 -65 -27q-37 0 -63.5 26.5t-26.5 65.5zM205 246v614h92v-614h-92z" />
<glyph unicode="&#x22;" horiz-adv-x="417" d="M102 975q0 102 80 164q66 47 152 47v-35q-25 0 -39 -2t-43 -14q-43 -12 -68.5 -45t-31.5 -60l-5 -65l19 20q27 23 59 23q39 0 64.5 -22.5t25.5 -61.5q0 -43 -26.5 -70t-71.5 -27q-63 0 -94 58q-20 45 -21 90z" />
<glyph unicode="#" d="M-260 -451q0 57 25.5 98.5t87.5 41.5q68 0 105.5 -82t109.5 -82q35 0 71 24q51 39 51 111q0 68 -36.5 104.5t-100.5 36.5q-29 -4 -43 4q-18 6 -18 29t20 35q18 6 39 2q94 0 146 -78q39 -66 39 -147q0 -29 -5 -41q0 -14 -12 -45l4 -25q16 -35 53 -35q6 2 13.5 2h9.5 q16 0 30.5 -11t14.5 -34q-6 -31 -43 -30q-18 0 -39.5 7t-38.5 36q-10 25 -14 57q-20 -39 -53 -64.5t-86 -25.5q-41 0 -74 28.5t-47 61.5q-6 -33 -30.5 -62.5t-70.5 -29.5q-49 0 -78.5 32.5t-29.5 81.5zM-221 -430q0 -29 18.5 -41t50.5 -16q31 0 60 24l18 25q0 25 -8 39 q-18 41 -72 41q-31 0 -49 -18.5t-18 -53.5z" />
<glyph unicode="$" horiz-adv-x="1320" d="M102 313h58q0 -258 98 -393q123 -166 406 -166q297 0 417 176q92 135 93 404h45q0 -332 -115 -496q-133 -188 -436 -188q-283 0 -432 188q-133 174 -134 475zM332 381l2 22q12 68 59 101q57 41 176 41q66 0 131 -37q23 -10 82 -62q20 18 43 42t39 44q31 41 49.5 89.5 t18.5 99.5q0 90 -68 151q-61 51 -133 52q-20 0 -43 -9q20 -18 32.5 -44.5t12.5 -59.5l-6 -55q-6 -23 -43 -54q-41 -27 -92 -26q-57 0 -89 38t-32 99q0 49 39 88t102 60q-18 16 -37.5 49.5t-29.5 85.5q-6 51 30.5 95t104.5 44q66 0 100 -35q37 -31 37 -86t-39 -49 q-18 2 -22 25q0 20 -4 30q0 12 -20.5 25.5t-57.5 13.5t-54.5 -23.5t-17.5 -62.5q0 -27 15.5 -57.5t33.5 -48.5l19 4l55 4q117 0 191.5 -75t74.5 -185q0 -39 -12 -82q-18 -74 -66 -131q-37 -47 -94 -99l60 -98q27 -68 26 -129q0 -84 -55 -137q-55 -49 -139 -49 q-63 0 -105.5 50t-42.5 122q0 82 78 166q14 14 37.5 34.5t58.5 45.5l-51 43q-47 29 -108 28q-57 0 -93 -30q-25 -25 -30 -64l4 -41q0 -14 -8 -25l-27 -14l-25 -6q-68 0 -67 82zM537 815l6 -31q18 -45 69 -45q56 0 72 49l4 33q0 31 -13 52.5t-28 33.5l-37 -6 q-27 -6 -50 -28.5t-23 -57.5zM633 213q0 -51 14.5 -72.5t34.5 -27.5l35 -4q37 0 64.5 26.5t27.5 83.5q0 25 -4 43.5t-17 44.5l-30 55l-72 -51q-53 -47 -53 -98z" />
<glyph unicode="%" horiz-adv-x="1212" d="M150 760q0 90 64.5 165.5t174.5 75.5q104 0 174 -77q27 -29 45.5 -74t18.5 -90q0 -109 -69 -177.5t-169 -68.5q-90 0 -170 68q-70 70 -69 178zM270 758q0 -199 119 -199q117 0 117 199q0 201 -117 200q-119 0 -119 -200zM315 -68l633 1069h94l-632 -1069h-95zM743 176 q0 90 64.5 166t173.5 76q104 0 176 -78q62 -68 62 -164q0 -104 -70 -174t-168 -70q-92 0 -165 67t-73 177zM864 174q0 -199 117 -199q53 0 88 50q31 49 31 149q0 201 -119 201q-117 0 -117 -201z" />
<glyph unicode="&#x26;" horiz-adv-x="450" d="M-156 274q0 12 6 19q14 -10 19 -19l14 -38q49 -119 183 -119q76 0 135 41q78 53 92 157l2 37q0 80 -49 137.5t-137 57.5l-41 -4q-27 -4 -47.5 8t-20.5 53q0 25 17.5 37t41.5 14q113 0 203 -91t90 -234l-2 -37q0 -131 -75.5 -216t-188.5 -85q-98 0 -166 86q-31 39 -57 115 l-13 43zM252 -195l6 25l61 145h15l55 -145l6 -27q0 -25 -19.5 -45t-53.5 -24q-31 0 -50.5 20.5t-19.5 50.5z" />
<glyph unicode="'" horiz-adv-x="417" d="M84 1151v35q86 0 149 -45q82 -57 82 -166q0 -68 -32.5 -108t-81.5 -40q-35 0 -70 25q-29 25 -29 72q0 35 28 59.5t63 24.5q41 0 67 -29l10 -14l-6 65q-2 25 -27.5 55.5t-71.5 48t-81 17.5z" />
<glyph unicode="(" horiz-adv-x="512" d="M102 336q0 160 88 299q37 55 95.5 109.5t122.5 72.5v-72q-98 -57 -161 -170.5t-63 -238.5q0 -127 60.5 -234.5t163.5 -169.5v-73q-59 16 -119 69q-49 43 -94 109q-92 135 -93 299z" />
<glyph unicode=")" horiz-adv-x="512" d="M102 -68q100 55 162 167t62 237t-59.5 237.5t-164.5 171.5v72q63 -16 123 -72q43 -37 94 -110q89 -135 89 -299q0 -166 -93 -299q-35 -55 -93 -107.5t-120 -70.5v73z" />
<glyph unicode="*" horiz-adv-x="708" d="M-31 -399q0 86 48.5 135t111.5 49l25 -2q84 -18 121.5 -116.5t107.5 -110.5q55 -6 94 34.5t39 104.5q0 117 -92 233l-182 197q-104 117 -119 231l-4 31v27q0 117 67.5 182.5t151.5 65.5q90 0 150.5 -55.5t60.5 -151.5q0 -66 -36 -118t-101 -65q-8 -2 -16.5 -2h-12.5 q-18 0 -33.5 6.5t-23.5 36.5q-6 29 13 49.5t52 20.5q39 0 57.5 15.5t26.5 60.5q6 57 -34 95t-103 38q-66 0 -109 -51q-39 -51 -39 -127l3 -35q12 -104 120 -221l193 -209q100 -136 100 -279q0 -102 -55 -170q-57 -63 -141 -63l-54 4q-31 2 -63 57q-10 16 -19 51 q-16 -41 -28 -55q-41 -55 -105 -55q-72 0 -122 41t-50 121zM37 -397q0 -31 29.5 -53.5t70.5 -22.5q55 0 86 37l21 39l-15 57q-29 59 -94 59q-41 0 -72 -30q-27 -33 -26 -86z" />
<glyph unicode="+" horiz-adv-x="765" d="M14 -233q6 66 54.5 99.5t109.5 33.5q66 0 119 -29t78 -74q35 31 55 62q8 10 27 39q27 41 59.5 94t57 133t24.5 156q0 74 -25 129q-20 53 -79 94q-31 23 -68 31l-74 8q-51 0 -86 -8q-8 -2 -24 -3q-20 0 -41 11q-25 18 -25 47q0 35 20.5 48t53.5 15q158 0 264 -78.5 t135 -197.5l8 -90q0 -45 -6 -86t-22 -90q-25 -88 -68 -156q-57 -96 -119 -172l-28 -35l28 -47q31 -61 31 -125q0 -47 -29 -90q-41 -59 -118 -59q-49 0 -86 36q-16 18 -24.5 39t-8.5 52l4 43q4 29 38 81t79 78q-8 16 -39 41q-45 33 -96 33l-21 -2q-25 -4 -45.5 -22.5 t-20.5 -45.5l3 -24q0 -16 4 -25q0 -23 -33 -35q-20 -4 -25 -4q-27 0 -37 31zM281 -438q0 -25 8 -41.5t35 -22.5q37 -6 58 24t21 75q0 31 -12 61l-24 47l-39 -37q-29 -35 -41 -65z" />
<glyph unicode="," horiz-adv-x="417" d="M84 -45q41 0 72 12q29 8 59 41q45 45 45 113l-14 -17q-23 -18 -53 -18q-39 0 -65 22.5t-26 61.5q0 43 29 69.5t70 26.5q63 0 94 -57q20 -45 20 -90q0 -104 -88 -166q-72 -47 -143 -41v43z" />
<glyph unicode="-" horiz-adv-x="454" d="M66 180q0 80 38 137q47 68 140 68q115 0 168 -123t151 -141q80 -12 152.5 80t72.5 260q0 172 -96 295q-109 139 -311 172l29 -43q12 -25 12 -54q0 -31 -13.5 -65.5t-51.5 -55t-78 -20.5q-37 0 -64 17q-72 41 -72 120l7 47q12 55 67 84q55 25 123 25l68 -6 q158 -25 272 -129q172 -153 172 -442q0 -145 -66 -265q-80 -145 -208 -145q-76 0 -123 53q-31 35 -49 92q0 -43 -39 -88q-47 -57 -123 -57q-80 0 -131 51q-47 53 -47 133zM147 211q0 -47 33 -78q16 -12 34.5 -19.5t37.5 -7.5q57 0 92 50l21 49q-6 41 -15 59q-29 59 -96 60 q-53 0 -82 -31q-25 -31 -25 -82zM201 838q0 -35 25.5 -62.5t58.5 -27.5q39 0 64.5 24t25.5 59q0 37 -20.5 65t-63.5 28q-35 0 -62.5 -26t-27.5 -60z" />
<glyph unicode="." horiz-adv-x="358" d="M102 84q0 35 22.5 59.5t53.5 24.5q33 0 55.5 -22.5t22.5 -59.5t-23 -61q-18 -25 -51 -25q-31 0 -55.5 24.5t-24.5 59.5z" />
<glyph unicode="/" horiz-adv-x="512" d="M92 16q6 20 10 31l254 543q8 18 21 20l16 -4q14 -6 17 -20l-9 -21l-249 -530q-20 -45 -48 -33q-4 2 -8 7t-4 7z" />
<glyph unicode="0" horiz-adv-x="794" d="M55 492q0 246 115 387q98 123 225 122q129 0 228 -122q114 -143 114 -387q0 -248 -114 -390q-98 -123 -228 -122q-129 0 -225 120q-115 143 -115 392zM211 444q0 -154 29 -251q47 -168 155 -168q90 0 139.5 130t49.5 386q0 78 -6.5 136t-22.5 114q-47 166 -160 165 q-88 0 -136 -131t-48 -381z" />
<glyph unicode="1" horiz-adv-x="794" d="M186 885l254 116h29v-849l4 -58q2 -27 24.5 -44t53.5 -19q37 0 49 -4v-27h-397v27q39 0 61 4q33 0 52.5 19.5t21.5 51.5v54v630q0 20 -4 37t-8 29q-14 29 -50 33q-29 0 -63 -15l-16 -8z" />
<glyph unicode="2" horiz-adv-x="794" d="M33 0v27l63 57l117 113l156 159q160 172 159 322q0 92 -45 149q-53 66 -157 66q-113 0 -185 -84q-23 -27 -49 -84h-26q12 92 38 137q74 139 250 139q137 0 223.5 -70.5t86.5 -185.5q0 -137 -115 -284q-37 -49 -115 -121l-235 -231h329h45q25 4 52 16q35 12 57 41l16 24 h27l-72 -190h-620z" />
<glyph unicode="3" horiz-adv-x="794" d="M63 57q0 55 66 56q23 0 125 -43q51 -23 98 -23q82 0 137.5 58.5t55.5 140.5q0 160 -152 215q-25 10 -64.5 17t-86.5 7v23q78 14 118 37q121 61 121 190q0 74 -44 121t-134 47q-104 0 -174 -82l-25 -39l-24 13q31 68 59 102q86 104 221 104q129 0 197 -75q51 -57 51 -125 q0 -76 -71 -154l-72 -65q68 -25 98 -52q99 -77 99 -206q0 -135 -99 -234q-115 -111 -321 -110q-61 0 -109 12q-70 18 -70 65z" />
<glyph unicode="4" horiz-adv-x="794" d="M25 258v94l487 649h82v-641h145v-102h-145v-258h-125v258h-444zM102 360h367v484z" />
<glyph unicode="5" horiz-adv-x="794" d="M76 76q0 23 18 41q16 12 43 16q29 0 70 -24q82 -53 131 -54q94 0 163.5 64.5t69.5 156.5q0 137 -127 230.5t-333 93.5l200 383h377l-57 -121h-316l-71 -135q176 -23 293 -115q133 -104 133 -262q0 -152 -125 -261t-291 -109q-61 0 -111 18q-68 25 -67 78z" />
<glyph unicode="6" horiz-adv-x="794" d="M68 387q0 238 182 426t426 188h37v-26q-170 0 -310 -135q-117 -121 -159 -293q31 20 49 28q37 16 55 25q61 20 117 21q121 0 193.5 -88t72.5 -205q0 -135 -90 -238q-96 -111 -238 -110q-160 0 -253 137q-82 119 -82 270zM217 346q0 -104 43 -201q55 -121 156 -120 q90 0 135 75q39 66 39 156q0 113 -41 195q-53 109 -158 108q-35 0 -82 -18q-14 -6 -31.5 -15.5t-48.5 -29.5l-2 -52z" />
<glyph unicode="7" horiz-adv-x="794" d="M57 748l103 235h561v-29l-350 -974h-84l313 882h-299q-82 0 -130 -25.5t-91 -95.5z" />
<glyph unicode="8" horiz-adv-x="794" d="M94 219q0 78 68 158q49 57 143 119q-104 80 -135 116q-61 72 -61 158q0 104 86 167.5t196 63.5q127 0 213 -67q74 -61 74 -146q0 -76 -72 -145q-39 -35 -143 -100q109 -80 158 -129q79 -87 79 -181q0 -115 -89 -184t-216 -69q-156 0 -239 96q-61 68 -62 143zM213 229 q0 -90 51 -147t146 -57q74 0 127 37.5t53 107.5q0 33 -12.5 62.5t-40.5 62.5q-51 63 -199 172q-125 -88 -125 -238zM221 817q0 -86 103 -168l100 -78q68 55 100 99q41 57 41 129q0 74 -45 115.5t-125 41.5q-68 0 -121 -37.5t-53 -101.5z" />
<glyph unicode="9" horiz-adv-x="794" d="M61 651q0 137 89 240q96 111 239 110q156 0 252 -135q84 -120 84 -276q0 -223 -168 -410q-184 -201 -448 -200h-25v28q178 0 307 131q111 115 160 291q-16 -10 -52 -27.5t-59 -25.5q-49 -18 -112 -19q-119 0 -193 88.5t-74 204.5zM199 723q0 -109 41 -191 q53 -111 151 -110q31 0 46.5 2t45.5 14q47 18 78 47l12 70l5 78q0 102 -43 201q-55 123 -156 122q-94 0 -141 -77q-39 -66 -39 -156z" />
<glyph unicode=":" horiz-adv-x="342" d="M78 96q0 41 24.5 71t65.5 30q39 0 64.5 -29t25.5 -72q0 -37 -25.5 -67.5t-64.5 -30.5q-37 0 -63.5 29.5t-26.5 68.5zM78 563q0 41 25.5 70t64.5 29t64.5 -26t25.5 -73q0 -41 -25.5 -68.5t-64.5 -27.5q-35 0 -64 27q-27 31 -26 69z" />
<glyph unicode=";" horiz-adv-x="366" d="M63 -45q41 0 72 12q29 8 60 41q45 45 45 113l-7 -10q-18 -25 -61 -25q-39 0 -64.5 22.5t-25.5 61.5q0 43 28.5 69.5t69.5 26.5q63 0 94 -57q21 -45 21 -90q0 -104 -94 -166q-74 -47 -138 -41v43zM74 563q0 45 25.5 75t68.5 30t70.5 -30t27.5 -73q0 -41 -28.5 -69.5 t-69.5 -28.5q-33 0 -66 27q-29 29 -28 69z" />
<glyph unicode="=" horiz-adv-x="757" d="M-10 -383q-6 55 26 100q41 55 119 56q86 0 147.5 -107.5t137.5 -107.5q78 0 125 102t47 270q0 221 -93 376t-266 229q-49 6 -71 16q-43 12 -35 57q6 27 21.5 38t35.5 11t29 -4l18 -6q242 -100 353 -360q71 -173 71 -353q0 -246 -51 -360q-59 -133 -178 -133 q-98 0 -164.5 134t-126.5 134q-45 0 -72 -28q-16 -20 -16 -64q0 -33 62 -72l20 -10l14 -10q18 -25 19 -45q0 -25 -27 -39q-18 -12 -53 10l-31 27l-51 76q-6 16 -8 26t-2 37z" />
<glyph unicode="&#x3e;" d="M-373 -459q0 68 41 109q31 31 80 31q57 0 101.5 -84t113.5 -84q45 0 76 22q49 35 49 109q0 45 -20 80q-35 61 -113 73h-47q-35 0 -35 31q0 14 10 22l25 7h428q68 0 103.5 -31t35.5 -80q0 -43 -25.5 -67.5t-64.5 -24.5q-96 0 -96 88q0 35 20 55h-250q74 -66 74 -162 q0 -80 -35 -137q-45 -76 -129 -76q-47 0 -76.5 23t-42.5 53q-12 -33 -30 -51q-31 -27 -72 -27q-49 0 -85 38t-36 83zM-317 -442q0 -29 19 -47.5t46 -18.5q37 0 55 25l15 32l-8 45q-12 37 -56 37q-31 0 -50 -20.5t-21 -52.5zM332 -252q0 -20 15 -32.5t30 -12.5 q18 0 32.5 12.5t18.5 32.5q0 20 -16.5 33.5t-46.5 17.5l-17 -10q-12 -14 -16 -41z" />
<glyph unicode="?" horiz-adv-x="815" d="M205 561v23q0 98 74.5 171.5t187.5 73.5q104 0 174 -71q72 -67 72 -176q0 -82 -103.5 -183.5t-103.5 -185.5h-80q0 66 33 125q23 43 80 100q45 37 65 64q29 39 29 88q0 66 -53 112q-49 49 -121 50q-74 0 -124 -56.5t-50 -134.5h-80zM373 45q0 37 26.5 63.5t63.5 26.5 t63.5 -26.5t26.5 -63.5t-26.5 -64.5t-63.5 -27.5t-63.5 26.5t-26.5 65.5z" />
<glyph unicode="@" horiz-adv-x="1105" d="M102 362q0 119 68 205t178 86q66 0 107 -41q43 -37 43 -98t-39 -99t-105 -38q-55 0 -90 37q-31 37 -31 78q0 33 9 55l16 37q-29 0 -63 -80q-23 -55 -23 -105l2 -32q12 -109 92 -174q100 -84 295 -84q186 0 289 96q94 88 94 209q0 80 -45 126t-94 46q-31 0 -47 -15 q-37 -29 -37 -84q0 -51 30.5 -96t90.5 -61q20 0 22 -29q0 -29 -37 -29h-473q-31 0 -37 4q-6 14 -6 23q0 18 11 25l32 4h385q-53 18 -80.5 65t-27.5 99q0 61 37 112t102 51q111 0 172.5 -74.5t61.5 -197.5q0 -152 -107 -264q-123 -129 -336 -129q-211 0 -335 109.5 t-124 262.5zM270 498q6 -27 21 -43q23 -25 57 -25q27 0 50.5 16.5t23.5 51.5q0 49 -22.5 74.5t-57.5 25.5l-35 -8q-18 -6 -27.5 -27.5t-9.5 -64.5z" />
<glyph unicode="A" horiz-adv-x="1118" d="M102 367q0 125 69 205.5t179 80.5q68 0 115 -35q47 -31 47 -106q0 -61 -45 -97t-105 -36q-53 0 -88 37q-30 36 -30 75q0 37 10 60l27 37q-27 0 -62 -53q-43 -61 -43 -132l2 -34q18 -111 101 -181q100 -82 280 -82q158 0 241 35t122 99q12 20 16 55q0 31 -14 47 q-20 -29 -92 -46t-130 -17h-288q-12 0 -17 4q-18 6 -18 24q0 16 8 23l16 8h287h51h45q18 4 25 4q41 0 78 27q-31 6 -55.5 12t-34.5 10q-78 31 -88 74l-6 53q0 61 47 100t112 39q76 0 117 -53q35 -45 35 -98q0 -49 -12.5 -76t-38.5 -59q23 -29 31 -48.5t8 -56.5 q0 -104 -115 -186q-125 -90 -322 -90q-207 0 -342 116q-123 109 -123 261zM285 512q0 -35 16 -58.5t55 -23.5q27 0 54.5 19.5t27.5 48.5q0 18 -3 37.5t-27.5 40t-65.5 20.5q-57 -18 -57 -84zM788 516q0 -29 15.5 -50.5t87.5 -51.5l33 -13l18 25q8 16 14.5 34t6.5 38 q0 35 -19 63q-25 36 -72 36q-7 0 -14 -1q-33 -6 -53 -29q-12 -16 -17 -51z" />
<glyph unicode="B" horiz-adv-x="948" d="M102 455q0 82 53.5 141t135.5 59q63 0 104 -34q39 -29 76 -99q18 53 51 86q47 51 115 51q92 0 158 -73q53 -63 53 -146l-2 -22q0 -41 -17 -88q-8 -25 -20 -51q-20 -47 -57 -91l53 -67q39 -68 39 -135q0 -14 -9.5 -31.5t-37.5 -24.5q-47 0 -54 41q0 86 -18 135l-20 35 q-43 -49 -76 -75q-100 -76 -215 -76q-109 0 -180.5 53t-71.5 125t74 119q78 45 188 45q102 0 203 -51q20 -10 43 -25q8 -6 37 -27q27 27 36 45q39 61 39 125q0 72 -41 115t-102 43q-74 0 -113 -39q-29 -29 -43 -78h-16q-14 49 -55 80q-51 39 -119 39q-55 -6 -88 -34.5 t-45 -73.5v-33q0 -23 -29 -29q-10 0 -22 21zM225 182q0 -35 61.5 -61.5t131.5 -26.5q117 0 196 49q23 15 58 50q-4 4 -30 20t-32 20q-86 41 -192 41q-66 0 -129.5 -23.5t-63.5 -68.5z" />
<glyph unicode="C" horiz-adv-x="1460" d="M102 362q0 25 9 31l34 4h111q25 104 98.5 172t177.5 86l-112 70l-8 8l-9 25q0 18 13.5 32.5t34.5 18.5q14 0 30 -12l13 -15l84 -108l276 293l12 10q16 12 31 12q16 0 32.5 -17.5t16.5 -35.5q0 -12 -10 -29l-12 -12l-306 -244q106 -12 186.5 -81.5t104.5 -172.5h234 q51 0 86 -14l24 25q27 31 33 65q0 37 -10 55q-18 35 -59 35q-35 0 -56 -22q-10 -10 -16 -33l-6 -29q-6 -20 -29 -20q-10 0 -16 16l-4 39q0 41 26 76q35 45 96 45q63 0 101 -49q16 -23 22 -48.5t6 -56.5q-6 -47 -36 -90l-31 -31q27 -18 41 -34q43 -49 43 -121q0 -57 -35 -105 q-41 -57 -109 -57q-55 0 -93 42t-38 118q0 70 47 104q14 14 48 25h-263v-10q0 -141 -96 -237.5t-237 -96.5q-139 0 -236.5 98t-97.5 238v8h-103h-28q-10 0 -15 30zM332 332q12 -92 82.5 -154.5t167.5 -62.5q90 0 163 61q68 62 82 156h-495zM334 397h491q-12 92 -80.5 153.5 t-162.5 61.5q-90 0 -164 -61q-66 -59 -84 -154zM1141 211q-2 -9 -2 -18q0 -28 14 -55q18 -36 64 -36q35 0 55 29q10 14 16 31t6 35q0 43 -19.5 74.5t-49.5 37.5q-25 -4 -48.5 -25.5t-35.5 -72.5z" />
<glyph unicode="D" horiz-adv-x="1095" d="M102 467q0 16 9 22l18 11h107q10 14 14 18q16 18 43 43q39 37 82 60q88 47 172 47l-33 133q2 29 14.5 44t42.5 17q29 0 45 -31l5 -32l-31 -127l31 -2q37 -4 64.5 -11.5t66.5 -28t39 -38.5l-7 -14q-4 -4 -16 -5l-47 21q-4 2 -26.5 9t-43.5 13l-90 9q-74 0 -141.5 -32 t-122.5 -95h661q12 0 23.5 -7t11.5 -30q0 -16 -10 -19l-22 -4h-695l-18 -32q-18 -43 -19 -101v-22q0 -51 25 -99q40 -69 125 -69h2q68 0 112 41t44 100h18q0 -61 50 -103t140 -42q68 0 109 32q46 38 46 91q0 6 -1 12q-14 -57 -90 -70l-21 -2q-45 0 -80.5 28.5t-35.5 71.5 q0 55 38 89t87 34q70 0 106.5 -44t36.5 -117q0 -92 -56.5 -167t-152.5 -75q-82 0 -137 63q-14 18 -39 66q-23 -43 -39 -62q-29 -31 -60.5 -47t-70.5 -16q-102 0 -165.5 69.5t-63.5 188.5l4 68q0 23 12 52.5t18 41.5l15 20h-76q-10 2 -16.5 6.5t-10.5 22.5zM729 287 q0 -68 80 -68q43 0 70 27l18 26l-18 41q-29 41 -76 41q-41 0 -64 -30q-6 -10 -10 -37z" />
<glyph unicode="E" horiz-adv-x="1411" d="M102 471q0 25 12.5 31t32.5 6h78l43 51l51 47l52 31l51 18l-57 129l-3 23q0 23 5.5 36t33.5 19q33 0 52 -37l6 -18l2 -70l4 -73l61 8l54 -4l-7 127q0 25 14.5 43t47.5 18q27 0 33 -27l4 -45l-49 -118l55 -13q33 -6 55 -22q27 -10 37 -23q10 -8 4 -30l-16 -9q-14 0 -39 17 l-60 22q-57 14 -118 15q-96 0 -162 -37q-35 -20 -86 -78h801q29 0 45 -4l43 -8l28 22q29 33 29 70q0 39 -18.5 59.5t-53.5 24.5q-35 0 -51 -17.5t-22 -38.5q0 -18 -5.5 -33.5t-27.5 -15.5q-10 0 -17 19l-4 37q0 43 27 77q35 45 96 45q63 0 101 -51q16 -23 22 -47t6 -55 q-6 -51 -37 -92l-30 -31q27 -18 41 -35q43 -49 43 -119t-38 -117.5t-108 -47.5q-49 0 -90 43q-37 43 -37 116q0 68 45 111q12 12 47 26h-868l-27 -61q-12 -35 -12 -74q0 -80 27 -133q37 -72 121 -72q80 0 118 52q25 31 37 98h17q12 -66 43 -100q47 -51 149 -52q86 0 129 46 q33 33 33 77q0 14 -4 23q-12 -29 -33 -49q-33 -29 -65 -29q-29 0 -51.5 4t-45.5 19q-39 29 -39 79q0 63 43 99q36 26 91 26h4q70 -6 107.5 -50t37.5 -111q0 -92 -59 -164q-66 -80 -162 -80q-78 0 -139 63q-18 18 -45 66q-18 -41 -37 -64q-51 -63 -123 -63q-100 0 -168 70 q-63 74 -64 188l2 41q0 47 11 78q6 29 10 40t18 33h-45h-24q-12 0 -13 25zM713 276q0 -25 18.5 -45t56.5 -20q45 0 74 29l23 28q-6 31 -15 43q-25 43 -82 43q-31 0 -52 -22.5t-23 -55.5zM1092 297q0 -23 12 -47q18 -29 61 -39q31 0 56.5 27.5t25.5 66.5q0 55 -33 94 q-18 20 -38 27q-23 -2 -47.5 -26.5t-34.5 -77.5q-2 -8 -2 -25z" />
<glyph unicode="F" horiz-adv-x="485" d="M102 168q0 86 41 145q49 72 133 72l29 -2q90 -12 148.5 -137t175.5 -125q98 0 154.5 88t56.5 217q0 178 -70 299q-92 164 -299 164q-37 0 -63.5 13t-26.5 48q0 31 22.5 44.5t63.5 13.5q143 0 274 -131q80 -84 121 -196t41 -255q0 -174 -81 -306t-204 -132q-72 0 -122 57 q-10 10 -54 80q-12 -51 -47 -82q-47 -47 -116 -47q-78 0 -127 55q-37 43 -50 117zM184 209q0 -43 31 -74q29 -25 64 -29q63 0 100 46l22 47q-6 45 -16 61q-29 61 -94 62q-53 0 -80 -34t-27 -79z" />
<glyph unicode="G" horiz-adv-x="997" d="M102 174q0 80 39 139q47 72 131 72l31 -2q96 -12 154.5 -137t148.5 -125q98 0 161.5 88t63.5 217q0 178 -69 297q-94 162 -299 162q-39 0 -62.5 15t-27.5 50q0 31 22.5 44.5t63.5 13.5q143 0 274 -131q80 -84 121 -196t41 -255q0 -172 -87 -305t-212 -133q-70 0 -113 55 l-43 78q-12 -47 -47 -82q-47 -47 -117 -47q-78 0 -126 56t-48 126zM182 205q0 -43 33 -76q33 -25 63 -25h5q61 0 94 46l22 47q-6 45 -16 61q-29 61 -92 61q-55 0 -82 -33.5t-27 -80.5zM205 1008q0 37 4 49q12 61 47 102l47 39q23 12 45 12h2q29 0 43 -28l6 -29 q0 -29 -30 -47l-50 -37q-33 -29 -38 -61l-5 -41v-15q0 -37 9 -63l14 -41l10 -14q8 -16 2 -29q-3 -6 -9.5 -6t-16.5 6l-29 33q-16 20 -35 71q-8 25 -12 47.5t-4 51.5z" />
<glyph unicode="H" horiz-adv-x="1019" d="M102 190q0 72 50.5 130.5t142.5 58.5q49 0 96 -31q10 -8 32.5 -35.5t53.5 -70.5q74 -121 168 -121q98 0 160 74q51 63 51 147q0 88 -41 152q-46 75 -127 75h-2q-66 0 -113 -49q-18 -18 -49 -82h-16q-16 45 -33 68q-50 69 -129 69h-2l-53 -4q-31 -2 -55 -36l-29 -64 q-12 -41 -39 -41q-25 0 -25 35q0 96 47.5 151.5t126.5 55.5q98 0 160 -70q14 -16 41 -70q12 31 19.5 44.5t15.5 25.5q51 70 127 70q117 0 180 -97q58 -90 58 -215q0 -160 -74 -263t-201 -103q-80 0 -135 61l-37 62l-51 -64q-65 -65 -129 -65h-2q-86 0 -136.5 56t-50.5 146z M184 221q0 -59 37 -96q31 -27 68 -27q74 0 110 49l21 50l-25 57q-18 29 -40.5 43t-53.5 14q-45 0 -81 -24.5t-36 -65.5z" />
<glyph unicode="I" horiz-adv-x="993" d="M102 197q0 111 168 167t168 103q0 45 -41 71.5t-108 26.5q-59 0 -90 -28q-31 -25 -31 -70q0 -33 -4 -37l-12 -4l-11 -2q-14 0 -24 16l-11 33q0 39 11.5 72t38.5 59q59 55 153 55q74 0 129 -41q68 -49 68 -129l-4 -34q-12 -72 -209 -146q-88 -31 -88 -88q0 -45 32.5 -74.5 t98.5 -29.5q86 0 129 51q27 33 33 88h20q0 -49 47 -94q23 -20 51.5 -32.5t63.5 -12.5l33 2q47 6 80.5 44t33.5 87q0 29 -12 53l-22 45l8 17l18 8q10 0 29 -21l18 -30q27 -47 27 -105q0 -84 -52.5 -152.5t-142.5 -68.5q-82 0 -135 53q-27 27 -55 78q-27 -68 -72 -101.5 t-104 -33.5q-47 0 -86 11t-74 38q-70 59 -70 156z" />
<glyph unicode="J" horiz-adv-x="993" d="M102 195q0 113 170 169t170 103q0 45 -41 71.5t-110 26.5q-59 0 -92 -29.5t-33 -76.5q0 -33 -35 -33q-16 0 -22 14l-5 23q0 78 50.5 136t136.5 58q-16 39 -17 99v30l9 35q14 47 32.5 79t51.5 34l26 -6q33 -12 33 -49q0 -41 -26.5 -59.5t-47 -57.5t-20.5 -74q0 -23 10 -33 q68 -6 117 -56t49 -138q0 -74 -215 -158q-94 -35 -94 -102q0 -35 37 -66q40 -26 98 -26h4q76 0 117 53q31 37 43 94h22q12 -53 47 -90q49 -55 123 -55l37 4q111 18 111 116q0 31 -17 72l-16 21q-6 8 -8 15t-4 11q6 10 10 15q23 12 43 -7l24 -36q29 -51 29 -115 q0 -88 -47 -150q-43 -61 -129 -61q-92 0 -164 65q-23 18 -51 66q-12 -45 -29 -66q-46 -67 -136 -67h-3q-102 0 -166 47q-72 55 -72 154z" />
<glyph unicode="K" horiz-adv-x="1064" d="M61 846q0 25 9.5 31t31.5 6h707q72 0 119 -25q62 -33 76 -115q2 -16 2 -24q0 -23 -4.5 -37t-16.5 -41q-35 -66 -125 -78q-68 0 -118 44t-50 116q0 37 25 72l20 18h-205l25 -25q16 -27 16 -65q0 -55 -38.5 -78.5t-104.5 -23.5q37 -20 56.5 -55.5t19.5 -76.5l-4 -34 q-12 -86 -148.5 -130t-148.5 -104q-1 -6 -1 -12q0 -37 32 -67q38 -34 106 -33q63 0 103 35.5t53 111.5h20q6 -39 49 -88q55 -59 123 -59l45 4q31 4 62.5 40.5t31.5 88.5q0 25 -12 61l-24 45l8 17l18 8q10 0 29 -21l18 -30q27 -47 27 -105q0 -84 -52.5 -152.5t-142.5 -68.5 q-98 0 -159 76q-20 29 -31 55q-16 -51 -41 -76q-51 -57 -129 -57q-49 0 -88 11t-76 38q-72 59 -72 154q0 111 168 167t168 103q0 45 -41 71.5t-108 26.5q-59 0 -90 -28q-31 -25 -31 -70q0 -29 -8 -35l-17 -4q-14 0 -26 14l-11 31q0 51 15.5 86t56.5 64h-57q-25 0 -27 22 q0 20 27 23h315q37 0 57.5 18.5t20.5 50.5q0 49 -21.5 62.5t-58.5 13.5h-330l-32 6q-6 4 -11 27zM750 721q0 -39 24.5 -65.5t67.5 -26.5q37 0 64.5 25.5t27.5 66.5q0 35 -25.5 63.5t-64.5 28.5q-41 0 -67.5 -26.5t-26.5 -65.5z" />
<glyph unicode="L" horiz-adv-x="442" d="M102 324q0 133 98.5 233t237.5 100q133 0 233.5 -98t100.5 -237q0 -135 -97 -234.5t-239 -99.5q-139 0 -236.5 98t-97.5 238zM186 362q0 -104 72 -175.5t178 -71.5q104 0 177 72.5t73 174.5t-72.5 176t-177.5 74q-104 0 -177 -72.5t-73 -177.5z" />
<glyph unicode="M" horiz-adv-x="421" d="M78 139q0 61 41 99t94 38q59 0 94 -40q37 -38 37 -99q0 -57 -37 -99t-98 -42q-45 0 -90 39q-41 41 -41 104zM78 518q0 59 40 99t95 40q61 0 96 -41t35 -100q0 -55 -37 -97t-98 -42q-49 0 -90 38t-41 103zM175.5 88q21.5 -20 53.5 -25q72 0 72 76q0 41 -18.5 61.5 t-51.5 24.5q-77 0 -77 -80q0 -37 21.5 -57zM174 461q20 -16 55 -21q72 0 72 78q0 41 -18.5 61.5t-51.5 24.5q-77 0 -77 -80q0 -41 20 -63z" />
<glyph unicode="N" horiz-adv-x="391" d="M113 184q0 27 6 42.5t31 15.5t30.5 -33t18.5 -55q31 -39 86 -45l121 -5q25 0 55.5 1t66.5 16q68 25 78 74q0 43 -28 69q-47 43 -170 58q-264 29 -265 163q0 180 252 181q131 0 203 -54q41 -29 59 -82l11 -43q0 -12 -17 -14q-16 0 -33 14l-22 29q-23 27 -77 40t-107 13 q-92 0 -138.5 -19.5t-46.5 -55.5q0 -66 88 -91l148 -24q115 -12 176 -66q53 -43 53 -112l-2 -27q-12 -82 -90 -139q-78 -53 -197 -53q-115 0 -185.5 42t-98.5 115z" />
<glyph unicode="O" horiz-adv-x="391" d="M10 -123q0 68 21 68q12 0 18 -29l14 -63q10 -37 41 -62q8 -6 30 -16.5t52 -10.5q63 0 107 41q41 35 57 80q23 -61 70 -92t106 -31q84 0 123 88q4 6 10.5 34t12.5 57h53q12 -59 30.5 -103.5t49.5 -66.5l53 -37q27 -27 27 -51q0 -19 -8 -35q-12 -29 -43 -29q-20 0 -45 13.5 t-49.5 40t-37.5 114.5l-4 78q-8 -72 -24 -109q-47 -110 -152 -110h-2q-68 0 -119 57q-33 39 -51 94q-37 -80 -78 -114q-37 -37 -88 -37q-88 0 -137 82q-37 61 -37 149zM113 184q0 27 6 42.5t31 15.5t30.5 -33t18.5 -55q31 -39 86 -45l121 -5q25 0 55.5 1t66.5 16 q68 25 78 74q0 43 -28 69q-47 41 -175.5 55.5t-194 52.5t-65.5 113q0 78 69 132.5t194 54.5t190 -54q41 -31 61 -88l11 -43q0 -12 -17 -14q-16 0 -33 14l-22 29q-23 25 -72 39t-102 14q-80 0 -117 -10q-78 -18 -78 -67t60 -76q35 -14 166 -35q121 -14 186 -68 q53 -43 53 -112l-2 -27q-12 -82 -90 -139q-78 -53 -197 -53q-115 0 -185.5 42t-98.5 115z" />
<glyph unicode="P" horiz-adv-x="391" />
<glyph unicode="Q" horiz-adv-x="163" />
<glyph unicode="R" d="M-217 799q0 18 12 33.5t31 17.5q16 0 33 -14l14 -17l49 -67q51 -70 70 -86q4 -4 20 -2q35 35 142 174l104 133l27 24l30 9q19 -1 35 -15q18 -18 19 -41q0 -31 -33 -57l-313 -275l-23 -8q-18 6 -25 10l-172 144l-10 10q-6 8 -10 27z" />
<glyph unicode="S" horiz-adv-x="847" d="M-287 643q0 27 15 33l26 8h838q98 0 158 -51q49 -44 49 -105q0 -72 -42 -122t-100 -50q-80 0 -128 43t-48 101q0 41 23 78l24 30h-774l-24 2q-14 0 -17 33zM573.5 444.5q28.5 -22.5 67.5 -22.5q33 0 58.5 28.5t25.5 69.5q0 33 -29.5 57.5t-68.5 24.5q-31 0 -60 -31 q-22 -28 -22 -64q0 -40 28.5 -62.5z" />
<glyph unicode="T" d="M-231 692l6 17q4 6 14 10l37 -19l70 -26l75 -8q72 0 131.5 43t59.5 104q0 63 -50.5 107.5t-121.5 44.5q-55 0 -90 -20.5t-35 -70.5q0 -20 31 -38q37 -14 71 -15q41 0 67.5 12.5t37.5 2.5q10 -23 -11 -37l-45 -23l-67 -8q-59 0 -113 25q-63 33 -63 84q0 59 54 100t91 47 l59 4q102 0 175 -61.5t73 -153.5q0 -98 -86 -154q-76 -47 -166 -47q-66 0 -107.5 12.5t-60.5 26.5l-28 23z" />
<glyph unicode="U" d="M-231 692l6 17q4 6 14 10l37 -19l70 -26l75 -8q72 0 131.5 43t59.5 104q0 63 -50.5 107.5t-121.5 44.5q-55 0 -90 -20.5t-35 -70.5q0 -20 31 -38q37 -14 71 -15q41 0 67.5 12.5t37.5 2.5q10 -23 -11 -37l-45 -23l-67 -8q-59 0 -113 25q-63 33 -63 84q0 61 55 104 q43 35 100 43l-26 27q-20 27 -21 63q0 53 38 87t106 34q63 0 99 -25.5t36 -76.5q0 -25 -9.5 -42.5t-29.5 -15.5q-25 6 -25 21l2 32q-6 18 -23.5 30.5t-54.5 12.5q-78 0 -77 -67l6 -35l18 -41q111 0 184.5 -60.5t73.5 -154.5q0 -98 -86 -154q-76 -47 -166 -47 q-66 0 -107.5 12.5t-60.5 26.5l-28 23z" />
<glyph unicode="V" horiz-adv-x="450" d="M-150 274q0 12 7 19q14 -10 18 -19l14 -38q49 -119 183 -119q74 0 133 41q76 51 94 157l2 35q0 82 -52 139.5t-145 57.5l-34 -2q-25 -4 -44.5 8t-19.5 45q0 25 17 39q16 10 43 14q113 0 202.5 -91t89.5 -232l-2 -35q-12 -135 -83.5 -218t-180.5 -83q-98 0 -166 86 q-31 39 -57 115l-12 43z" />
<glyph unicode="W" horiz-adv-x="954" d="M-150 274q0 12 7 19q14 -10 18 -19l14 -38q49 -119 183 -119q74 0 141 43q84 55 98 159l2 31q0 88 -50 167t-132 91h-37q-37 0 -47 17l-6 22q0 18 12 29l33 8h23h579q92 0 148.5 -50.5t56.5 -105.5q0 -78 -40 -124t-99 -46q-78 0 -127 43q-45 45 -45 99q0 45 22 80l25 28 h-377q55 -37 87 -125t32 -178q0 -127 -79 -220t-200 -93q-98 0 -166 86q-31 39 -57 115l-12 43zM641 504q0 -39 25.5 -60.5t70.5 -21.5q37 0 60.5 29.5t23.5 68.5q0 33 -28.5 57.5t-69.5 24.5q-33 0 -57.5 -28.5t-24.5 -69.5z" />
<glyph unicode="X" horiz-adv-x="624" d="M-2 -285l6 47q12 63 57 109q45 41 103 41q61 0 90 -41t29 -104q0 -35 -36 -66t-91 -31q-33 0 -66 37q-23 29 -29 60l-2 -35q0 -68 46.5 -111t117.5 -43l29 2q104 14 165.5 102.5t61.5 256.5q0 242 -100 409q-80 133 -197 187q-31 10 -54.5 31.5t-23.5 45.5q0 14 13.5 34 t38.5 20q27 0 61 -23l37 -31l82 -84q88 -106 135 -225q33 -84 51.5 -181.5t18.5 -203.5q0 -166 -64 -287q-77 -149 -221 -149h-2q-117 0 -186.5 68.5t-69.5 164.5zM82 -209l16 -31q25 -31 58 -32q31 0 53 16q24 12 24 41t-16 50.5t-57 21.5q-39 0 -64 -33z" />
<glyph unicode="Y" horiz-adv-x="1069" d="M-4 -244q6 23 8 33q10 45 53 87t105 42q57 0 90 -36t33 -87l-4 -37q0 -18 -39 -47.5t-88 -29.5q-39 0 -66 25.5t-33 49.5l-2 -30q0 -66 49.5 -106t145.5 -40q100 0 166 98q33 49 49 114t16 153q0 233 -94 415q-61 117 -162 211l-28 23q-20 12 -41 14q-39 0 -39 35 q0 29 12 35l31 6h633q106 0 165 -51q52 -46 52 -105q0 -72 -42 -122t-100 -50q-80 0 -128 43t-48 101q0 41 23 78l24 30h-465l31 -24l16 -23q119 -147 173.5 -304t54.5 -337q0 -170 -66 -289q-79 -153 -225 -153h-2q-115 0 -186.5 73.5t-71.5 167.5v37zM76 -209l18 -27 q26 -26 58 -26h2q33 0 54 11t25 40q0 27 -14 47q-23 29 -67 29q-31 0 -60 -37zM782.5 444.5q28.5 -22.5 67.5 -22.5q33 0 58.5 28.5t25.5 69.5q0 33 -30 57.5t-68 24.5q-31 0 -60 -31q-22 -28 -22 -64q0 -40 28.5 -62.5z" />
<glyph unicode="Z" horiz-adv-x="204" d="M59 862q0 16 9 25l30 14h643q63 0 111 -49q39 -45 39 -96q0 -63 -45 -105.5t-103 -42.5h-409q-25 0 -27 27q0 25 27 27h405q27 0 49 16q35 25 35 61q0 31 -19.5 58.5t-60.5 27.5h-645q-14 0 -18 4q-20 10 -21 33z" />
<glyph unicode="[" d="M-397 1067q0 45 41 86t104 41q61 0 98 -31t37 -80q0 -18 -11 -33.5t-30 -13.5q-16 6 -20 19l2 32q-10 37 -78 37q-39 0 -57.5 -29.5t-18.5 -62.5q0 -43 49 -92l50 -39l-43 -4l-45 27q-78 55 -78 143z" />
<glyph unicode="\" d="M45 -334q0 63 39 109q41 41 96 41q68 6 115 -40t47 -110l-6 -45q-6 -18 -27 -39h647q20 0 34 -9t14 -32q0 -25 -25 -35h-25h-718q-74 0 -126.5 35t-60.5 72zM113 -340q0 -33 28 -59q27 -20 68 -21q33 0 59 33q21 22 21 63q0 35 -29 57.5t-65 22.5q-37 0 -59.5 -28.5 t-22.5 -67.5z" />
<glyph unicode="]" horiz-adv-x="843" d="M-256 795q0 82 65.5 126t151.5 44q55 0 107 -27q27 -12 127 -96q35 47 96 84q80 45 164 45q164 0 247 -58q68 -47 80 -127l2 -22q0 -59 -44 -103.5t-97 -44.5q-78 0 -126 43t-48 99q0 55 33 94q20 23 59 43l-63 6q-47 0 -84 -10q-16 0 -58 -17q-23 -6 -43 -18t-45 -35 l-86 -80q-43 55 -98 93q-61 43 -129 43q-47 0 -90 -29q-43 -25 -43 -84l4 -41q2 -25 58.5 -45.5t109.5 -20.5q29 0 35 -22q0 -14 -19 -25q-80 0 -123 13q-123 35 -141 137zM530 760q0 -35 32 -58.5t71 -23.5q35 0 58.5 31.5t23.5 70.5q0 35 -34 62.5t-69 27.5q-31 0 -59 -36 q-23 -35 -23 -74z" />
<glyph unicode="^" d="M-653 -653q0 66 39 107.5t96 41.5q68 6 117 -39q45 -49 45 -110l-6 -45q-6 -18 -27 -39h760q20 0 33.5 -9t13.5 -32q0 -25 -25 -35h-24h-832q-72 0 -125 35t-59 71zM-586 -659q0 -31 31 -60q23 -20 66 -20q35 0 61 32q18 25 18 64q0 35 -28.5 57.5t-65.5 22.5t-59.5 -29 t-22.5 -67z" />
<glyph unicode="_" horiz-adv-x="966" d="M-297 860q0 20 8 29.5t31 11.5h956q106 0 160 -51q47 -44 47 -105q0 -72 -42 -122t-99 -50q-80 0 -128 43t-48 101q0 41 22 78l25 30h-361q14 -6 28.5 -34.5t14.5 -59.5l-6 -35q-25 -88 -157 -88h-412q-31 0 -33 27q0 25 33 27h414l45 8q47 14 53 57q0 41 -23.5 68.5 t-46.5 29.5h-442q-39 0 -39 35zM651 721q0 -37 29 -59.5t68 -22.5q33 0 58 28.5t25 69.5q0 33 -29.5 57.5t-68.5 24.5q-31 0 -59 -31q-23 -29 -23 -67z" />
<glyph unicode="`" d="M-272 944q0 72 38.5 101.5t104.5 29.5h512q37 0 37 -41q0 -18 -7 -25.5t-30 -9.5h-508q-76 0 -76 -73q0 -14 14.5 -25.5t57.5 -11.5h311q35 0 35 -39q0 -37 -31 -37h-317q-20 0 -36.5 -20.5t-22.5 -55.5q0 -33 26 -59q27 -23 60 -23h100q31 0 33 -22q0 -25 -31 -25h-98 q-63 0 -104.5 37t-47.5 88q0 27 3 39t13 33q12 35 41 43q-37 12 -53 29q-25 25 -24 67z" />
<glyph unicode="a" horiz-adv-x="399" d="M102 354q6 68 71 107t138 39l27 -2q88 -10 143 -39q41 -20 74 -53l41 32q23 23 29 56q1 5 1 10q0 41 -46 74q-53 32 -125 32h-4l-37 -2l-13 2q-12 6 -14 21q0 10 6 16l29 6l43 4q86 0 152.5 -36.5t66.5 -106.5l-2 -25q-2 -33 -22.5 -63.5t-67.5 -60.5q33 -25 63 -89 q23 -51 23 -106q0 -84 -55 -137q-55 -49 -140 -49q-61 6 -88 39q-22 32 -22 93v5q0 96 55 174q37 53 86 80q-16 23 -56 41t-65.5 23t-50.5 5q-53 0 -84 -30q-27 -31 -27 -68v-24l-6 -46q-2 -14 -22 -22l-31 -6q-35 0 -55 35q-10 18 -12.5 32.5t-2.5 38.5zM412 168 q0 -29 18 -53q18 -18 53 -27q8 -1 16 -1q32 0 58 19q43 31 43 99q0 47 -20 86l-31 45l-98 -72q-39 -45 -39 -96z" />
<glyph unicode="b" horiz-adv-x="438" d="M100 383l2 20q12 80 93 127q63 35 147 35q57 0 106.5 -19.5t104.5 -74.5l76 72q37 39 45 78l8 65q0 117 -111 184q-86 51 -163 52q25 -23 39 -59t14 -66l-2 -33q-12 -38 -53 -70q-35 -27 -81 -27q-9 0 -18 1q-61 0 -94 45q-16 27 -24.5 51t-8.5 61q6 68 63.5 112 t141.5 44q156 0 258 -90t102 -211l-2 -39q-12 -74 -61 -133l-86 -82q31 -43 56.5 -106.5t25.5 -129.5q0 -90 -55 -145q-55 -51 -140 -51q-66 0 -112 47q-45 51 -45 119q-1 10 -1 20q0 85 78 164l109 84q-39 33 -80 51.5t-92 18.5t-82 -31q-25 -31 -33 -72v-28q0 -20 4 -33 q0 -29 -20 -41l-37 -8q-31 0 -51.5 29.5t-20.5 68.5zM242 809q0 -16 10 -39q23 -47 76 -47q62 0 80 61l4 33q0 43 -31 80l-21 18q-31 0 -47 -3t-39 -25l-22 -35q-10 -25 -10 -43zM418 217q0 -43 17.5 -64.5t51.5 -31.5q10 -1 19 -1q31 0 57 15q39 28 39 96q0 47 -20 95 l-31 57l-98 -74q-35 -41 -35 -92z" />
<glyph unicode="c" horiz-adv-x="512" d="M102 307v76h308v-76h-308z" />
<glyph unicode="d" d="M-219 1077q0 47 29.5 94.5t91.5 47.5q135 0 135 -115q0 -20 -9.5 -35.5t-27.5 -11.5q-16 6 -20 24l-3 27q-10 41 -77 41q-25 0 -39.5 -19.5t-18.5 -50.5l2 -20q8 -39 47 -72l35 -22l-18 -9l-29 -10q-31 12 -55 37q-43 41 -43 94z" />
<glyph unicode="e" horiz-adv-x="620" d="M268 2v930l76 2v-932h-76z" />
<glyph unicode="f" horiz-adv-x="815" d="M-248 860q0 41 39 41h756q106 0 160 -51q47 -44 47 -105q0 -72 -42 -122t-100 -50q-80 0 -128 43t-48 101q0 49 31 92l14 16h-256q12 -8 27 -45q6 -16 7 -33.5t3 -27.5q-6 -53 -39 -84q-33 -27 -94 -27h-242l-20 4q-8 2 -10 23q0 25 12 24l18 3h260q18 4 29 10 q31 18 31 65q0 43 -20.5 63.5t-45.5 24.5h-350q-39 0 -39 35zM528.5 661.5q28.5 -22.5 67.5 -22.5q33 0 58.5 28.5t25.5 69.5q0 33 -29.5 57.5t-68.5 24.5q-31 0 -60 -31q-22 -28 -22 -64q0 -40 28.5 -62.5z" />
<glyph unicode="g" horiz-adv-x="442" d="M102 199q0 246 174 399q72 61 168 61q80 0 156 -51q94 -68 137 -205q31 -102 31 -239q0 -74 -24 -126q-21 -44 -62 -44q-7 0 -16 2q-45 10 -45 57q0 31 12 68l18 59l15 62l6 65q0 125 -73 215t-153 90q-82 0 -160.5 -97t-78.5 -226q0 -37 3 -54.5t13 -52.5l25 -73l10 -52 q0 -25 -10 -37q-6 -12 -35 -20q-8 -2 -15 -2q-45 0 -73 72q-23 63 -23 129z" />
<glyph unicode="h" horiz-adv-x="442" d="M102 324q0 133 98.5 233t237.5 100q133 0 233.5 -98t100.5 -237q0 -135 -97 -234.5t-239 -99.5q-139 0 -236.5 98t-97.5 238zM186 362q0 -104 72 -175.5t178 -71.5q104 0 177 72.5t73 174.5t-72.5 176t-177.5 74q-104 0 -177 -72.5t-73 -177.5zM367 373q0 33 18 53t53 25 q29 0 51 -25q21 -18 23 -53q0 -31 -18.5 -51.5t-53.5 -24.5q-29 0 -49 21.5t-24 54.5z" />
<glyph unicode="i" horiz-adv-x="442" />
<glyph unicode="j" d="M-272 727q0 80 55 130t139 50q47 0 78 -10q111 -27 174 -125q49 -78 49 -170q0 -27 -10 -57l-31 28v58q0 51 -47 98q-53 53 -147 78l-45 4q-55 0 -100.5 -23.5t-45.5 -68.5l8 -33q6 -16 33 -29.5t58 -19.5q10 0 16 -10v-19q-10 -16 -33 -16l-76 24q-76 39 -75 111z" />
<glyph unicode="k" d="M-272 727q0 80 57 130t143 50q-33 27 -49 51q-23 35 -22 74q0 53 40 87t101 34q53 0 88 -36t35 -81q0 -49 -31 -49q-16 0 -29.5 48t-70.5 48q-29 0 -45 -22q-18 -18 -19 -53q0 -29 13.5 -56.5t35.5 -48.5l25 -6q111 -27 174 -125q49 -78 49 -170q0 -27 -10 -57l-31 28v58 q0 51 -47 98q-53 53 -147 78l-45 4q-55 0 -100.5 -23.5t-45.5 -68.5l8 -33q6 -16 33 -29.5t58 -19.5q10 0 16 -10v-19q-10 -16 -33 -16l-76 24q-76 39 -75 111z" />
<glyph unicode="l" horiz-adv-x="204" d="M59 862q0 16 9 25l30 14h725q63 0 111 -49q39 -45 39 -96q0 -63 -45 -105.5t-103 -42.5h-417q-25 0 -27 27q0 25 27 27h413q27 0 49 16q35 25 35 61q0 31 -19.5 58.5t-60.5 27.5h-727q-14 0 -18 4q-20 10 -21 33z" />
<glyph unicode="m" horiz-adv-x="485" d="M102 176q0 84 47.5 146.5t129.5 62.5q111 0 177 -139.5t171 -139.5q61 0 114 39q74 55 74 164q0 117 -63 183q-71 73 -207 73h-4q-35 0 -59.5 10.5t-26.5 42.5q0 41 26.5 50.5t69.5 9.5q109 0 205 -88q112 -106 112 -266q0 -147 -66.5 -238.5t-176.5 -91.5q-72 0 -125 49 q-37 37 -49 86q-12 -41 -52 -84q-49 -53 -120 -53q-80 0 -128.5 52t-48.5 132zM170 203q0 -47 39 -78q35 -20 70 -21q68 0 104 58l12 26l-2 41q-18 90 -102 99q-53 0 -90 -37q-31 -35 -31 -88z" />
<glyph unicode="n" d="M-121 -195l6 25l62 145h14l55 -145l7 -27q0 -25 -19.5 -45t-54.5 -24q-33 0 -49 22q-16 16 -21 49z" />
<glyph unicode="o" horiz-adv-x="344" d="M-520 63l10 -6q27 -90 94 -163q51 -53 111.5 -80t138.5 -27q125 0 221 80q117 98 117 276q0 152 -37 248t-121 156l-84 43q-45 20 -47 53l8 29q6 22 38 22h3q31 0 66 -19.5t49 -37.5l72 -70q127 -151 127 -409q0 -184 -109 -338q-117 -170 -291 -170q-166 0 -280 172 q-86 133 -86 241z" />
<glyph unicode="p" horiz-adv-x="753" d="M-528 63l12 -18q31 -123 137 -197q86 -61 205 -61q125 0 221 80q117 98 117 276q0 139 -47 248q-43 113 -123 180l-25 21q-18 12 -45 16h-12q-41 0 -41 37q0 25 16 31l33 8h565q111 0 164 -51q41 -42 41 -105q0 -72 -42 -122t-99 -50q-80 0 -128 43t-48 101q0 41 22 78 l25 30h-402q66 -41 134 -162q35 -68 55 -142.5t20 -145.5q0 -203 -100 -348q-111 -160 -289 -160q-166 0 -280 172q-86 133 -86 241zM436 504q0 -37 29 -59.5t67 -22.5q33 0 58.5 28.5t25.5 69.5q0 33 -29.5 57.5t-68.5 24.5q-31 0 -59 -31q-23 -29 -23 -67z" />
<glyph unicode="q" horiz-adv-x="485" d="M102 168q0 74 34 128t108 54q92 0 171 -116.5t175 -116.5q98 0 159.5 55t61.5 139q0 45 -9 79t-34 69q-66 86 -199 86q-27 -4 -55.5 8t-30.5 45q0 35 31 47q29 8 45 9t25 1q88 0 174 -77q110 -99 110 -267q0 -133 -79.5 -227t-184.5 -94h-20q-96 0 -213 207 q-49 92 -119 92q-35 0 -64 -31q-25 -31 -24 -74l4 -41q6 -25 39 -45l61 -32l15 -23l8 -23q0 -10 -12 -32q-16 -18 -41 -19q-25 0 -48 19q-47 41 -67.5 84t-20.5 96z" />
<glyph unicode="r" horiz-adv-x="485" d="M102 168q0 74 37 129t115 55q84 0 163 -123t175 -123q90 0 153.5 88.5t63.5 200.5q0 193 -88 324q-109 160 -320 160q-45 0 -69.5 10t-24.5 49q0 31 19 43q14 6 49 10h20q156 0 295 -129q178 -166 178 -465q0 -178 -88 -299q-43 -57 -91 -82.5t-105 -25.5q-96 0 -213 207 q-49 92 -119 92q-35 0 -64 -31q-25 -31 -24 -74l4 -41q6 -25 39 -45l61 -32l15 -23l8 -23q0 -10 -12 -32q-16 -18 -41 -19q-25 0 -48 19q-47 41 -67.5 84t-20.5 96z" />
<glyph unicode="s" horiz-adv-x="485" />
<glyph unicode="t" horiz-adv-x="485" d="M102 180q0 76 41 135q49 72 140 72q90 0 182 -166q45 -86 133 -100q8 -2 25 -2q27 0 53 10t55 31q82 63 82 176q0 72 -33 123q-53 86 -184 86q-16 0 -31.5 1t-29.5 7q-25 12 -25 39q0 31 19.5 45t62.5 14q139 0 215 -121q59 -94 59 -215q0 -37 -11 -91t-36 -97 q0 -25 21 -59q23 -31 49 -31l16 4q12 4 21 4q18 -1 44 -21q21 -17 20 -44q0 -6 -1 -13q-12 -39 -57 -39q-16 0 -45 9.5t-60 62.5q-4 8 -15 40t-11 54q-29 -39 -80 -71q-47 -27 -105 -27q-74 0 -124 53q-31 37 -50 92q0 -43 -39 -88q-47 -57 -124 -57q-80 0 -128.5 52 t-48.5 132zM172 211q0 -49 38 -79t75 -30q59 0 96 52q10 16 18 51q-6 41 -18 61q-33 63 -96 64q-53 0 -83 -36t-30 -83z" />
<glyph unicode="u" horiz-adv-x="485" d="M100 190q0 78 43 138.5t127 60.5l33 -2q94 -12 154.5 -139t148.5 -127q98 0 161.5 88t63.5 217q0 178 -69 299q-92 164 -299 164q-37 0 -63.5 13t-26.5 48q0 27 12 36t45 13l29 -2q147 0 274 -125q162 -162 162 -446q0 -84 -21 -154q-18 -74 -59 -137l2 -14q2 -23 25 -51 q18 -18 51 -23l18 4q12 4 21 4q18 0 38 -17q15 -13 14 -34q0 -7 -1 -14q-12 -37 -57 -37l-45 8q-35 12 -60 57q-20 47 -20 88q-39 -55 -93.5 -86.5t-111.5 -31.5q-59 0 -109 61l-47 86q-12 -51 -47 -88q-47 -51 -117 -51q-76 0 -126 53q-47 57 -48 123zM182 209 q0 -43 33 -76q27 -27 68 -27q61 0 94 46l22 47q-6 45 -16 61q-29 61 -92 62q-55 0 -82 -34t-27 -79z" />
<glyph unicode="v" horiz-adv-x="581" d="M-158 469q8 6 33 -20l131 -195q33 -47 92 -88q35 -20 71 -32.5t75 -12.5q74 6 116 47q57 51 58 145q0 88 -56.5 156t-117.5 78q-55 6 -79 14t-24 39l4 29q2 14 19.5 19t42.5 5l45 -14q12 -4 27.5 -12.5t35.5 -22.5q66 -43 115 -125t49 -184q0 -131 -60.5 -213t-160.5 -82 q-68 0 -142.5 54.5t-148.5 168.5l-84 144q-42 82 -42 99q0 2 1 3z" />
<glyph unicode="w" horiz-adv-x="978" d="M-152 463h1q14 0 163 -209q33 -47 92 -88q35 -20 71 -32.5t75 -12.5q74 6 117 47q57 51 57 145q0 98 -52.5 190.5t-140.5 104.5h-38q-39 0 -39 39q0 18 9 25.5t32 11.5h516q113 0 166 -51q41 -37 41 -105q0 -72 -42 -122t-100 -50q-80 0 -128 43t-48 101q0 41 23 78 l24 30h-289q51 -41 89 -130t38 -183q0 -131 -60 -213t-161 -82q-94 0 -184 88q-51 47 -103 135l-83 139zM692.5 444.5q28.5 -22.5 67.5 -22.5q33 0 58.5 28.5t25.5 69.5q0 33 -30 57.5t-69 24.5q-31 0 -59 -31q-22 -28 -22 -64q0 -40 28.5 -62.5z" />
<glyph unicode="x" horiz-adv-x="24" d="M59 799q0 18 12.5 33.5t30.5 17.5q16 0 33 -14l15 -17l38 -67q20 -33 36 -56.5t23 -28.5t21 -3q35 35 142 174l104 133l27 24l30 9q19 -1 35 -15q18 -18 19 -41q0 -31 -33 -57l-313 -275l-23 -8q-18 6 -25 10l-151 144l-10 10q-6 8 -11 27z" />
<glyph unicode="y" horiz-adv-x="917" d="M-354 645q0 29 14 35l29 4h956q117 0 170 -51q41 -37 41 -105q0 -72 -42 -122t-99 -50q-80 0 -128 43t-48 101q0 41 22 78l25 30h-897q-43 0 -43 37zM602 504q0 -37 28.5 -59.5t67.5 -22.5q33 0 58.5 28.5t25.5 69.5q0 33 -29.5 57.5t-68.5 24.5q-31 0 -59 -31 q-23 -29 -23 -67z" />
<glyph unicode="z" horiz-adv-x="122" d="M78 678l6 16q4 6 14 11l35 -19l70 -27l78 -8q72 0 131 43t59 105q0 63 -50 107t-122 44q-55 0 -90 -20.5t-35 -69.5q0 -20 31 -39q37 -14 71 -14q41 0 68 12t37 2q10 -23 -10 -37l-45 -22l-68 -8q-59 0 -113 24q-63 33 -63 84q0 59 54 100.5t89 47.5l62 4 q102 0 175 -61.5t73 -153.5q0 -98 -86 -154q-76 -47 -166 -47q-66 0 -106 12.5t-62 26.5l-29 22z" />
<glyph unicode="{" horiz-adv-x="122" d="M80 659q-6 12 0 23.5t16 15.5l37 -18l70 -27l78 -8q70 0 129 43t59 105q0 63 -50 107t-122 44q-47 0 -86 -23.5t-39 -70.5q0 -23 47 -41l57 -8q29 0 60 12l29 12q10 -6 14 -10l6 -18q-10 -14 -18 -19l-43 -22l-66 -8q-59 0 -113 24q-63 33 -63 84t41 92q31 31 82 49 q-12 10 -33 41q-8 16 -12 30.5t-4 35.5q0 57 33.5 94t107.5 37q63 0 100 -36t37 -87q0 -18 -10 -31q-6 -12 -25 -8q-18 2 -20 21l-4 28q-2 12 -24.5 27.5t-53.5 15.5q-45 0 -62.5 -22.5t-17.5 -55.5l6 -47q6 -23 21 -34l41 2q102 0 173.5 -61.5t71.5 -153.5q0 -100 -84 -154 q-72 -47 -163 -47q-66 0 -109 12t-63 29z" />
<glyph unicode="|" horiz-adv-x="430" d="M59 862q0 16 9 25l30 14h553q63 0 111 -49q39 -45 39 -96q0 -63 -45 -105.5t-103 -42.5h-366q-25 0 -27 27q0 25 27 27h362q27 0 49 16q35 25 35 61q0 31 -19.5 58.5t-60.5 27.5h-555q-14 0 -18 4q-20 10 -21 33z" />
<glyph unicode="}" horiz-adv-x="348" d="M59 862q0 16 9 25l30 14h441l-29 47l-14 68q-6 47 36 92q20 20 47 32.5t60 12.5q49 0 83 -31.5t34 -74.5q0 -39 -33 -39q-10 0 -27.5 33.5t-70.5 33.5q-63 0 -64 -71q0 -23 12 -58l27 -49q53 -10 86 -53q10 -14 21.5 -37t11.5 -51q0 -63 -45 -105.5t-103 -42.5h-284 q-25 0 -27 27q0 25 27 27h280q27 0 49 16q35 25 35 61q0 31 -19.5 58.5t-60.5 27.5h-473q-14 0 -18 4q-20 10 -21 33z" />
<glyph unicode="~" horiz-adv-x="937" d="M-383 559q0 61 68.5 128t152.5 67q88 0 166 -54q72 -45 92 -104q41 63 141.5 118.5t165.5 55.5l35 2l41 2q170 0 275 -61.5t123 -149.5l2 -12v-10q0 -61 -43 -109.5t-95 -48.5q-76 0 -116 53q-33 45 -33 94q6 57 33.5 87t58.5 36q-63 41 -172 41q-123 0 -244 -53 t-159 -145h-33l-33 61q-76 106 -207 107q-51 0 -96 -36t-57 -79l-7 -37q-6 -18 -22 -18q-25 0 -31 13t-6 52zM641 524q0 -37 26.5 -60.5t67.5 -23.5q29 0 48.5 27.5t23.5 64.5q0 39 -22.5 64t-59.5 25q-35 0 -63 -31q-20 -23 -21 -66z" />
<glyph unicode="&#xa1;" horiz-adv-x="937" d="M-383 559q0 61 68.5 128t152.5 67q88 0 166 -54q72 -45 92 -104q41 63 141.5 118.5t165.5 55.5l35 2l39 2q88 0 168 -20q-10 18 -16 57q0 51 28 96q33 45 93 45q135 1 135 -114q0 -20 -9.5 -36t-27.5 -11q-16 6 -21 24l-2 27q-10 41 -77 41q-27 0 -41.5 -19.5 t-16.5 -50.5l4 -31q4 -16 15 -32l28 -31q125 -61 140 -156l2 -12v-10q0 -61 -43 -109.5t-95 -48.5q-76 0 -116 53q-33 45 -33 94q6 57 33.5 87t58.5 36q-63 41 -172 41q-123 0 -244 -53t-159 -145h-33l-33 61q-76 106 -207 107q-51 0 -96 -36t-57 -79l-7 -37q-6 -18 -22 -18 q-25 0 -31 13t-6 52zM641 524q0 -37 26.5 -60.5t67.5 -23.5q29 0 48.5 27.5t23.5 64.5q0 39 -22.5 64t-59.5 25q-35 0 -63 -31q-20 -23 -21 -66z" />
<glyph unicode="&#xa2;" horiz-adv-x="942" d="M-371 692q0 18 7.5 25.5t29.5 13.5h1004q102 0 161 -49q50 -43 50 -104q0 -72 -42 -122t-100 -50q-80 0 -128 43t-48 100q0 43 23 78l24 28h-475q14 -8 26.5 -31.5t6.5 -52.5q-6 -35 -37 -53q-33 -14 -82 -14h-383q-33 0 -33 26q0 14 7.5 20.5t25.5 6.5h377q35 0 53.5 7 t18.5 38q0 35 -16.5 42t-53.5 11h-379l-10 2q-27 10 -27 35zM627 553q0 -37 28.5 -59.5t67.5 -22.5q33 0 58.5 28.5t25.5 69.5q0 33 -29.5 57.5t-68.5 24.5q-31 0 -60 -30q-23 -29 -22 -68z" />
<glyph unicode="&#xa3;" d="M82 944q0 72 38 101.5t105 29.5h512q37 0 37 -41q0 -18 -7 -25.5t-30 -9.5h-508q-76 0 -75 -73q0 -49 71 -49h312q16 0 26 -7q2 -4 5 -12t3 -14q0 -31 -30 -31h-318q-18 0 -39 -22q-14 -20 -20 -54q0 -31 24 -59q27 -23 62 -23h39q31 0 33 -22q0 -25 -31 -25h-37 q-63 0 -104 37t-48 88q0 37 15.5 72t42.5 43q-37 12 -54 29q-25 25 -24 67z" />
<glyph unicode="&#xa4;" horiz-adv-x="792" d="M102 180q0 74 41 133q51 70 136 70q104 0 168.5 -132t170.5 -132q63 0 111 35q74 55 74 176q0 76 -45 147q-61 102 -170 103h-76q-20 0 -33 6q-4 6 -8 32q0 18 12 29l33 8h682q111 0 172 -55q51 -47 51 -108q0 -78 -40 -124t-99 -46q-80 0 -126 45t-46 102q0 53 33 94 l18 17h-424q59 -47 92 -119q18 -39 26.5 -71t8.5 -75q0 -119 -53 -206q-70 -113 -195 -113q-74 0 -124 53q-31 37 -50 92q0 -43 -39 -88q-47 -57 -124 -57q-80 0 -128.5 52t-48.5 132zM182 211q0 -49 34 -79t69 -30q61 0 94 52l20 51q-8 37 -20 53q-31 55 -88 55 q-41 0 -75 -29.5t-34 -72.5zM1167 467q0 -37 29 -59.5t70 -22.5q33 0 57.5 28.5t24.5 69.5q0 37 -27 63.5t-76 26.5q-33 0 -57 -32q-20 -35 -21 -74z" />
<glyph unicode="&#xa5;" horiz-adv-x="792" d="M82 799q0 18 12 33.5t31 17.5q16 0 33 -14l14 -17l49 -67q51 -70 70 -86q6 -4 20 -2q35 35 142 174l104 133l27 24l30 9q19 -1 35 -15q18 -18 19 -41q0 -31 -33 -57l-313 -275l-23 -8q-18 6 -25 10l-172 144l-10 10q-6 8 -10 27zM98 180q0 76 39 133q51 70 137 70 q102 0 169 -132t173 -132q80 0 131.5 61.5t51.5 149.5q0 41 -8.5 72.5t-32.5 74.5q-55 102 -150 103h-100q-16 0 -29 6q-4 6 -8 32q0 37 37 37h672q-35 25 -54 47q-27 41 -26 86q0 63 46 94t101 31q43 0 79 -22.5t44 -75.5q0 -25 -3 -38t-26 -17q-23 0 -26 24 q0 23 -13.5 40.5t-50.5 17.5q-51 0 -73 -31q-12 -18 -13 -51q0 -37 29 -70l41 -35q33 0 62.5 -12t62.5 -41q61 -53 61 -110q0 -78 -40 -124t-99 -46q-80 0 -126 45t-46 102q0 53 33 94l18 17h-428q59 -43 93 -120t34 -145q0 -119 -53 -204q-68 -115 -195 -115q-74 0 -125 53 q-31 37 -49 92q0 -43 -39 -88q-47 -57 -125 -57q-80 0 -128 52t-48 132zM178 211q0 -49 34 -79t69 -30q61 0 94 52l20 51q-8 37 -20 53q-31 55 -88 55q-41 0 -75 -29.5t-34 -72.5zM1167 467q0 -37 29 -59.5t70 -22.5q33 0 57.5 28.5t24.5 69.5q0 37 -27 63.5t-76 26.5 q-33 0 -57 -32q-20 -35 -21 -74z" />
<glyph unicode="&#xa6;" horiz-adv-x="237" />
<glyph unicode="&#xa7;" horiz-adv-x="614" d="M-115 537q12 6 88 -125q45 -80 101 -158q35 -51 94 -86q78 -45 147 -45q68 0 117 43q57 51 57 149q0 92 -56 161t-148 81q-74 0 -74 47l4 27q6 12 23 20l34 6q35 0 109 -47t123 -131t49 -182q0 -131 -62.5 -214t-160.5 -83q-96 0 -189 90q-55 53 -104 135q-31 43 -96 176 z" />
<glyph unicode="&#xa8;" horiz-adv-x="1087" d="M-115 537q12 6 88 -125q20 -37 50 -82q20 -31 49 -76q37 -49 94 -88q35 -20 70.5 -32.5t74.5 -12.5q70 6 115 45q57 51 57 143q0 106 -41 189q-55 111 -155 110h-45q-45 0 -45 39q0 25 16 31l35 6h557q111 0 172 -55q49 -43 49 -109q0 -76 -41 -123t-98 -47 q-82 0 -128 45t-46 103q0 51 35 94l18 16h-344q39 -37 84 -135q39 -98 39 -178q0 -131 -60.5 -213t-158.5 -82q-92 0 -189 90q-47 47 -102 133q-31 45 -94 176zM772 496q0 -37 28.5 -59.5t69.5 -22.5q35 0 58.5 29.5t23.5 68.5q0 37 -26.5 63.5t-75.5 26.5q-33 0 -57 -33 q-20 -35 -21 -73z" />
<glyph unicode="&#xa9;" horiz-adv-x="485" d="M102 162q0 45 7.5 72.5t29.5 60.5q47 59 127 59q96 0 167 -113.5t163 -125.5l27 -2q78 0 130 58t52 148q0 66 -35 123.5t-89 96.5t-118 55q-68 14 -147 14h-68q-18 0 -20 23q0 25 22 24h64q225 0 348 -104q106 -95 106 -240q0 -135 -73.5 -229t-178.5 -94l-24 2 q-104 8 -205 211q-47 92 -121 92q-39 0 -68.5 -33t-29.5 -74l4 -39q6 -18 31 -41l76 -43q16 -16 20 -43l-4 -16l-8 -16q-16 -18 -41 -19q-27 0 -51 19q-45 39 -72 86q-20 47 -21 88z" />
<glyph unicode="&#xaa;" horiz-adv-x="485" d="M100 199q0 72 49.5 129t129.5 57q109 0 167 -133t154 -133q80 0 139 47q68 55 68 156q0 143 -143 223q-59 31 -126 47t-147 16h-35q-27 0 -28 23q0 25 51 24q246 0 375 -108q112 -95 112 -232q0 -119 -51 -206q-70 -113 -197 -113q-74 0 -120 47q-27 29 -47 86 q-6 -35 -50 -82q-55 -55 -122 -55q-80 0 -128.5 56t-48.5 132zM170 203q0 -47 39 -78q35 -20 70 -21q68 0 104 58l12 26l-2 41q-18 90 -102 99q-53 0 -90 -37q-31 -35 -31 -88z" />
<glyph unicode="&#xab;" d="M-375 799q0 18 12.5 33.5t30.5 17.5q16 0 33 -14l14 -17l49 -67q51 -70 70 -86q4 -4 21 -2q35 35 141 174l104 133l27 24l31 9q19 -1 35 -15q18 -18 18 -41q0 -31 -33 -57l-313 -275l-23 -8q-18 6 -24 10l-172 144l-11 10q-6 8 -10 27z" />
<glyph unicode="&#xac;" horiz-adv-x="454" d="M78 190q0 76 37 137.5t112 61.5q127 0 191.5 -133t152.5 -133q92 0 156 86t64 197q0 274 -170 419q-121 102 -246 103q18 -12 32.5 -41t14.5 -62q0 -27 -13.5 -58.5t-51.5 -54t-78 -22.5q-35 0 -72 19q-31 18 -48.5 51t-17.5 69l9 45q16 55 65 81t168 26q201 0 346 -182 q123 -153 123 -393q0 -147 -76 -269q-88 -137 -213 -137q-104 0 -168.5 161t-161.5 161q-33 0 -58 -29t-25 -70q0 -35 22.5 -70.5t65.5 -55t43 -62.5q0 -25 -25 -43l-27 -6q-20 0 -36 8q-20 6 -31 20q-39 35 -61.5 78t-22.5 98zM203 846q0 -41 21.5 -69.5t58.5 -28.5 q35 0 62.5 21t27.5 58q0 35 -12.5 59.5t-51.5 37.5q-35 6 -71 -19q-29 -23 -35 -59z" />
<glyph unicode="&#xad;" horiz-adv-x="454" d="M66 180q0 80 38 137q47 68 140 68q115 0 168 -123t151 -141q80 -12 152.5 80t72.5 260q0 172 -96 295q-109 139 -311 172l29 -43q12 -25 12 -54q0 -31 -13.5 -65.5t-51.5 -55t-78 -20.5q-37 0 -64 17q-72 41 -72 120l7 47q12 55 67 84q55 25 123 25l68 -6 q158 -25 272 -129q172 -153 172 -442q0 -145 -66 -265q-80 -145 -208 -145q-76 0 -123 53q-31 35 -49 92q0 -43 -39 -88q-47 -57 -123 -57q-80 0 -131 51q-47 53 -47 133zM147 211q0 -47 33 -78q16 -12 34.5 -19.5t37.5 -7.5q57 0 92 50l21 49q-6 41 -15 59q-29 59 -96 60 q-53 0 -82 -31q-25 -31 -25 -82zM201 838q0 -35 25.5 -62.5t58.5 -27.5q39 0 64.5 24t25.5 59q0 37 -20.5 65t-63.5 28q-35 0 -62.5 -26t-27.5 -60z" />
<glyph unicode="&#xae;" horiz-adv-x="102" d="M59 862q0 16 9 25l30 14h742q63 0 110 -49q39 -45 39 -96q0 -63 -45 -105.5t-102 -42.5h-496q-25 0 -27 27q0 25 27 27h492q27 0 49 16q35 25 35 61q0 31 -19.5 58.5t-60.5 27.5h-744q-14 0 -18 4q-20 10 -21 33z" />
<glyph unicode="&#xaf;" horiz-adv-x="798" d="M-299 772q0 80 59.5 136.5t149.5 56.5q59 0 129 -52q47 -35 90 -92q53 51 94 76q59 35 152 53l84 6q135 0 217 -75q61 -60 61 -123q0 -66 -40 -112t-97 -46q-80 0 -129 43q-45 45 -45 98q0 55 33 89t78 49q-20 10 -86 10l-54 -2q-16 0 -51 -13q-80 -20 -145 -69l-72 -64 l-109 103q-59 39 -108 39q-53 0 -93 -30t-40 -91q0 -37 29.5 -66.5t78.5 -36.5q31 0 37 -28q-8 -10 -14 -15l-16 -4q-37 0 -60 9q-133 37 -133 151zM487 748q0 -37 29 -59.5t72 -22.5q39 0 60.5 27.5t21.5 70.5q0 33 -29 61.5t-63 28.5q-35 0 -63 -34t-28 -72z" />
<glyph unicode="&#xb0;" horiz-adv-x="972" d="M-150 274q0 12 7 19q14 -10 18 -19l14 -38q49 -119 183 -119q86 0 149 39q88 53 88 163q0 55 -8 96.5t-33 84.5q-47 90 -143 108h-78q-31 0 -31 25t31 29h168q43 0 66.5 18t23.5 70q0 41 -23.5 56t-58.5 19h-215q-37 0 -37 35q0 41 35 41h688q106 0 166 -53 q51 -46 51 -109q0 -78 -41 -125t-98 -47q-78 0 -127 43q-45 45 -45 101q0 49 33 94l18 20h-332q20 -18 33 -44.5t13 -61.5q0 -41 -39 -78q-39 -33 -103 -33q27 -12 45 -33q49 -55 75 -122.5t26 -145.5q0 -135 -78 -225t-199 -90q-98 0 -166 86q-31 39 -57 115l-12 43z M657 715q0 -37 29 -59.5t70 -22.5q35 0 61 31q21 22 21 67q0 37 -29 59.5t-68 22.5q-37 0 -60.5 -29.5t-23.5 -68.5z" />
<glyph unicode="&#xb1;" d="M-348 944q0 72 39 101.5t104 29.5h512q37 0 37 -41q0 -18 -7 -25.5t-30 -9.5h-508q-76 0 -75 -73q0 -49 71 -49h311q16 0 27 -7q2 -4 5 -12t3 -14q0 -31 -30 -31h-318q-18 0 -39 -22q-18 -16 -20 -52q0 -33 26 -59q27 -23 60 -23h49q31 0 33 -22q0 -25 -31 -25h-47 q-63 0 -104.5 37t-47.5 88q0 41 16.5 70t41.5 43q-37 12 -54 29q-25 25 -24 67z" />
<glyph unicode="&#xb2;" horiz-adv-x="507" d="M102 260q0 152 99 266q115 129 311 129q188 0 303 -129q47 -55 71.5 -116.5t24.5 -133.5q0 -115 -58 -201.5t-155 -86.5q-86 0 -139 51q-39 37 -51 88q-12 -47 -43 -84q-49 -53 -129 -53q-121 0 -186 98q-47 76 -48 172zM178 295q0 -55 33 -107q47 -72 131 -71 q63 0 111 55q35 41 45 104h20q6 -57 52 -107t120 -50q94 0 137 76q2 4 10.5 29.5t12.5 45.5l-6 -16q-18 -37 -76 -55l-33 -4q-90 0 -133 79q-10 25 -10 60q0 78 45 121l49 28q16 6 49 11q23 0 33 -5l25 -8q-37 43 -70 64q-96 63 -211 63q-141 0 -237.5 -91t-96.5 -222z M655 352l4 -37q4 -18 31 -43q31 -20 68 -20l18 2q31 6 50.5 32.5t23.5 63.5l-4 23q-16 78 -98 78l-19 -2q-74 -18 -74 -97z" />
<glyph unicode="&#xb3;" d="M-82 -215l6 25l62 165h14l55 -165l6 -27q0 -25 -19 -45.5t-54 -24.5q-33 0 -49 23q-16 16 -21 49z" />
<glyph unicode="&#xb4;" horiz-adv-x="507" d="M102 260q0 147 111 268q121 127 299 127q186 0 303 -125q105 -114 105 -266q0 -111 -48 -182q-55 -86 -163 -86q-86 0 -152 65q-23 23 -49 66q-23 -43 -41 -66q-55 -66 -139 -65q-127 0 -185 96q-41 70 -41 168zM188 313q0 -84 29 -129q39 -63 121 -63q72 0 121 49 q33 35 39 86h20q4 -27 10 -41q37 -92 146 -92q80 0 131 57q41 48 41 107q0 139 -94.5 230t-239.5 91q-131 0 -227.5 -91t-96.5 -204zM410 410q0 41 28.5 71.5t69.5 30.5t71.5 -28.5t30.5 -69.5t-26.5 -71t-71.5 -30t-73.5 28t-28.5 69zM434 -195l6 25l62 145h14l55 -145 l7 -27q0 -25 -19.5 -45t-54.5 -24q-31 0 -50.5 20.5t-19.5 50.5z" />
<glyph unicode="&#xb5;" horiz-adv-x="507" d="M102 260q0 147 111 268q121 127 299 127q184 0 301 -125q53 -57 80 -122.5t27 -143.5q0 -104 -52 -182q-59 -86 -161 -86q-90 0 -154 65q-18 18 -45 66q-14 -39 -31 -66q-47 -66 -133 -65q-123 0 -190 94q-51 78 -52 170zM184 297q0 -61 27 -109q37 -68 127 -67 q74 0 119 47q31 35 41 88h20q14 -39 31 -66q49 -68 133 -67q86 0 131 57q37 44 37 107q0 137 -101.5 229t-242.5 92q-133 0 -227.5 -97t-94.5 -214z" />
<glyph unicode="&#xb6;" horiz-adv-x="507" />
<glyph unicode="&#xb7;" horiz-adv-x="663" d="M102 324q0 133 98.5 233t237.5 100h27v-47l-29 2q-104 0 -177 -72.5t-73 -177.5q0 -104 72 -175.5t178 -71.5h35l39 6l-2 -127l-35 -2q-27 0 -37 -4q-139 0 -236.5 98t-97.5 238z" />
<glyph unicode="&#xb8;" horiz-adv-x="870" d="M102 324q0 133 98.5 233t237.5 100q133 0 233.5 -98t100.5 -237l-2 -31l21 -55q49 -119 184 -119q72 0 137 43q76 55 88 159l2 31q0 111 -91 187.5t-204 76.5q-43 0 -43 19q0 16 13 20l24 2q168 0 266.5 -96t98.5 -266q0 -129 -81 -215t-194 -86q-96 0 -160 76 q-31 37 -55 100l-16 68q-29 -109 -120 -178.5t-204 -69.5q-139 0 -236.5 98t-97.5 238zM186 362q0 -104 72 -175.5t178 -71.5q104 0 177 72.5t73 174.5t-72.5 176t-177.5 74q-104 0 -177 -72.5t-73 -177.5z" />
<glyph unicode="&#xb9;" horiz-adv-x="102" d="M59 862q0 16 9 25l30 14h1133q63 0 110 -49q39 -45 39 -96q0 -63 -45 -105.5t-102 -42.5h-256q-25 0 -27 27q0 25 27 27h252q27 0 49 16q35 25 35 61q0 31 -19.5 58.5t-60.5 27.5h-1135q-14 0 -18 4q-20 10 -21 33z" />
<glyph unicode="&#xba;" d="M-147 717q0 47 34 84q16 20 47 37q-49 25 -61 43q-20 35 -20 80q0 63 38.5 88.5t120.5 25.5h482q38 0 38 -41q0 -35 -38 -35h-478q-39 0 -63.5 -12t-24.5 -45q0 -66 66 -65h307q31 0 31 -37q0 -23 -31 -27h-291q-35 0 -65.5 -28.5t-30.5 -65.5q0 -63 57 -64h33l23 -6 q6 -2 10 -18q0 -12 -17 -21l-16 -2h-35q-45 0 -73 21q-43 31 -43 88z" />
<glyph unicode="&#xbb;" horiz-adv-x="505" d="M102 295q0 96 60.5 168t152.5 72q57 0 100.5 -35t43.5 -97q0 -43 -36 -85t-99 -42q-43 0 -78 30t-35 77q0 39 22 70l25 24l-8 6q-31 -18 -57 -53q-37 -49 -37 -104l4 -35q12 -66 82 -115q94 -59 264 -59q174 0 268 59q80 49 92 125l2 35q0 35 -13 61.5t-34 46.5 q2 -16 2 -24q0 -37 -22.5 -77t-67.5 -52l-33 -4q-37 0 -71 20q-29 20 -45 55l-6 44q0 39 16 66.5t39 41.5l41 16l37 5q33 0 51 -9q-16 29 -77.5 55.5t-172.5 26.5l-10 4q-6 4 -10 21q0 12 4 16l14 8q154 0 233 -55q49 -33 68 -92l37 -31q63 -69 63 -180t-108 -205 q-121 -102 -297 -102q-186 0 -295 81t-109 222zM254 406q0 -70 65 -70q62 0 62 70q0 37 -19.5 55t-52.5 24q-55 -18 -55 -79zM645 399q6 -25 35 -39q23 -8 49 -4q31 10 42 33t15 55l-2 29l-26 12q-12 6 -37 7q-20 0 -41 -10.5t-30 -33t-5 -49.5z" />
<glyph unicode="&#xbc;" horiz-adv-x="505" d="M102 295q0 98 62.5 173t157.5 75q57 0 100 -36t43 -97q0 -45 -36 -87t-101 -42q-45 0 -80 28q-33 33 -33 74q-6 43 16 78l25 24q-29 -14 -45 -30q-47 -47 -47 -115l4 -39q12 -66 80 -115q94 -66 258 -65q176 0 268 59q74 45 88 125l4 25v18q0 59 -35 88q0 -47 -27.5 -82 t-82.5 -47l-37 -4q-86 0 -113 72l-6 22l-2 25q0 31 15.5 59.5t34 43t40.5 20.5l45 4q72 0 97 -27l4 51q0 141 -102.5 244t-247.5 103l20 -46q12 -31 12 -59l-6 -37q-14 -55 -54 -76.5t-97 -21.5q-63 0 -97 45q-29 47 -28 92q0 78 54 120t163 42h18q63 0 137 -25 q115 -37 191 -129q41 -49 69 -123q6 -16 16.5 -56t10.5 -79q0 -27 -8 -65q35 -39 51 -88q8 -23 12.5 -49.5t4.5 -65.5q0 -113 -99 -205q-115 -104 -307 -104q-176 0 -293 85t-117 220zM256 410q0 -33 19.5 -52.5t50.5 -19.5q29 2 42 21.5t17 52.5q0 33 -19.5 54t-52.5 28 q-57 -18 -57 -84zM260 815q0 -37 23 -59q23 -16 51 -21q33 0 58.5 14.5t33.5 57.5l2 22q0 29 -16 60l-17 24q-47 0 -61 -4q-59 -14 -72 -71l-2 -15v-8zM637 422q0 -27 18.5 -42t51.5 -20q41 0 63 31q21 35 21 76q-33 33 -78 33l-31 -6q-18 -6 -35 -31z" />
<glyph unicode="&#xbd;" horiz-adv-x="505" />
<glyph unicode="&#xbe;" horiz-adv-x="102" d="M59 862q0 16 9 25l30 14h779q63 0 110 -49q39 -45 39 -96q0 -63 -45 -105.5t-102 -42.5h-301q-25 0 -27 27q0 25 27 27h296q27 0 50 16q35 25 34 61q0 31 -19 58.5t-60 27.5h-781q-14 0 -18 4q-20 10 -21 33z" />
<glyph unicode="&#xbf;" horiz-adv-x="616" d="M82 457q6 23 18 32l31 9l19 -2l20 -7l231 -100q27 -12 19 -33q-41 -23 -76 -56.5t-35 -70.5l4 -36q6 -20 43 -50q35 -23 93 -22q72 0 120 49q37 41 37 86h21l8 -41q31 -94 133 -94q68 0 121 46t53 128q0 141 -93 227t-224 86l-15 2q-14 6 -16 21q0 25 29 24 q170 0 286 -118q99 -105 99 -234q0 -135 -54 -215q-63 -94 -172 -94q-82 0 -133 65q-14 16 -33 68q-8 -20 -15 -35.5t-19 -32.5q-49 -68 -133 -67q-86 0 -152 43q-57 43 -70 115l-2 30q0 72 49 127q31 35 78 49l-215 35q-25 4 -41 17q-18 18 -14 49z" />
<glyph unicode="&#xc0;" horiz-adv-x="616" d="M102 457q10 45 48 45q18 0 40 -10l232 -103q12 -6 20 -33l-55 -39q-53 -35 -53 -108q0 -35 39 -66q41 -25 96 -24q82 0 119 67l18 70h21q0 -41 35 -82q47 -55 114 -55q74 0 124 60.5t71 156.5l6 84q0 180 -105 319q-117 156 -327 187l16 -41q10 -33 14 -64q0 -23 -8 -45 q-16 -45 -53 -67q-16 -8 -36.5 -14.5t-41.5 -6.5q-39 0 -76 19q-31 18 -48 51t-17 69q0 29 8 47q18 57 73.5 82t123.5 25h37l28 -4q176 -18 307 -166q164 -186 164 -485q0 -129 -74.5 -231.5t-185.5 -102.5q-78 0 -127 67l-33 70q-6 -23 -12 -40t-16 -30q-45 -70 -119 -69 q-88 0 -145.5 45t-67.5 86l-4 63q0 61 29.5 105.5t89.5 66.5l-217 35q-33 8 -43.5 24.5t-8.5 41.5zM354 827q0 -37 26 -60.5t60 -23.5q27 0 44.5 8t33.5 35l8 41q0 61 -26 88q-4 6 -33 9q-51 0 -88 -31q-25 -25 -25 -66z" />
<glyph unicode="&#xc1;" horiz-adv-x="507" />
<glyph unicode="&#xc2;" horiz-adv-x="102" d="M59 862q0 16 9 25l30 14h863q63 0 110 -49q39 -45 39 -96q0 -63 -45 -105.5t-102 -42.5h-355q-25 0 -26 27q0 25 26 27h350q27 0 50 16q35 25 34 61q0 31 -19 58.5t-60 27.5h-865q-14 0 -18 4q-20 10 -21 33z" />
<glyph unicode="&#xc3;" horiz-adv-x="507" d="M102 197q0 111 175.5 167t175.5 103q0 43 -43 72q-47 27 -113 26q-61 0 -94 -26.5t-33 -71.5q0 -29 -8 -35l-15 -4q-10 0 -26 12l-15 33q0 41 11.5 73t40.5 58q61 55 159 55q78 0 136 -45q68 -53 67 -141h142l-29 125q-4 27 3 47.5t40 22.5q25 0 37 -23q6 -12 6 -27 q-2 -12 -2 -20l-23 -123h152q37 0 41 -4q6 -16 6 -25q0 -27 -45 -26h-342q-25 -55 -161 -97t-136 -102q0 -47 43 -75.5t102 -28.5q66 0 107 49q25 35 37 90h20q0 -43 45 -88q57 -53 129 -53l37 4q57 10 86 33q41 29 41 77l-2 19l-4 20q6 10 13 17.5t20 1.5l20 -23 q18 -37 19 -80q0 -78 -56.5 -134t-154.5 -56q-88 0 -150 55q-41 39 -53 78l-25 -51q-51 -82 -137 -82q-92 0 -168 55t-76 148z" />
<glyph unicode="&#xc4;" horiz-adv-x="851" d="M102 455q0 82 53.5 141t135.5 59q63 0 104 -34q39 -29 76 -99q18 53 51 86q47 51 115 51q86 0 145 -57q47 -47 64 -129h162l-27 123q0 33 8 47t31 19q23 0 35 -22t6 -50l-23 -115h183q27 0 34 -3t11 -26q0 -27 -45 -26h-375q0 -25 -7.5 -58.5t-29 -82t-57.5 -91.5 q41 -45 63.5 -97t22.5 -105q0 -27 -9.5 -38t-31.5 -18q-37 0 -43 41q0 82 -25 135q-4 12 -24 35q-41 -47 -78 -71q-102 -74 -217 -74q-109 0 -178.5 49t-69.5 123q0 72 74 119q78 45 188 45q102 0 203 -51q20 -10 43 -25q8 -6 37 -27q27 27 36 45q39 61 39 125q0 72 -41 115 t-102 43q-74 0 -117 -41q-29 -25 -47 -76h-14q-16 51 -53 80q-49 39 -115 39q-55 -6 -88 -34.5t-45 -73.5v-33q0 -23 -29 -29q-10 0 -22 21zM225 182q0 -35 56.5 -58.5t134.5 -23.5q111 0 194 45q29 15 62 48q-4 4 -30 20t-32 20q-86 41 -192 41q-66 0 -129.5 -23.5 t-63.5 -68.5z" />
<glyph unicode="&#xc5;" horiz-adv-x="507" d="M98 154l4 32q12 53 54.5 78t95.5 25h43q23 -6 44 -10.5t75 -40.5l39 -33q16 23 32.5 76t16.5 96q0 117 -68 182q-57 51 -135 51h-20l-21 -4q-31 -6 -59 -28l-19 -19l23 4l24 2q27 0 52 -8q66 -25 65 -100q0 -20 -12.5 -49t-42.5 -48q-25 -10 -60 -14q-27 0 -47 12.5 t-45 44.5q-20 35 -20 76l2 29q14 78 82 121q51 29 118 28q88 0 154 -63q88 -82 88 -232q0 -86 -33 -159l-18 -33q33 -29 66.5 -43t80.5 -14q72 0 138 55q70 63 69 160q0 76 -35 131q-53 88 -167 88q-29 0 -42.5 15.5t-13.5 37.5q0 35 27 47q25 8 55 8q90 -14 157.5 -105 t67.5 -220q0 -115 -47 -203q-70 -131 -202 -131q-53 0 -113 47q-41 31 -72 76q-10 -14 -20 -25.5t-35 -34.5q-72 -59 -158 -59q-80 0 -124 47t-44 107zM158 481q0 -23 4 -32l22 -29q16 -12 41 -14q29 -1 54 26l8 31q0 41 -37 65l-37 9q-18 0 -27 -5l-16 -8l-8 -18zM174 182 q-4 -29 22.5 -51t75.5 -22q59 0 109 28q17 9 37 29l-27 31q-35 29 -88 41l-35 2q-33 0 -59.5 -12.5t-34.5 -45.5zM403 -195l7 25l61 145h14l56 -145l6 -27q0 -25 -19.5 -45t-54.5 -24q-31 0 -50.5 20.5t-19.5 50.5z" />
<glyph unicode="&#xc6;" horiz-adv-x="507" d="M100 164l2 26q12 53 56.5 77t97.5 24l31 -2l49 -8q35 -6 88 -43l39 -33q16 23 32.5 76t16.5 96q0 117 -68 182q-57 51 -135 51h-20l-21 -4q-35 -10 -53 -22l-14 -15l32 4q29 0 56 -10q66 -25 65 -106q0 -31 -11 -54.5t-44 -42.5q-33 -14 -59 -14q-25 0 -47.5 12.5t-44 44 t-21.5 76.5l2 29q12 86 82 123q53 27 119 26q88 0 153 -63q88 -82 88 -232q0 -86 -32 -159l-19 -33l62 -41q31 -12 77 -12q43 0 77 10t69 39q76 63 76 166q0 84 -37 155q-53 102 -178 127q-31 6 -33 21q0 18 31 18l34 -4q86 -14 154 -86q88 -94 88 -233q0 -106 -55 -205 q-74 -129 -211 -129q-53 0 -113 47q-41 31 -72 76q-10 -14 -20 -25.5t-35 -34.5q-72 -59 -158 -59q-82 0 -131 49q-45 51 -45 115zM168 481l6 -35q6 -14 21.5 -25t40.5 -15q28 -1 53 26q6 8 10 33q0 45 -39 63l-37 9q-18 0 -26 -5l-17 -8l-8 -18zM176 182q-4 -29 29 -49 t78 -20q57 0 108 26q17 7 37 27l-27 31q-37 31 -67 36l-58 7q-35 0 -63.5 -12.5t-36.5 -45.5zM416 -195l6 25l61 145h15l55 -145l6 -27q0 -25 -19.5 -45t-54.5 -24q-31 0 -50 20.5t-19 50.5z" />
<glyph unicode="&#xc7;" horiz-adv-x="507" d="M88 473q0 43 11.5 72.5t41.5 56.5q63 53 162 53q68 0 117 -41q49 -37 61 -98l58 -49q35 -23 80 -37t71 -14q55 0 88 27.5t33 64.5q0 55 -29 78q-39 29 -135 28q-16 0 -20 19q0 16 22 22q63 0 78 -4l57 -14q37 -6 76 -53q33 -39 33 -97q0 -55 -51 -92t-129 -37 q-49 0 -82 11q-59 18 -113 55l-37 35q-12 -72 -194 -146q-82 -31 -82 -88q0 -47 40 -78.5t107 -31.5q74 0 117 69l29 72h20q25 -53 41 -74q55 -74 131 -73l21 2q53 6 90 30q45 33 45 86q0 16 -4 25l-2 16q6 10 13 16.5t21 2.5q13 -7 19 -23q18 -37 18 -80q0 -74 -57 -133 q-29 -29 -65.5 -43t-90.5 -14q-88 0 -145 57q-33 35 -45 76q-31 -72 -57 -96q-43 -37 -107 -37q-100 0 -166 51q-76 57 -76 148q0 109 160 167t160 107q0 47 -37 76q-41 27 -104 26q-59 0 -94 -29.5t-35 -72.5l2 -23q0 -8 -2 -10l-23 -6q-10 0 -27 12z" />
<glyph unicode="&#xc8;" horiz-adv-x="507" d="M92 317q0 145 74 235.5t180 102.5l-35 148q-6 20 11.5 44.5t46.5 24.5q25 0 43 -32l10 -33l-39 -152q41 -10 59 -22q61 -37 62 -111v-18q0 -51 -40 -87t-89 -36q-53 0 -83 34t-30 72q0 45 8.5 66.5t18.5 32.5q-25 0 -70 -51q-57 -74 -57 -173l4 -77q6 -57 59.5 -110.5 t126.5 -53.5q63 0 101.5 41t44.5 94h20q0 -51 33 -86q43 -49 127 -49q68 0 124 59.5t56 141.5q0 96 -45 153q-53 70 -158 70q-27 6 -37 14q-18 14 -20 39q0 33 23.5 44t56.5 9q102 -12 169.5 -99t67.5 -228q0 -133 -65.5 -231.5t-171.5 -98.5q-86 0 -137 65q-14 16 -33 68 q-12 -37 -27 -59q-39 -59 -114 -72q-10 -2 -29 -2q-78 0 -150 67q-96 92 -96 256zM299 516l2 -22q12 -59 72 -60q69 6 69 72q0 43 -23.5 67.5t-58.5 24.5h-12l-10 -4l-19 -19q-18 -27 -20 -59z" />
<glyph unicode="&#xc9;" horiz-adv-x="507" d="M92 317q0 197 111 283l121 53l-29 144q-6 20 10.5 37.5t38.5 17.5q27 0 45 -33l6 -18l-28 -146q45 -10 61 -22q63 -41 64 -131q0 -47 -39 -85t-91 -38q-57 0 -86.5 35t-29.5 75q0 31 6 49.5t31 49.5q-29 10 -70 -60q-51 -86 -51 -194q0 -94 57 -158q49 -55 127 -55 q72 0 115 51q27 35 33 84h28q0 -51 44 -93t116 -42q74 0 119 59q35 45 53 144l2 26q0 80 -45 156q-53 86 -147 108l-21 -2q-10 0 -10 21q6 25 22 24l25 -4q37 -4 67.5 -21.5t69.5 -56.5q98 -98 98 -256q0 -129 -65.5 -227t-169.5 -98q-86 0 -137 65q-10 12 -35 68 q-16 -45 -29 -66q-43 -66 -108 -65q-98 0 -183 74q-96 90 -96 247zM283 504q0 -31 22 -53q23 -18 45 -19q37 0 60 21q16 20 20 51q0 55 -39 80q-20 10 -49 10l-29 -14q-31 -25 -30 -76z" />
<glyph unicode="&#xca;" horiz-adv-x="507" d="M90 463q0 80 44 133t134 61q78 0 133 -36q70 -51 70 -148q0 -90 -136 -144.5t-136 -111.5q0 -41 37 -72q41 -27 102 -26q70 0 115 47t45 90h20q6 -47 35 -82q43 -53 123 -53q72 0 127 57q51 57 51 139q0 88 -41 148q-53 78 -162 78l-28 8q-31 12 -31 41q0 37 23.5 49 t50.5 12q68 0 135 -55q106 -89 106 -279q0 -115 -55 -210q-66 -113 -172 -113q-82 0 -137 63q-12 14 -35 64q-16 -43 -33 -64q-53 -66 -139 -65q-100 0 -164 47q-70 57 -70 149q0 111 152 171.5t152 111.5q0 92 -140 92q-66 0 -94 -28q-6 -8 -16.5 -28t-10.5 -50v-23 l-18 -12q-16 -8 -29 6z" />
<glyph unicode="&#xcb;" horiz-adv-x="507" d="M96 473q0 80 44 133t134 62q80 0 129 -35q68 -47 68 -146q0 -78 -131 -142t-137 -120q0 -49 36.5 -79.5t100.5 -30.5q76 0 121 53q29 37 37 88h20q6 -45 35 -82q47 -59 133 -59q70 0 118 57t48 143q0 98 -47 179q-53 96 -156 120q-25 4 -24 23q0 16 24 20l29 -4 q86 0 170 -118q65 -95 65 -218q0 -127 -55 -219q-61 -102 -172 -102q-82 0 -139 63l-39 64q-14 -41 -31 -64q-49 -66 -135 -65q-55 0 -92 9t-76 38q-72 55 -72 149q0 109 152 184t152 111q-12 90 -134 90q-66 0 -94 -28q-6 -8 -16 -27.5t-10 -50.5v-23l-19 -12q-16 -8 -29 6 z" />
<glyph unicode="&#xcc;" horiz-adv-x="507" d="M102 344q0 125 60 209q68 96 182 96l31 -2q129 -18 129 -151q0 -57 -40 -92t-104 -35q-55 0 -85.5 40t-30.5 87q0 39 26 67l39 35h-10h-12q-39 -25 -56 -51q-57 -80 -57 -195q0 -104 100.5 -170.5t239.5 -66.5q150 0 240 69q78 59 96 158l4 37q0 37 -8 61.5t-33 51.5 q-47 53 -141 53q-16 0 -37 12t-25 41q0 31 19.5 43t44.5 12q98 0 168.5 -83t70.5 -208l-2 -40q-12 -143 -130.5 -234.5t-266.5 -91.5q-172 0 -287 88q-125 96 -125 260zM293 506q0 -37 16.5 -55.5t44.5 -24.5q37 -6 64.5 16.5t27.5 63.5q0 61 -49 80l-51 4q-18 -6 -27 -17 q-27 -27 -26 -67z" />
<glyph unicode="&#xcd;" horiz-adv-x="507" d="M100 369q0 104 60 184q68 96 180 96l27 -2q63 -6 92 -53q33 -45 33 -98q0 -55 -39 -93t-103 -38q-49 0 -80.5 40.5t-31.5 88.5q0 33 12 57l41 47q-18 8 -64 -43q-53 -66 -53 -152l6 -57q23 -113 115 -170t219 -57q145 0 233.5 61.5t102.5 167.5l2 29q0 80 -47 145 q-53 74 -146 92q-31 6 -30 25q0 12 14 14l29 2q96 -8 168.5 -93t72.5 -204l-2 -36q0 -76 -33.5 -135.5t-99.5 -108.5q-111 -82 -264 -82q-172 0 -287 88q-125 96 -125 260zM283 502q0 -29 18 -53q18 -18 45 -25q31 -4 56.5 17.5t25.5 60.5q0 61 -45 80q-12 6 -47 6 q-18 -6 -27 -17q-27 -27 -26 -69z" />
<glyph unicode="&#xce;" horiz-adv-x="507" d="M102 455q0 90 62 149q61 55 149 55q41 0 81 -11t77 -48q33 -37 33 -84q0 -49 -32 -76.5t-91 -33.5q-45 0 -81 29.5t-36 72.5q0 41 33 74l31 26l-29 4q-45 0 -86 -34q-41 -31 -41 -93l2 -26q18 -102 223 -160l111 -25q117 0 252 72q109 55 108 135q0 88 -108 121 q-12 4 -39 8t-70 4l-20 2q-10 8 -10 17q0 10 8 16l22 6l27 2q94 0 151 -28q97 -47 97 -162q0 -78 -76 -139q-33 -25 -119 -62l-117 -37q23 -12 45 -36q31 -37 31 -78q0 -63 -51 -107.5t-133 -44.5q-80 0 -125 53q-37 43 -37 95q0 45 27 73q8 12 28 25l-55 14q-63 18 -121 58 q-121 78 -121 174zM309 539q-6 -25 6.5 -48.5t40.5 -31.5q27 -4 50.5 9t29.5 40q6 25 -7 50.5t-42 33.5q-25 6 -51 -8q-20 -14 -27 -45zM408 113q0 -41 28 -70q33 -27 74 -27q47 0 76.5 28t29.5 71q0 37 -30.5 62.5t-71.5 25.5t-73.5 -24.5t-32.5 -65.5z" />
<glyph unicode="&#xcf;" d="M-102 797q0 18 12 33.5t31 17.5q16 0 32 -14l15 -17l49 -67q51 -70 69 -86q6 -4 21 -2q35 35 141 174l105 133l26 24l31 8q19 0 35 -14q18 -18 18 -41q0 -31 -32 -57l-314 -275l-22 -8q-18 6 -25 10l-172 144l-10 10q-6 8 -10 27z" />
<glyph unicode="&#xd0;" horiz-adv-x="507" d="M102 152l4 34q12 53 54.5 78t95.5 25h43q23 -6 44.5 -10.5t74.5 -40.5l39 -33q16 23 32.5 76t16.5 96q0 119 -72 178q-55 49 -139 49q-29 0 -55.5 -7t-44.5 -19l-15 -15l37 6q20 0 51 -10q23 -12 45 -43q20 -35 21 -67q0 -23 -12 -54q-12 -23 -41 -41q-25 -10 -58 -14 q-29 0 -52.5 12.5t-44 46t-20.5 72.5l3 31q12 86 79 123q49 27 119 26q84 0 162 -61q96 -80 96 -228q0 -86 -33 -159l-18 -33l23 -25q16 -16 59 -24l31 -2q88 0 166 65q96 80 96 211l2 43q0 166 -98 312q-61 90 -145.5 135t-194.5 45q31 -37 30 -107q0 -33 -10 -51 q-18 -37 -51 -57q-33 -16 -70 -17q-41 0 -78 25q-59 43 -59 123q0 27 4 35q18 61 63.5 82.5t104.5 21.5l41 -2l29 -2q215 0 352 -164q68 -82 102.5 -186.5t34.5 -235.5q0 -154 -86 -272.5t-205 -118.5l-51 6q-35 6 -78 43q-29 27 -45 62q-31 -39 -53 -60q-72 -61 -158 -61 q-78 0 -125 49q-43 49 -43 109zM147 475l7 -33q6 -14 23.5 -28.5t35.5 -14.5q28 0 53 27q6 10 10 33q0 45 -38 63l-37 8q-18 0 -27 -4l-16 -8l-8 -24zM178 182q-4 -29 23.5 -54.5t74.5 -25.5q59 0 109 31l37 33l-27 31q-35 29 -88 41l-35 2q-33 0 -59.5 -12.5t-34.5 -45.5z M272 836q0 -18 13 -41q16 -23 51 -35l22 -2q62 0 76 59l2 25q0 27 -12 51q-8 23 -37 31q-35 6 -68.5 -11.5t-44.5 -56.5q-2 -6 -2 -20zM406 -195l6 25l61 145h14l56 -145l6 -27q0 -25 -19.5 -45t-54.5 -24q-31 0 -50 20.5t-19 50.5z" />
<glyph unicode="&#xd1;" horiz-adv-x="507" d="M102 197q0 111 171 167t171 103q0 43 -43 70.5t-110 27.5q-63 0 -93 -25.5t-30 -72.5q0 -29 -8 -35l-15 -4q-16 0 -28 14l-11 31q0 41 11.5 73t40.5 58q59 55 155 55q55 0 106.5 -25.5t78.5 -76.5l4 -6q18 -49 53 -72q43 -31 102 -30q88 0 129 37.5t52 105.5 q6 61 -29 115q-25 35 -55 47l12 -31l6 -41q0 -41 -27.5 -80t-91.5 -39q-49 0 -90 27q-51 35 -51 100q0 57 35 92q45 45 135 45q84 0 149 -65q68 -61 68 -168l-2 -31q0 -80 -68 -135q-70 -51 -159 -51q-59 0 -107 35q-12 8 -25.5 22.5t-27.5 32.5v-12q-12 -72 -215 -146 q-90 -31 -90 -88q0 -43 41 -71.5t102 -28.5q82 0 117 47q20 29 33 88h20q0 -43 43 -86q55 -51 129 -51l33 2q59 12 86 31q37 25 37 73l-2 23q-2 23 6 35q10 8 24 4q12 -6 19 -23q18 -41 18 -84q0 -76 -53 -130t-149 -54q-88 0 -148 53q-41 35 -53 74q-14 -53 -57 -90 q-35 -31 -109 -39q-94 0 -167 55t-73 148zM578 686q0 -41 53 -59l24 -4q29 0 51.5 15t28.5 48q4 31 -4 43l-20 33q-10 12 -45 16q-37 0 -62.5 -21.5t-25.5 -70.5z" />
<glyph unicode="&#xd2;" horiz-adv-x="507" d="M102 197q0 111 171 167t171 103q0 43 -43 70.5t-110 27.5q-123 0 -123 -98q0 -29 -8 -35l-15 -4q-16 0 -28 14l-11 31q0 43 11.5 75t40.5 58q59 53 155 53q63 0 119.5 -31.5t75.5 -97.5q16 -27 49 -53q43 -31 109 -31q84 0 125 39q25 23 38 49.5t13 63.5q0 29 -6.5 56.5 t-24.5 52.5q-25 35 -55 47l12 -31q6 -16 6 -41q0 -43 -27.5 -76t-95.5 -43q-45 0 -84 25q-53 37 -53 102q0 57 35 92q45 45 125 45q-29 16 -51 43q-29 35 -29 78q0 53 44 87t95 34q47 0 85 -28.5t38 -88.5q0 -18 -10 -38.5t-33 -14.5q-12 6 -14 14l10 33q0 18 -21.5 33.5 t-54.5 15.5q-29 0 -53 -12q-18 -12 -21 -45q0 -39 14.5 -65.5t39.5 -47.5q76 -12 132 -74.5t56 -158.5l-2 -29q0 -80 -68 -135q-70 -51 -159 -51q-51 0 -91 23.5t-69 70.5l-2 -16q-12 -72 -213 -146q-90 -31 -90 -88q0 -43 41 -71.5t100 -28.5q80 0 119 51q25 31 31 84h20 q0 -43 52.5 -91t125.5 -48l43 4q55 10 89 35.5t34 72.5l-2 19q-2 23 7.5 34t21.5 5l20 -23q18 -37 19 -78q0 -74 -58 -133q-29 -29 -65.5 -43t-89.5 -14q-86 0 -152 53q-49 41 -55 74q-8 -59 -49 -94t-107 -35q-98 0 -174 55t-76 148zM580 686q0 -41 53 -59l24 -4 q29 0 51.5 15t28.5 48q4 31 -4 43l-20 33q-10 12 -45 16q-37 0 -62.5 -21.5t-25.5 -70.5z" />
<glyph unicode="&#xd3;" d="M18 856q0 57 54 96q41 27 78 33l61 6q92 0 156.5 -51t64.5 -131l-2 -33q-12 -76 -79.5 -120t-151.5 -44l-76 -4q-37 0 -27 31q6 14 33 16h61q66 0 117 37t60 94q6 51 -29 95q-41 49 -115 49q-47 0 -84 -15.5t-37 -64.5q0 -57 76 -57l39 6q18 6 33.5 21.5t30.5 13.5 q10 -2 2 -33q-10 -18 -43 -39t-72 -21q-66 0 -100 21q-49 29 -50 94z" />
<glyph unicode="&#xd4;" d="M29 856q0 53 43 88t98 43q-41 35 -54.5 65.5t-13.5 65.5q0 45 50.5 81t119.5 36q49 0 86 -37q35 -31 35 -76q0 -20 -9 -34.5t-30 -12.5q-10 2 -16 19l-2 28q0 12 -22.5 27.5t-55.5 15.5q-47 0 -68.5 -17.5t-21.5 -49.5q0 -43 9 -60.5t38 -46.5q96 0 161.5 -50t65.5 -132 l-2 -33q-12 -76 -79.5 -120t-151.5 -44l-76 -4q-37 0 -27 31q6 14 33 16h62q66 0 117 37t59 94q6 51 -29 95q-41 49 -115 49q-47 0 -83.5 -15.5t-36.5 -64.5q0 -57 75 -57l39 6q18 6 33.5 21.5t30.5 13.5q10 -2 2 -33q-10 -18 -43 -39t-72 -21q-66 0 -100 21q-49 29 -49 94z " />
<glyph unicode="&#xd5;" horiz-adv-x="507" d="M80 453q0 70 49 124t125 54q96 0 141 -53q39 -45 39 -113q0 -92 -155 -166q-76 -35 -76 -84q0 -43 32.5 -69.5t98.5 -26.5q82 0 129 53q37 41 37 84h18q0 -45 23 -80q35 -59 108 -59q92 0 147.5 74.5t55.5 214.5q0 170 -90 323q-117 201 -322 201q23 -31 30 -53.5 t11 -57.5q0 -33 -10 -61q-6 -29 -44 -51.5t-85 -22.5t-82 23q-31 25 -49 57q-14 39 -14 70q0 20 8 45q25 61 84 86q20 8 41.5 12t54.5 4h18h27q84 0 152 -18q113 -31 192 -123q55 -63 101.5 -192.5t46.5 -270.5q0 -166 -66 -266q-74 -115 -213 -115q-57 0 -96 41 q-33 39 -39 86q-10 -47 -57.5 -85t-133.5 -48q-80 0 -139 41q-76 53 -76 149q0 98 135.5 165t135.5 110q0 41 -34 61.5t-77 20.5q-51 0 -85 -27t-34 -64l2 -20q0 -18 -16 -20q-27 -6 -36 6t-13 41zM266 823q0 -27 18.5 -53.5t69.5 -26.5q47 0 70 35q6 12 10 45 q0 31 -13 59.5t-36 37.5q-33 0 -54.5 -4.5t-41.5 -28.5q-6 -6 -17 -31z" />
<glyph unicode="&#xd6;" horiz-adv-x="507" d="M102 338q0 121 68 206t203 85q61 0 98 -48.5t37 -109.5q0 -47 -37 -90q-39 -39 -98 -39q-55 0 -87 40t-32 89q0 37 20 76l21 28q-39 -20 -62 -43q-63 -63 -63 -153v-23l4 -26q14 -100 107.5 -154.5t226.5 -54.5q150 0 240 82q66 55 98 151q25 74 24 152q0 174 -106 289 q-119 131 -326 131q29 -29 39 -49.5t15 -57.5l-7 -43q-12 -37 -50 -60.5t-81 -23.5q-37 0 -70.5 17.5t-56.5 52.5q-16 33 -16 67q0 33 8 50q23 55 75 79.5t140 24.5q61 0 86 -3t77 -16.5t103.5 -40t94.5 -71.5q57 -63 102 -162q20 -47 30.5 -96t10.5 -109v-41q0 -23 -4 -43 q0 -22 -14 -67q-31 -141 -138 -236q-119 -102 -278 -102q-168 0 -277 82q-125 94 -125 260zM281 829q0 -29 14 -49q23 -37 74 -37q55 1 75 52l7 34q0 31 -17.5 54.5t-42.5 38.5q-37 0 -54.5 -4.5t-36.5 -29t-19 -59.5zM301 481q0 -31 17.5 -53t48.5 -25q29 0 53 18.5 t24 57.5q0 49 -28 72q-18 14 -64 14q-25 -12 -33 -26q-18 -25 -18 -58z" />
<glyph unicode="&#xd7;" horiz-adv-x="507" d="M102 473q0 84 61.5 135t155.5 51q43 0 56 -4q59 -12 95 -50t36 -89t-35 -88t-84 -37q-53 -6 -91 28t-38 81q0 33 12 61l37 45q-6 6 -18 6q-20 0 -62 -24q-51 -35 -51 -115q0 -55 53 -106q43 -41 119 -68l101 -33q43 -12 69 -8q61 0 164 55q127 70 162 179l12 55l4 53 q0 113 -69 191q-57 68 -162 106q-35 12 -76 18l-57 9h-21l4 -11l10 -20q8 -18 10.5 -34.5t2.5 -43.5q-6 -55 -35 -82q-35 -35 -105 -35q-53 0 -100 37q-41 37 -41 105q0 51 39 90q53 49 158 49h71.5t90.5 -8q35 0 69.5 -12.5t75.5 -34.5q88 -49 145.5 -132t57.5 -192l-2 -51 q-1 -18 -13 -55q-18 -78 -69 -142q-41 -51 -107 -92l-69 -35l-60 -24l29 -19q35 -25 35 -67q0 -63 -42 -102.5t-112 -39.5l-22 2q-66 6 -103 50q-31 41 -24 86q0 35 14 57l14 16l-43 15q-25 8 -46 18t-44 23q-70 37 -116 99t-46 134zM289 834q0 -27 18.5 -50.5t59.5 -23.5 q35 0 54 19t21 48q0 61 -34 84l-37 11q-29 -4 -41 -11q-41 -23 -41 -77zM303 514q0 -16 9.5 -32.5t39.5 -26.5q25 -8 55.5 7t30.5 50q0 25 -13 46.5t-40 29.5q-27 6 -53 -8q-20 -14 -24.5 -32t-4.5 -25v-9zM430 119q-6 -29 12 -60q20 -27 54 -26q77 -1 77 73 q0 35 -21.5 50.5t-45.5 19.5q-27 0 -35 -4q-29 -12 -41 -53z" />
<glyph unicode="&#xd8;" horiz-adv-x="1024" d="M86 643q0 25 16 35l17 6h637q98 0 157 -53q50 -44 50 -107q0 -72 -42 -122t-100 -50q-80 0 -128 43t-48 101q0 43 23 79l24 33h-575l-8 2q-20 8 -23 33zM709 500q0 -37 28.5 -59.5t67.5 -22.5q33 0 58.5 28.5t25.5 69.5q0 33 -30 57.5t-68 24.5q-31 0 -60 -31 q-23 -29 -22 -67z" />
<glyph unicode="&#xd9;" horiz-adv-x="393" d="M-152 502l13 12q92 -68 170 -88l67 -10q55 0 87 27.5t32 64.5q-6 49 -52 74.5t-142 25.5q-25 0 -25 25q0 16 27 22q119 0 170 -14q45 -8 75.5 -53.5t30.5 -108.5q0 -47 -49 -88q-47 -35 -123 -35q-23 0 -37 2t-57 13.5t-92 36.5q-72 33 -90 57q0 27 -5 37z" />
<glyph unicode="&#xda;" horiz-adv-x="864" d="M-160 502q0 6 1 11t3 9l93 -53q25 -14 42 -21.5t59 -19.5t68 -12q53 0 86 28.5t37 63.5q0 45 -22 67q-33 33 -119 33q-41 0 -41 37q0 39 35 39h516q98 0 156 -51q49 -44 49 -105q0 -72 -42 -122t-99 -50q-80 0 -128.5 43t-48.5 101q0 41 23 78l24 30h-282 q18 -12 38.5 -46t20.5 -70q0 -53 -49 -93.5t-123 -40.5l-39 2q-18 0 -41 9q-178 51 -213 96q0 27 -4 37zM549 504q0 -37 28.5 -59.5t67.5 -22.5q33 0 58.5 28.5t25.5 69.5q0 33 -29.5 57.5t-68.5 24.5q-31 0 -60 -31q-23 -29 -22 -67z" />
<glyph unicode="&#xdb;" horiz-adv-x="102" d="M61 862q0 20 19 33l18 6h797q63 0 111 -49q38 -45 38 -96q0 -63 -45 -105.5t-102 -42.5h-149q-25 0 -27 27q0 25 27 27h145q27 0 49 16q35 25 35 61q0 31 -19.5 58.5t-60.5 27.5h-799q-14 0 -18 4q-18 10 -19 33z" />
<glyph unicode="&#xdc;" horiz-adv-x="972" d="M8 776q0 72 49 126t125 54l21 -2q70 -6 127 -63l53 -57q45 47 76 67q63 41 139 41q164 0 250 -61q67 -49 67 -117q0 -74 -40.5 -121t-100.5 -47q-78 0 -127 43q-45 45 -45 98q0 55 33 97q25 31 61 36l-26 7l-25 2q-27 0 -82 -13q-70 -20 -123 -67l-57 -58 q-14 18 -31.5 39t-34.5 35q-66 61 -135 62q-51 0 -81.5 -29t-30.5 -92q0 -25 28 -60q29 -29 66 -41l20 -2q12 -4 13 -22q0 -10 -13 -15l-24 -2q-47 6 -95.5 50.5t-56.5 111.5zM666 743q0 -37 28.5 -59t67.5 -22t62.5 28.5t23.5 69.5q0 35 -32 62.5t-68 27.5q-33 0 -57.5 -34 t-24.5 -73z" />
<glyph unicode="&#xdd;" horiz-adv-x="1085" d="M-57 860q0 41 37 41h839q106 0 160 -51q45 -46 45 -105q0 -72 -42 -122t-99 -50q-80 0 -128 43t-48 101q0 41 22 78l25 30h-355q6 -4 21.5 -34.5t15.5 -59.5q0 -25 -4 -35q-12 -49 -45 -68.5t-111 -19.5h-129l-20 4q-8 2 -10 23q0 25 10 24l20 3h134q31 0 47 8 q47 18 47 65q0 35 -22.5 61.5t-43.5 28.5h-329q-37 0 -37 35zM770 721q0 -37 28.5 -59.5t67.5 -22.5q33 0 58.5 28.5t25.5 69.5q0 33 -29.5 57.5t-68.5 24.5q-31 0 -59 -31q-23 -29 -23 -67z" />
<glyph unicode="&#xde;" horiz-adv-x="507" d="M-37 944q0 72 38 101.5t105 29.5h512q37 0 37 -41q0 -18 -7 -25.5t-30 -9.5h-507q-76 0 -76 -73q0 -49 71 -49h312q16 0 26 -7q2 -4 5.5 -12t3.5 -14q0 -31 -31 -31h-318q-18 0 -38 -22q-14 -20 -21 -54q0 -35 25.5 -58.5t60.5 -23.5l25 -2q25 -6 24 -20q0 -12 -22 -21 l-23 -4q-57 0 -104 36t-47 89q0 23 2 35t14 35q14 37 41 45q-37 12 -53 29q-25 25 -25 67z" />
<glyph unicode="&#xdf;" horiz-adv-x="546" d="M94 461q0 92 76 149q63 47 149 47q88 0 146 -59q33 -33 55 -96q16 59 45 94q49 61 135 61q127 0 200 -94t73 -268q0 -121 -73 -209t-195 -88q-74 0 -121 39q-57 47 -58 137q0 66 42 104.5t91 38.5q63 0 99 -41q39 -39 39 -102q0 -49 -41 -90q-29 -29 -64 -35l37 -6 q37 0 62.5 18.5t56.5 51.5q27 33 47 82q8 23 12 51t4 73q0 84 -49 150q-55 72 -162 72q-63 0 -116 -52q-41 -41 -52 -86h-14q-12 51 -53 86q-57 53 -133 54q-68 0 -121 -39q-41 -31 -41 -78q2 -12 2 -18q2 -33 33 -58q31 -20 74 -20h40l21 -4q10 -12 10 -23q0 -18 -14 -24 l-17 -3h-36q-47 0 -77 -29.5t-30 -72.5q0 -39 31 -68q8 -6 29.5 -16t52.5 -10q43 0 71 14l35 25q20 18 37 22q4 -2 9 -4t14.5 -10t9.5 -23q0 -14 -14 -30l-19 -19l-61 -43q-37 -18 -80 -18q-72 0 -125 39q-63 47 -64 129q0 61 39 100q23 23 56 37q-41 20 -54 33 q-33 31 -43 74zM580 168q0 -23 5 -42.5t15 -33.5q25 -29 59 -29q23 0 50.5 32t27.5 75q-4 35 -20 55q-23 27 -64 27q-29 0 -47 -16q-27 -27 -26 -68z" />
<glyph unicode="&#xe0;" horiz-adv-x="546" d="M102 328q0 176 109 266q37 31 78 46t82 15q47 0 90 -30q53 -43 53 -119q0 -55 -40 -89t-97 -34t-90 39q-29 39 -29 82q0 23 2 32t14 33l17 29q-41 -31 -64 -61q-66 -84 -65 -191q0 -115 67 -180q57 -51 129 -51q98 0 148 61q10 16 26 64h29q12 -51 41 -80q43 -47 129 -47 q94 0 152 77q45 63 45 146q0 111 -50.5 179.5t-132.5 68.5q-37 0 -59 -41q-14 -33 -14 -60q2 -14 2 -20q12 -66 94 -115l80 -33v-45h-512q-14 0 -22.5 3t-10.5 24q0 18 12 25l25 4h408l-37 14q-86 43 -107 121l-4 35q0 61 31 104q41 55 117 55q111 0 176 -96q57 -90 57 -219 q0 -139 -67.5 -242.5t-174.5 -103.5q-76 0 -135 43q-45 33 -57 78q-8 -41 -51 -78q-53 -41 -144 -41q-84 0 -157 74q-92 92 -93 258zM295 498q0 -16 12 -35q23 -27 58 -27t54 19.5t23 56.5q0 35 -16 57q-23 31 -68 31l-20 -2l-21 -27q-23 -39 -22 -73z" />
<glyph unicode="&#xe1;" horiz-adv-x="546" />
<glyph unicode="&#xe2;" horiz-adv-x="102" d="M59 862q0 16 9 25l30 14h828q63 0 110 -49q39 -45 39 -96q0 -63 -45 -105.5t-102 -42.5h-252q-25 0 -27 27q0 25 27 27h248q27 0 49 16q35 25 35 61q0 31 -19.5 58.5t-60.5 27.5h-830q-14 0 -18 4q-20 10 -21 33z" />
<glyph unicode="&#xe3;" horiz-adv-x="815" d="M162 256v76h633v-76h-633zM162 494v88h633v-88h-633z" />
<glyph unicode="&#xe4;" horiz-adv-x="839" d="M51 -281q0 129 78 265l150 223q78 119 77 188q0 80 -45 119t-112 39q-31 0 -43 -4l-31 -4q-29 0 -48.5 13t-19.5 46q0 31 18.5 43t57.5 12q135 0 214 -68.5t79 -187.5q0 -96 -76 -208l-147 -213q-80 -129 -80 -250q0 -78 47 -131.5t129 -53.5q90 0 135 58q35 45 35 100 q0 82 -29 131l-71 96q-6 33 16 45q27 10 70 11h39h194h21q47 -6 47 -49q0 -31 -29 -45l-31 -5h-243l32 -39q41 -51 52 -149q2 -10 2 -31q0 -66 -41 -129q-61 -96 -195 -96q-109 0 -180.5 74.5t-71.5 199.5z" />
<glyph unicode="&#xe5;" d="M-276 -475l6 39q2 20 31.5 38.5t66.5 18.5l41 -4q25 -6 55 -25q20 -12 31 -24l22 49l9 61q0 74 -39 115q-41 37 -88 37h-19l-16 -6l-17 -6l-26 -25l33 4l34 -6l29 -22q12 -18 12 -41q0 -16 -8 -31q-6 -18 -24 -31q-14 -6 -41 -10q-20 0 -39 10t-29 27.5t-14 52.5l2 21 q8 51 48 74.5t83 23.5q61 0 104 -41q59 -53 60 -154q0 -43 -11.5 -78.5t-21.5 -50.5q31 -31 86 -37q51 0 95 38t44 104q0 51 -22 88q-35 57 -109 57q-39 0 -39 39q0 25 19 31l37 2q59 -12 104 -72.5t45 -142.5q0 -104 -51 -170q-43 -55 -113 -56q-33 0 -65.5 24t-55.5 54 q-23 -29 -43 -43q-43 -31 -92 -30q-53 0 -83.5 29.5t-30.5 68.5zM-236 -256q0 -16 19 -33l24 -6q25 0 31 14l6 21q0 16 -20 35l-29 2q-12 0 -19 -6.5t-12 -26.5zM-221 -451q0 -18 13 -30.5t46 -16.5q31 0 56.5 10.5t37.5 22.5q-6 12 -28 27l-37 16l-33 2l-39 -6 q-12 -6 -16 -25zM-84 -694l43 92h14l45 -92q12 -23 -16 -43q-16 -10 -37 -15q-20 0 -37.5 18.5t-11.5 39.5z" />
<glyph unicode="&#xe6;" d="M-211 -446q0 37 8 73.5t21 69.5q27 80 80 129q43 39 102 39q49 0 98 -37t80 -113q6 -16 16.5 -58t10.5 -87l-2 -37q0 -51 -12.5 -83t-49.5 -32q-18 4 -26 17l-6 24l6 43l10 49l6 58q0 84 -42 148.5t-91 64.5t-92 -68q-20 -35 -30.5 -71.5t-10.5 -83.5v-33q6 -23 8 -31 l8 -72q0 -43 -35 -43t-44 31t-11 48.5t-2 54.5z" />
<glyph unicode="&#xe7;" d="M-418 -449q0 57 32 98.5t93 41.5q59 0 101 -86t112 -86q47 0 81 36.5t44 96.5q0 68 -37 104.5t-102 36.5q-59 -6 -60 35q0 25 17 31l41 4q94 0 145 -78q39 -66 39 -143l-4 -41q20 -29 56 -55.5t79 -26.5q49 0 96 35q47 31 47 88q0 66 -31.5 109.5t-101.5 43.5l-32 -2 q-18 0 -29.5 2t-13.5 35q0 33 43 33t80.5 -12.5t68.5 -44t47.5 -73.5t16.5 -95q0 -86 -44 -145.5t-130 -59.5q-59 0 -107 49q-29 33 -51 88q-18 -57 -49 -96q-41 -45 -107 -45q-41 0 -76 36q-16 16 -41 66q0 -39 -28.5 -70.5t-73.5 -31.5q-55 0 -88 35.5t-33 86.5z M-367 -428q0 -27 18.5 -45.5t51.5 -22.5q37 0 55 27l15 35l-13 43q-16 35 -55 35q-72 0 -72 -72zM-246 -686l43 92h15l45 -94q6 -14 -9 -35q-18 -18 -45 -20q-20 0 -37.5 18t-11.5 39z" />
<glyph unicode="&#xe8;" horiz-adv-x="854" d="M-82 -106q0 14 10.5 32.5t30.5 18.5l21 -4l20 -11l219 -129l17 -10q12 -12 0 -22q-43 -6 -84 -33q-31 -18 -47.5 -41t-16.5 -53q0 -43 22.5 -65.5t49.5 -29.5l43 -4q57 0 92 33q33 27 33 84h34q0 -39 44.5 -74t99.5 -35l35 5q86 14 123 122q31 86 30 244q0 266 -137 455 q-106 147 -238 192l-63 21q-29 14 -23 51q6 39 50 39q33 0 61 -14q53 -25 127 -82q61 -49 108.5 -107.5t82.5 -130.5q98 -194 98 -444q0 -213 -59.5 -335t-178.5 -122q-68 0 -121 35q-53 31 -53 84q0 -53 -55 -88q-29 -16 -56.5 -24.5t-68.5 -8.5q-70 0 -115 45 q-20 23 -30.5 47.5t-10.5 58.5l2 25q10 55 46 99t87 57l-124 53l-62 25l-22 8q-20 14 -21 33z" />
<glyph unicode="&#xe9;" d="M-575 -727l6 25l61 145h14l56 -145l6 -27q0 -25 -20.5 -46.5t-53.5 -23.5q-33 0 -49 23q-16 16 -20 49z" />
<glyph unicode="&#xea;" d="M-281 -461q0 80 118 126t122 77q0 55 -102 55q-35 0 -59.5 -22.5t-24.5 -46.5q0 -20 -15 -29q-18 -10 -24 8l-6 23q0 53 32.5 93t98.5 40q51 0 90 -21q53 -29 61 -88l31 -22l39 -17l41 -8q70 0 69 55q0 37 -6 48q-14 14 -69 14q-14 0 -19 18q-2 18 21 21l69 -6 q68 -17 68 -105q0 -43 -35 -67q-31 -27 -80 -27q-29 0 -52.5 7t-43.5 22.5t-33 33.5q-10 -41 -78 -67q-141 -55 -141 -86q0 -53 88 -53q57 0 86 28q18 16 29 51h14q12 -43 41 -62t64 -19l34 4q16 0 38 22.5t22 54.5l-6 35q-2 12 3 21.5t17 7.5t21 -14q18 -35 18 -78 q0 -55 -30.5 -98t-86.5 -43q-63 0 -98 28.5t-43 63.5q-8 -33 -43 -62.5t-82 -29.5q-68 0 -113 28.5t-45 85.5z" />
<glyph unicode="&#xeb;" d="M-537 -360q0 92 59.5 157.5t147.5 65.5q86 0 149.5 -63.5t63.5 -153.5q0 -33 -4 -43q29 -41 68 -65.5t71 -24.5q57 0 100.5 32.5t43.5 89.5q0 63 -32 112.5t-97 49.5l-33 -4q-16 -6 -30.5 1t-14.5 36q0 27 41 33q88 0 151 -64q31 -33 47.5 -74.5t16.5 -95.5l-2 -20 q23 -35 51 -60q43 -37 94 -36q51 0 96.5 32.5t45.5 89.5q0 63 -32 112.5t-97 49.5l-33 -4q-16 -6 -29.5 1t-15.5 36q0 33 43 33q86 10 149.5 -60t63.5 -174q0 -88 -46 -144t-130 -56q-63 0 -113 55q-29 33 -51 92q-12 -63 -57.5 -105t-110.5 -42q-61 0 -111 51 q-31 35 -55 88q-18 -61 -72.5 -103.5t-122.5 -42.5q-86 0 -149.5 63.5t-63.5 154.5zM-469 -336q0 -61 42 -105t101 -44q61 0 104.5 44t43.5 107t-44 109.5t-104 46.5q-59 0 -101 -45t-42 -113zM147 -682l46 113h14l43 -115q8 -14 -7.5 -32.5t-43.5 -22.5q-25 0 -41.5 17 t-10.5 40z" />
<glyph unicode="&#xec;" d="M-291 -272q0 53 36 94t91 41q37 0 64.5 -23.5t50.5 -70.5q10 31 39.5 63.5t70.5 32.5q61 0 107 -47q37 -41 37 -94h102l-18 96q-6 16 0 35q6 12 26 12q23 0 33 -31l2 -14l-28 -98h96l16 -3q8 -12 8 -20q0 -10 -12 -20l-12 -3h-217q-6 -41 -22.5 -72.5t-35.5 -49.5l33 -48 q23 -45 23 -83v-17q-6 -25 -33 -26q-33 -6 -33 32q0 18 -4 38t-8 30l-15 33q-35 -39 -87 -64.5t-105 -25.5q-76 0 -121 34.5t-45 83.5t49 80t127 31q61 0 121 -27q29 -12 64 -39q12 12 26.5 46t14.5 59q0 41 -26 68.5t-61 27.5q-43 0 -71 -27q-16 -12 -37 -49q-18 37 -41 54 q-29 23 -76 22q-70 -8 -82 -68l-2 -32q-12 -8 -20 -8q-12 0 -19 14zM-201 -449q0 -20 35 -34.5t84 -14.5q61 0 109 23q33 13 49 33q-16 16 -47 28q-51 20 -109 21q-43 0 -79 -13.5t-42 -42.5z" />
<glyph unicode="&#xed;" d="M-272 -365q0 117 65 183q49 45 92 45q49 0 83 -21.5t34 -79.5q0 -33 -27.5 -57t-64.5 -24t-55.5 24.5t-18.5 50.5l6 35q6 16 21 31q-35 -18 -59.5 -64.5t-24.5 -109.5q0 -61 31.5 -95t78.5 -34t82 37q18 23 31 59q10 -35 25 -55q31 -41 79 -41q43 0 78 34.5t35 88.5 q0 61 -28.5 106t-98.5 45q-14 0 -26.5 6t-14.5 31q2 23 15 29l34 4q70 -6 118 -64.5t48 -154.5q0 -86 -44 -151.5t-116 -65.5q-35 0 -62.5 18t-41.5 57q-10 -39 -33.5 -55t-56.5 -20q-68 0 -121 45q-31 29 -47 68.5t-16 94.5zM-139 -236q0 -14 14 -26l25 -14q20 -4 37.5 9 t17.5 31q0 31 -15.5 44.5t-45.5 13.5l-17 -10q-16 -16 -16 -48z" />
<glyph unicode="&#xee;" d="M-219 -354q0 90 63.5 153.5t155.5 63.5q88 0 153.5 -61.5t65.5 -155.5q0 -90 -60.5 -158t-156.5 -68q-88 0 -154.5 69t-66.5 157zM-158 -330q0 -66 43 -117t115 -51q74 0 117 49q20 25 30.5 53.5t10.5 65.5q0 63 -44 110.5t-112 47.5t-114 -46t-46 -112zM-51 -322 q0 23 12 37.5t41 18.5q53 -1 53 -56t-51 -55q-23 0 -37 14.5t-18 40.5z" />
<glyph unicode="&#xef;" d="M-264 -395q0 102 65 174q74 84 207 84q125 0 201 -84q61 -68 61 -164q0 -74 -37.5 -130t-105.5 -63q-53 0 -83 28t-42 73q-6 -39 -35.5 -68.5t-77.5 -29.5q-80 0 -120 65q-33 53 -33 115zM-207 -377q0 -53 30 -87t75 -34q47 0 77 43l21 43h14q6 -29 19 -43q31 -43 90 -43 q47 0 82 32t35 87l-3 21l-16 -29q-12 -16 -37 -27l-35 -8q-47 0 -77 49l-11 43q0 39 29 62q27 16 61 20l25 -2l18 -4l-20 18q-20 20 -52 34t-58.5 20t-55.5 6q-90 0 -150.5 -58.5t-60.5 -142.5zM104 -342q0 -23 25 -41q25 -12 51 -6q47 14 41 67q-6 27 -28 37q-16 12 -46 9 q-49 -12 -43 -66z" />
<glyph unicode="&#xf0;" d="M-49 -682l43 113h16l43 -115q8 -14 -7 -32.5t-44 -22.5q-23 0 -40 17t-11 40z" />
<glyph unicode="&#xf1;" d="M-276 -268q0 61 47 96t102 35q53 0 90 -31q23 -16 39 -55q12 37 35 55q31 31 84 31q82 0 131 -61.5t49 -178.5q0 -80 -47 -139t-129 -59q-49 0 -82 26q-39 33 -39 92q0 45 27 74q31 27 63 27q86 0 86 -97q0 -29 -14 -46t-47 -36q27 -10 55 9q16 8 37.5 34.5t33 54 t11.5 83.5q0 55 -29 96q-35 49 -104 49q-49 0 -84 -35q-25 -25 -37 -71q-18 51 -33 67q-31 37 -88 37q-51 0 -78.5 -25.5t-21.5 -64.5q6 -49 67 -49h23l18 -2q8 -10 9 -19q0 -10 -13 -20l-14 -2l-21 -2q-20 0 -42.5 -12.5t-22.5 -49.5q0 -20 18 -39q16 -12 50 -16q29 0 45 8 l24 19q10 10 25 14l18 -8l8 -21q0 -12 -10 -22l-12 -15l-31 -22q-29 -16 -65 -16q-47 0 -84 24q-43 31 -43 88q0 41 13 59.5t38 28.5l-31 23q-14 18 -20 41zM47 -453q0 -33 14.5 -51t32.5 -18q12 0 27.5 18t19.5 47q0 20 -12 39q-10 10 -39 15q-43 0 -43 -50z" />
<glyph unicode="&#xf2;" d="M-897 -459q0 20 12 31l35 10h526q-33 37 -32 86q0 61 47 109q39 39 114 39q51 0 93.5 -44t42.5 -108l-2 -29q-6 -57 -60 -92q-49 -37 -129 -37h-598q-27 -4 -38 2.5t-11 32.5zM-303 -324q-4 -35 18.5 -62.5t61.5 -33.5q41 0 68.5 21.5t27.5 58.5q0 39 -22.5 67.5 t-59.5 28.5t-65.5 -21.5t-28.5 -58.5z" />
<glyph unicode="&#xf3;" d="M-268 -395q0 100 75.5 179t194.5 79q121 0 201 -82q67 -74 67 -174q0 -72 -33.5 -128.5t-105.5 -56.5q-49 0 -88 27q-23 18 -41 41q-10 -18 -39 -41q-10 -8 -31.5 -17.5t-50.5 -9.5q-82 0 -123 68q-6 10 -16 42t-10 73zM-207 -375q0 -29 8 -51q23 -61 86 -61q47 0 84 43 l25 43h14q8 -27 21 -41q31 -43 82 -43t76.5 32.5t25.5 75.5q0 80 -63.5 137.5t-149.5 57.5q-82 0 -145.5 -58.5t-63.5 -134.5zM-49 -317q0 53 51 53q23 0 36 -13t17 -40q0 -53 -53 -54q-51 0 -51 54zM-49 -682l45 113h14l43 -115q8 -14 -7 -32.5t-44 -22.5q-23 0 -40 17 t-11 40z" />
<glyph unicode="&#xf4;" d="M-266 -395q0 100 75.5 179t194.5 79q121 0 201 -82q67 -74 67 -174q0 -72 -33.5 -128.5t-105.5 -56.5q-49 0 -90 27q-23 14 -41 41q-18 -33 -51 -50.5t-68 -17.5q-82 0 -123 68q-6 10 -16 42t-10 73zM-205 -375q0 -35 17 -65q25 -47 77 -47q51 0 86 43l21 43h10l23 -41 q35 -43 86 -43t76.5 32.5t25.5 75.5q0 80 -63.5 137.5t-149.5 57.5q-82 0 -145.5 -58.5t-63.5 -134.5z" />
<glyph unicode="&#xf5;" horiz-adv-x="665" d="M12 -391q0 59 46 101t139 42q74 0 135 -31q35 -16 80 -55q16 31 32 111q6 39 10.5 80t4.5 90q0 193 -62 340q-74 180 -233 241q-31 10 -45 23q-20 18 -21 41q0 53 49 53q18 0 29 -4l19 -6q123 -49 218 -196.5t115 -344.5l4 -47v-47q0 -102 -18 -208.5t-49 -156.5 q20 -25 81.5 -57.5t115.5 -32.5q68 0 98 58l20 49q12 20 25 12q20 -16 20 -53l-4 -39q-6 -51 -45 -86q-23 -20 -51.5 -32.5t-62.5 -12.5q-82 0 -166 65q-23 14 -72 68q-27 -43 -45 -61q-59 -59 -158 -72l-33 -2q-88 0 -137 51q-39 45 -39 119zM78 -373q-6 -33 16 -57 q33 -33 113 -33q76 0 123 39q20 14 47 55q-6 16 -63.5 37t-110.5 21q-66 0 -97 -19q-16 -10 -28 -43z" />
<glyph unicode="&#xf6;" horiz-adv-x="841" d="M10 -371q0 86 51 140q53 49 127 49q94 0 156 -117t176 -135q80 -8 134.5 84t54.5 248v36l-4 39q-18 219 -132 381q-127 184 -307 185q-37 0 -55 6q-35 12 -35 49q0 33 21.5 41t56.5 12q195 0 352 -215q139 -192 164 -444l4 -56v-57q0 -199 -65.5 -315.5t-182.5 -116.5 q-53 0 -115.5 41t-84.5 76q-6 -35 -50 -78q-45 -39 -98 -39t-105.5 41t-58.5 82zM82 -354q0 -49 31.5 -79t79.5 -30q70 0 94 57l8 58q-6 35 -14 51q-27 51 -86 51q-37 0 -68 -22q-45 -33 -45 -86z" />
<glyph unicode="&#xf7;" horiz-adv-x="835" d="M-18 -166q0 51 31.5 87t92.5 36q68 0 111 -55q37 -47 37 -105q0 -61 -90 -99t-90 -79q0 -74 84 -74q72 0 125 56l34 57h23q0 -33 45 -68.5t104 -35.5l31 2q86 14 123 122q31 86 31 244q0 266 -137 455q-106 147 -238 192l-63 21q-29 14 -23 51q6 39 49 39q33 0 62 -14 q53 -25 127 -82q61 -49 108 -107.5t82 -130.5q98 -194 98 -444q0 -213 -59 -335t-178 -122q-63 0 -119.5 38t-56.5 81q-6 -39 -54 -74q-57 -47 -129 -47t-112 49q-35 47 -35 109q0 84 95 125t97 71q0 45 -27.5 67.5t-60.5 22.5q-37 0 -54 -17t-17 -42q0 -31 -25 -31 q-23 0 -22 37z" />
<glyph unicode="&#xf8;" horiz-adv-x="759" d="M27 -348q0 106 79 184q20 20 80 53l52 56q23 25 45 54.5t39 55.5q49 78 73 144q10 27 18.5 65.5t8.5 71.5q0 104 -60 156q-43 37 -112 36h-23l-20 -4q-31 -2 -68 7.5t-37 43.5q0 35 19.5 52.5t60.5 17.5q133 0 219 -79t86 -220q0 -78 -22.5 -148.5t-71.5 -142.5 q-45 -72 -102 -131l-25 -24l21 4l51 6l39 -4q123 -29 123 -150q0 -55 -48.5 -94t-109.5 -39l-35 4q-86 18 -112 109l-11 88q-31 -20 -43 -35q-45 -51 -45 -119l2 -32q8 -76 71.5 -127.5t162.5 -51.5q106 0 182 45q53 29 96 95l17 22q12 12 30 6q10 -6 15 -24l-13 -37 q-29 -90 -130 -148.5t-224 -58.5q-117 0 -197.5 85t-80.5 208zM238 -160l2 -61q12 -68 65 -86l41 -6q33 0 55.5 13t32.5 44l4 25q0 33 -19.5 56t-58.5 30l-47 6q-35 0 -53 -8.5t-22 -12.5z" />
<glyph unicode="&#xf9;" horiz-adv-x="720" d="M8 -158q0 53 43 97q45 39 107 38q76 0 126 -40.5t50 -104.5l-2 -25q-8 -59 -112.5 -92.5t-113.5 -81.5q-10 -55 49.5 -94t147.5 -39q119 0 186 68q55 55 56 145q0 119 -103 224l-194 174q-104 109 -105 231l-2 37q0 123 70 199.5t172 76.5q88 0 142.5 -57t54.5 -129 l-2 -25q-6 -57 -39 -92q-41 -49 -125 -59q-33 0 -49.5 11t-18.5 36q0 18 12.5 32.5t47.5 18.5q43 0 61 8q35 14 47 64q6 47 -25.5 87t-89.5 40q-90 0 -145 -68q-49 -68 -49 -151l2 -35q14 -106 125 -211l188 -178q98 -117 98 -262q0 -109 -67 -193q-86 -104 -248 -104 q-143 0 -225 82q-33 35 -45.5 67.5t-12.5 73.5q8 90 127 133q117 37 123 63q6 43 -24.5 68t-79.5 25q-74 0 -94 -52l-6 -36q0 -12 -27 -15q-25 0 -31 45z" />
<glyph unicode="&#xfa;" horiz-adv-x="327" d="M104 74v207v61q0 51 4.5 97t18.5 136l23 138q0 25 4 36t16 11q10 -10 10 -19q0 -23 4 -30v-174v-211l11 -328q0 -135 23.5 -206t67.5 -108.5t101 -56.5l156 -37l82 -16q20 0 32 -4q15 0 17 -14q0 -20 -45 -21h-82q-143 0 -219 16q-80 12 -133 56q-88 82 -89 305z" />
<glyph unicode="&#xfb;" horiz-adv-x="614" d="M45 446q0 94 49 143.5t119 49.5q147 0 231 -145q68 -117 68 -277q0 -190 -57 -348q-84 -225 -293 -395q-12 -12 -33 -19l-39 -8q-18 0 -33 16q-6 8 -10 33q0 39 57 64q164 68 258 262q84 174 84 368q0 111 -16 166q-6 33 -41 90q0 -59 -37 -108q-45 -57 -129 -57 q-80 0 -129 48t-49 117zM143 459q0 -45 29 -74q33 -27 80 -27q33 0 64.5 32t31.5 79q0 49 -38 74.5t-79 25.5q-35 -6 -59 -26q-29 -29 -29 -84z" />
<glyph unicode="&#xfc;" d="M-301 -354q0 111 61 172q49 45 107 45q51 -6 74.5 -32t23.5 -64q0 -35 -25.5 -58.5t-62.5 -23.5t-55.5 26.5t-18.5 57.5q0 18 11 34l18 23q-37 -10 -63.5 -61.5t-26.5 -108.5q0 -76 38 -118t89 -42q57 0 98 37l27 37h16q14 -27 35 -43q35 -29 86 -29q61 0 98 56 q27 47 27 96q0 70 -31.5 113.5t-81.5 43.5q-23 0 -39 -24q-10 -20 -8 -47q10 -43 54 -76l40 -20v-33h-282q-16 2 -21 18q0 12 9 19l16 6h227q-33 10 -56.5 32.5t-29.5 47.5l-6 39q0 37 21.5 64.5t72.5 27.5q76 0 117 -61.5t41 -145.5q0 -94 -47 -160q-43 -68 -117 -67 q-49 0 -85 25.5t-48 60.5q-8 -29 -44 -58.5t-91 -29.5q-53 0 -107 49q-61 61 -61 172zM-168 -231q0 -12 12.5 -26.5t26.5 -14.5q16 0 29.5 11t17.5 40q0 31 -21.5 41t-46.5 6l-8 -14q-6 -14 -10 -43z" />
<glyph unicode="&#xfd;" d="M-305 -336q0 57 44 104.5t122 47.5q66 0 112 -56l29 -55l25 55q41 57 112 58q74 0 121 -44t47 -116q0 -68 -37 -117q-23 -31 -57 -47q-10 -6 -27 -6q-14 0 -24 12q-6 8 1 19.5t23 19.5q29 14 44.5 43t15.5 64q0 41 -31 71q-8 6 -27.5 16.5t-50.5 10.5q-55 0 -92 -37 q-23 -23 -43 -82q-16 41 -29 58q-45 57 -104 57q-111 0 -111 -98q0 -43 25 -72q10 -14 47 -31q14 -6 16 -22l-12 -19l-18 -4q-23 0 -39 10q-31 23 -51 50q-31 43 -31 110z" />
<glyph unicode="&#xfe;" horiz-adv-x="792" d="M-20 -231q0 78 51 135t135 57q70 0 106 -22q61 -35 62 -121q0 -35 -36 -71t-93 -36q-39 0 -70 34t-31 85q0 37 19 74q-23 6 -55 -47q-23 -39 -23 -80l6 -41q12 -63 96 -115q70 -41 119 -41l25 -2l28 2q12 0 48 14q111 39 180 156q78 131 78 330q0 221 -111 362.5 t-262 141.5q-33 0 -49 14q-10 14 -15 39q0 25 15.5 33t48.5 12q174 0 306 -179t132 -431q0 -256 -135 -420q-45 -53 -137 -111l26 -24q29 -39 29 -80q0 -66 -44 -113t-112 -47t-111.5 44t-43.5 110q0 37 16 59l23 25q-72 25 -127 69q-37 31 -68 80q-27 49 -26 105zM139 -178 q0 -61 66 -62q33 0 52.5 9.5t25.5 42.5q2 16 2 22q0 37 -27 57.5t-68 20.5q-25 0 -32 -8l-11 -23q-8 -20 -8 -59zM221 -561q-6 -49 23.5 -77t70.5 -28q49 0 70 41q10 23 10 66q-6 43 -55 61l-47 9q-14 0 -19 -5q-41 -18 -53 -67z" />
<glyph unicode="&#x2000;" horiz-adv-x="682" />
<glyph unicode="&#x2001;" horiz-adv-x="1365" />
<glyph unicode="&#x2002;" horiz-adv-x="682" />
<glyph unicode="&#x2003;" horiz-adv-x="1365" />
<glyph unicode="&#x2004;" horiz-adv-x="455" />
<glyph unicode="&#x2005;" horiz-adv-x="341" />
<glyph unicode="&#x2006;" horiz-adv-x="227" />
<glyph unicode="&#x2007;" horiz-adv-x="227" />
<glyph unicode="&#x2008;" horiz-adv-x="170" />
<glyph unicode="&#x2009;" horiz-adv-x="273" />
<glyph unicode="&#x200a;" horiz-adv-x="75" />
<glyph unicode="&#x2010;" horiz-adv-x="454" d="M66 180q0 80 38 137q47 68 140 68q115 0 168 -123t151 -141q80 -12 152.5 80t72.5 260q0 172 -96 295q-109 139 -311 172l29 -43q12 -25 12 -54q0 -31 -13.5 -65.5t-51.5 -55t-78 -20.5q-37 0 -64 17q-72 41 -72 120l7 47q12 55 67 84q55 25 123 25l68 -6 q158 -25 272 -129q172 -153 172 -442q0 -145 -66 -265q-80 -145 -208 -145q-76 0 -123 53q-31 35 -49 92q0 -43 -39 -88q-47 -57 -123 -57q-80 0 -131 51q-47 53 -47 133zM147 211q0 -47 33 -78q16 -12 34.5 -19.5t37.5 -7.5q57 0 92 50l21 49q-6 41 -15 59q-29 59 -96 60 q-53 0 -82 -31q-25 -31 -25 -82zM201 838q0 -35 25.5 -62.5t58.5 -27.5q39 0 64.5 24t25.5 59q0 37 -20.5 65t-63.5 28q-35 0 -62.5 -26t-27.5 -60z" />
<glyph unicode="&#x2011;" horiz-adv-x="454" d="M66 180q0 80 38 137q47 68 140 68q115 0 168 -123t151 -141q80 -12 152.5 80t72.5 260q0 172 -96 295q-109 139 -311 172l29 -43q12 -25 12 -54q0 -31 -13.5 -65.5t-51.5 -55t-78 -20.5q-37 0 -64 17q-72 41 -72 120l7 47q12 55 67 84q55 25 123 25l68 -6 q158 -25 272 -129q172 -153 172 -442q0 -145 -66 -265q-80 -145 -208 -145q-76 0 -123 53q-31 35 -49 92q0 -43 -39 -88q-47 -57 -123 -57q-80 0 -131 51q-47 53 -47 133zM147 211q0 -47 33 -78q16 -12 34.5 -19.5t37.5 -7.5q57 0 92 50l21 49q-6 41 -15 59q-29 59 -96 60 q-53 0 -82 -31q-25 -31 -25 -82zM201 838q0 -35 25.5 -62.5t58.5 -27.5q39 0 64.5 24t25.5 59q0 37 -20.5 65t-63.5 28q-35 0 -62.5 -26t-27.5 -60z" />
<glyph unicode="&#x2012;" horiz-adv-x="454" d="M66 180q0 80 38 137q47 68 140 68q115 0 168 -123t151 -141q80 -12 152.5 80t72.5 260q0 172 -96 295q-109 139 -311 172l29 -43q12 -25 12 -54q0 -31 -13.5 -65.5t-51.5 -55t-78 -20.5q-37 0 -64 17q-72 41 -72 120l7 47q12 55 67 84q55 25 123 25l68 -6 q158 -25 272 -129q172 -153 172 -442q0 -145 -66 -265q-80 -145 -208 -145q-76 0 -123 53q-31 35 -49 92q0 -43 -39 -88q-47 -57 -123 -57q-80 0 -131 51q-47 53 -47 133zM147 211q0 -47 33 -78q16 -12 34.5 -19.5t37.5 -7.5q57 0 92 50l21 49q-6 41 -15 59q-29 59 -96 60 q-53 0 -82 -31q-25 -31 -25 -82zM201 838q0 -35 25.5 -62.5t58.5 -27.5q39 0 64.5 24t25.5 59q0 37 -20.5 65t-63.5 28q-35 0 -62.5 -26t-27.5 -60z" />
<glyph unicode="&#x2013;" horiz-adv-x="692" d="M66 180q0 80 50 137q61 68 182 68q150 0 219 -123t196 -141q105 -12 199.5 80t94.5 260q0 172 -125 295q-142 139 -406 172l38 -43q16 -25 16 -54q0 -31 -17.5 -65.5t-67 -55t-102.5 -20.5q-48 0 -83 17q-94 41 -94 120l9 47q16 55 88 84q71 25 160 25l89 -6 q205 -25 354 -129q224 -153 224 -442q0 -145 -86 -265q-104 -145 -271 -145q-99 0 -160 53q-41 35 -64 92q0 -43 -51 -88q-61 -57 -160 -57q-104 0 -171 51q-61 53 -61 133zM172 211q0 -47 43 -78q20 -12 44.5 -19.5t48.5 -7.5q75 0 120 50l28 49q-8 41 -20 59 q-38 59 -125 60q-69 0 -107 -31q-32 -31 -32 -82zM242 838q0 -35 33 -62.5t76 -27.5q51 0 84.5 24t33.5 59q0 37 -27 65t-83 28q-45 0 -81 -26t-36 -60z" />
<glyph unicode="&#x2014;" horiz-adv-x="1716" d="M66 180q0 80 99 137q122 68 365 68q299 0 437.5 -123t393.5 -141q208 -12 397 80t189 260q0 172 -250 295q-284 139 -810 172l75 -43q32 -25 32 -54q0 -31 -35.5 -65.5t-134.5 -55t-203 -20.5q-96 0 -167 17q-187 41 -187 120l18 47q31 55 174 84q144 25 321 25l177 -6 q412 -25 709 -129q448 -153 448 -442q0 -145 -172 -265q-208 -145 -542 -145q-198 0 -320 53q-81 35 -128 92q0 -43 -102 -88q-122 -57 -320 -57q-209 0 -342 51q-122 53 -122 133zM277 211q0 -47 86 -78q42 -12 90 -19.5t98 -7.5q148 0 239 50l55 49q-16 41 -39 59 q-76 59 -250 60q-138 0 -214 -31q-65 -31 -65 -82zM418 838q0 -35 66.5 -62.5t152.5 -27.5q101 0 167.5 24t66.5 59q0 37 -53.5 65t-165.5 28q-91 0 -162.5 -26t-71.5 -60z" />
<glyph unicode="&#x202f;" horiz-adv-x="273" />
<glyph unicode="&#x205f;" horiz-adv-x="341" />
<glyph unicode="&#xe000;" horiz-adv-x="1003" d="M0 0v1004h1004v-1004h-1004z" />
</font>
</defs>
</svg>
