<?xml version="1.0" standalone="no"?>
<!DOCTYPE svg PUBLIC "-//W3C//DTD SVG 1.1//EN" "http://www.w3.org/Graphics/SVG/1.1/DTD/svg11.dtd" >
<svg xmlns="http://www.w3.org/2000/svg">
<metadata></metadata>
<defs>
<font id="av-web-tam1normal" horiz-adv-x="1024" >
<font-face units-per-em="2048" ascent="1638" descent="-410" />
<missing-glyph horiz-adv-x="800" />
<glyph horiz-adv-x="2048" />
<glyph horiz-adv-x="2048" />
<glyph unicode="&#xd;" horiz-adv-x="800" />
<glyph unicode=" "  horiz-adv-x="800" />
<glyph unicode="&#x09;" horiz-adv-x="800" />
<glyph unicode="&#xa0;" horiz-adv-x="800" />
<glyph unicode="!" horiz-adv-x="303" d="M125 0v123h123v-123h-123zM139 586v571h94v-571l-18 -314h-57z" />
<glyph unicode="&#x22;" horiz-adv-x="276" d="M68 838v141q0 90 69 145l27 21l29 -31l-23 -16q-14 -10 -29 -35l-16 -41l-8 -43h96v-141h-145z" />
<glyph unicode="#" horiz-adv-x="1001" d="M88 373l68 12q25 -145 131 -225l-45 -51q-135 102 -154 264zM88 489q27 172 154 269l47 -53q-111 -80 -135 -228zM340 47l27 68q57 -29 129 -29q70 0 133 29l26 -68q-78 -31 -155 -31q-82 0 -160 31zM340 817q78 31 158 31q73 0 157 -31l-26 -67q-68 27 -135 26 q-78 0 -129 -28zM705 156q117 90 135 231l67 -14q-18 -158 -153 -269zM705 702l49 56q128 -95 155 -269l-69 -14q-18 141 -135 227z" />
<glyph unicode="$" horiz-adv-x="800" d="M80 393h98v-37q0 -109 135 -161l43 -9v359l-82 18q-182 61 -182 238q0 150 131 217q16 6 40 12t93 23v104h97v-106l39 -2q174 -25 217 -224l2 -65h-86l-2 47q0 47 -39 88q-31 41 -80 59l-51 13v-346q88 -12 133 -35q135 -68 135 -228q0 -156 -133 -225q-37 -18 -135 -37 v-96h-97v96q-33 0 -39 4q-90 10 -153 76q-53 53 -78 146zM182 795q0 -84 86 -133q29 -13 88 -25v332q-51 -6 -86 -25q-88 -45 -88 -149zM453 182q63 12 88 27q88 47 88 151t-88 148l-88 24v-350z" />
<glyph unicode="%" horiz-adv-x="1509" d="M61 858q0 123 86 206t207 83t205 -85t84 -208q0 -117 -84 -199q-43 -41 -92 -61.5t-113 -20.5q-125 0 -209 81t-84 204zM150 858q0 -86 55 -147q57 -57 145 -58q84 0 144.5 56.5t60.5 142.5q0 88 -59 154q-55 66 -144 65q-84 0 -145 -63q-57 -63 -57 -150zM371 0 l651 1157h111l-652 -1157h-110zM856 297q0 123 86 206t207 83t205 -85t84 -208q0 -113 -87 -197t-202 -84q-123 0 -208 80t-85 205zM944 297q0 -86 55 -147q57 -57 146 -58q84 0 144.5 56.5t60.5 142.5q0 88 -60 153q-55 66 -143 66q-84 0 -146 -64q-57 -63 -57 -149z" />
<glyph unicode="&#x26;" horiz-adv-x="1060" d="M70 326q0 102 80 211q96 127 180 151l-90 113q-57 74 -58 151q0 96 86 158q80 51 181 51q119 0 194.5 -59.5t75.5 -175.5q0 -92 -115 -193q-92 -80 -123 -80l303 -350q31 53 60 146l14 83l6 72h99l-7 -90q0 -68 -25.5 -136.5t-76.5 -146.5l172 -190h-119l-121 125 q-37 -55 -170 -119q-100 -47 -180 -47q-162 0 -264 84t-102 242zM166 328l2 -27q0 -92 82 -158q68 -53 162 -53l30 2q37 0 82 18.5t101 53.5q74 45 94 76l-316 370q-49 0 -135 -84q-53 -49 -77.5 -99t-24.5 -99zM276 934q0 -23 29 -73t45 -60l66 -76q27 -6 145 104 q68 62 68 109q0 141 -174 141q-76 0 -123 -35q-55 -37 -56 -110z" />
<glyph unicode="'" horiz-adv-x="274" d="M70 1036v142h145v-142q0 -33 -10 -53q-6 -33 -23 -49l-37 -41l-26 -21l-29 29l23 17q14 10 28 34l19 54l6 30h-96z" />
<glyph unicode="(" horiz-adv-x="376" d="M98 604q0 160 80 338q61 133 135 221l54 -30q-164 -260 -164 -535q0 -76 12 -153.5t40 -166t51.5 -146.5t51.5 -103l-45 -29q-68 80 -135 242q-80 195 -80 362z" />
<glyph unicode=")" horiz-adv-x="382" d="M33 1133l53 30q66 -78 133 -221q82 -182 82 -338q0 -160 -80 -362q-61 -158 -135 -242l-45 29q66 106 111 277t45 292q0 145 -50 299q-20 66 -45.5 117t-68.5 119z" />
<glyph unicode="*" horiz-adv-x="522" d="M70 973l28 82l133 -47v149h93v-151l131 45l28 -78l-137 -51l92 -119l-73 -53l-86 114l-89 -119l-71 52l92 125z" />
<glyph unicode="+" horiz-adv-x="770" d="M84 498v92h260v254h96v-254h250v-92h-250v-256h-96v256h-260z" />
<glyph unicode="," horiz-adv-x="299" d="M100 0v141h142v-141q0 -31 -11 -51q-6 -31 -20 -51l-37 -41l-29 -21l-26 29l28 24l25 31l16 49l7 31h-95z" />
<glyph unicode="." horiz-adv-x="278" d="M92 0v141h141v-141h-141z" />
<glyph unicode="/" horiz-adv-x="485" d="M23 0l342 1157h96l-342 -1157h-96z" />
<glyph unicode="0" d="M74 670q0 467 256 649q47 33 92 49t94 16q152 0 281 -159q154 -197 153 -535q0 -190 -49 -350q-61 -197 -192 -289q-106 -76 -203 -76q-193 0 -324 230q-108 193 -108 465zM270 645q0 -141 16.5 -251.5t53.5 -205.5q55 -150 170 -149q141 0 199 211q47 176 47 485 q0 432 -142 549q-41 35 -100 35q-172 0 -217 -324q-10 -72 -18.5 -174t-8.5 -176z" />
<glyph unicode="1" d="M240 1223l329 161h33v-1144l2 -103q6 -61 47 -84q14 -6 50 -11t73 -5v-37h-510v37q66 0 90 6q53 12 72 49q12 25 12 148v731q0 209 -35 237q-16 10 -45 15q-35 0 -102 -31z" />
<glyph unicode="2" d="M43 0v37q276 252 401 401q240 287 240 498q0 117 -74.5 206t-191.5 89q-221 0 -297 -230h-37q20 170 119.5 276.5t265.5 106.5q156 0 271.5 -101t115.5 -255q0 -231 -289 -549q-254 -274 -311 -327h354q172 0 232 41q31 18 59 67h37l-94 -260h-801z" />
<glyph unicode="3" d="M84 84q0 31 22 51q23 16 58 21q27 0 49 -9q55 -29 162 -73q25 -6 37 -8.5t41 -2.5q102 0 178 80t76 187q0 147 -93 237q-113 106 -272 107h-31v28q80 8 158 58q78 45 115 111.5t37 146.5q0 98 -62.5 163.5t-163.5 65.5q-154 0 -258 -166l-33 17q121 287 367 286 q158 0 250 -106q66 -82 65 -168q0 -147 -186 -307q254 -98 254 -354q0 -174 -113 -306q-145 -168 -422 -168q-236 0 -235 109z" />
<glyph unicode="4" d="M33 358v127l629 899h108v-884h182v-142h-182v-358h-164v358h-573zM129 500h477v674z" />
<glyph unicode="5" d="M98 109q0 29 25 51q23 16 55 20q43 0 116 -50t148 -50q125 0 210 90t85 213q0 129 -88 242q-78 94 -209 151q-57 23 -133 38t-164 15l260 527h486l-78 -170h-408l-90 -182q227 -31 379 -158q174 -143 174 -359q0 -145 -80.5 -267t-218.5 -189q-115 -55 -235 -56 q-86 0 -148 27q-86 35 -86 107z" />
<glyph unicode="6" d="M88 532q0 371 281 637q227 215 491 215h58v-36q-229 -23 -383 -175.5t-222 -414.5q141 98 289 98q154 0 252 -125q90 -119 90 -274q0 -170 -102 -312q-123 -170 -328 -170q-137 0 -235 93q-190 178 -191 464zM279 467q0 -150 59 -274q74 -160 205 -160q111 0 174 106 q51 92 51 209q0 154 -55 270q-68 150 -207 150q-78 0 -209 -84q-18 -135 -18 -217z" />
<glyph unicode="7" d="M76 1034l131 322h727v-37l-453 -1348h-112l405 1223h-373q-113 0 -161 -29q-82 -43 -136 -141z" />
<glyph unicode="8" d="M125 309q0 178 268 373q-127 104 -172 164q-82 104 -82 215q0 150 110.5 236.5t262.5 86.5q137 0 246 -73q119 -84 119 -219q0 -166 -279 -340q166 -131 231 -215q76 -104 76 -215q0 -158 -115.5 -252.5t-277.5 -94.5q-195 0 -301 121q-86 98 -86 213zM276 313 q0 -117 68 -199.5t182 -82.5q96 0 168 55t72 154q0 72 -39 129q-74 108 -287 276q-164 -135 -164 -332zM285 1128q0 -51 28.5 -108t71.5 -94l166 -135q96 86 129 135q53 78 53 176q0 104 -56 163.5t-163 59.5q-92 0 -160.5 -53t-68.5 -144z" />
<glyph unicode="9" d="M82 897q0 178 100 317q123 170 322 170q166 0 287 -139q145 -170 145 -422q0 -227 -111.5 -421.5t-308.5 -323.5q-164 -106 -350 -107h-57v37q266 0 458 266q102 141 146 322q-158 -102 -285 -102q-160 0 -258 124q-88 117 -88 279zM258 1001q0 -213 90 -329 q61 -86 160 -86q117 0 219 84q18 129 18 207q0 98 -32.5 210.5t-93 172t-138.5 59.5q-111 0 -174 -109q-49 -86 -49 -209z" />
<glyph unicode=":" horiz-adv-x="294" d="M94 0v141h142v-141h-142zM94 676v141h142v-141h-142z" />
<glyph unicode=";" horiz-adv-x="301" d="M94 0v141h142v-141q0 -31 -11 -51q-6 -31 -20 -51l-37 -41l-29 -21l-26 29l28 24l25 31l16 49l6 31h-94zM94 676v141h142v-141h-142z" />
<glyph unicode="&#x3c;" horiz-adv-x="1040" d="M63 522v111l926 524v-104l-844 -473l844 -480v-100z" />
<glyph unicode="=" horiz-adv-x="776" d="M92 379v96h615v-96h-615zM92 721v96h615v-96h-615z" />
<glyph unicode="&#x3e;" horiz-adv-x="1056" d="M70 0v104l839 474l-835 471v108l921 -524v-111z" />
<glyph unicode="?" horiz-adv-x="856" d="M63 776v25q0 78 20.5 136t70.5 112q98 109 262 108q160 0 265 -97t105 -255q0 -106 -102 -209l-207 -209v-149h-96v139q0 57 80 137l147 137q80 80 80 156q0 98 -57 170q-76 88 -217 88q-254 0 -254 -287v-20l2 -8h-96zM371 0v119h118v-119h-118z" />
<glyph unicode="@" horiz-adv-x="1349" d="M68 180q0 96 55 162q41 47 149 59l25 2q41 0 76 -15t66.5 -50t46 -72t14.5 -84q0 -86 -64 -147q-33 -29 -68.5 -43.5t-82.5 -14.5q-84 0 -150.5 59.5t-66.5 143.5zM156 172q0 -41 39 -78q41 -31 88 -31q51 0 90 34t39 87q0 55 -39 95t-94 40q-57 0 -93 -43 q-31 -43 -30 -104zM457 1071q0 92 59 156.5t154 64.5q98 0 159.5 -61.5t61.5 -159.5q0 -86 -65.5 -145.5t-153.5 -59.5q-86 0 -150.5 59.5t-64.5 145.5zM547 1071q0 -47 34.5 -84t90.5 -37q53 0 88 35t35 88q0 55 -33 95t-90 40q-55 0 -90 -41t-35 -96zM850 180 q0 90 55.5 156.5t151.5 66.5q98 0 160.5 -62.5t62.5 -158.5q0 -86 -63.5 -146.5t-147.5 -60.5q-88 0 -153.5 59.5t-65.5 145.5zM938 170q0 -47 39 -77t88 -30q55 0 91 35t36 90q0 53 -37 92t-94 39q-49 0 -90 -43q-16 -29 -24.5 -52t-8.5 -54z" />
<glyph unicode="A" horiz-adv-x="2021" d="M16 94q0 70 84 109q83 26 162 26h6h1209l18 62l4 69q0 74 -25.5 133.5t-87.5 122.5q-113 109 -233 109q90 -68 90 -190q0 -92 -71.5 -161t-167.5 -69q-111 0 -183.5 67.5t-72.5 176.5q0 125 106 201q47 31 101.5 47t123.5 16q203 0 361.5 -126t158.5 -325v-38l-2 -41 q0 -16 -18 -54h223v588h96v-1149h-96v465h-250q-147 -229 -385 -336q-164 -71 -362 -71h-6q-225 0 -465 79q-317 104 -318 289zM121 84q0 -84 162 -170q199 -102 514 -102q246 0 458 141q91 59 189 180h-1184h-86q-53 -6 -53 -49zM842 541q0 -53 43 -103q45 -45 112 -45 q55 0 100.5 45.5t45.5 102.5q0 66 -41 112q-37 49 -105 49t-111.5 -47t-43.5 -114z" />
<glyph unicode="B" horiz-adv-x="2504" d="M14 94q0 76 125 115l127 20h1200l17 70l4 86q0 66 -21.5 115t-74.5 100q-100 98 -222 111q76 -70 76 -174q0 -94 -69.5 -161t-165.5 -67q-102 0 -181 67.5t-79 172.5q0 119 104 199q93 71 216 71h3q203 0 350 -121q162 -131 162 -325v-56l-2 -43q0 -27 -8 -45h229v588h97 v-784q31 31 53 43q74 43 188 43q111 0 192 -75t81 -181q0 -338 -555 -418q-201 -27 -404 -27q-98 8 -188 50q-117 55 -117 139q0 74 102 123q31 16 64 18l76 6q20 2 32 2q55 0 141.5 -22.5t92.5 -40.5l-51 -82q0 10 -73 31.5t-144 21.5q-121 0 -121 -57q0 -55 141 -90 q92 -18 184 -19q272 0 451 64q268 92 268 315q0 63 -49 111q-49 43 -115 43q-84 0 -156.5 -44t-92.5 -126v-203h-97v475h-256q-139 -213 -209 -266q-186 -150 -522 -150q-219 0 -475 88q-328 115 -328 289zM119 82q0 -80 190 -172q217 -102 502 -103q293 0 469 144l152 182 h-1174q-139 0 -139 -51zM848 543q0 -61 46 -103.5t110 -42.5q57 0 99 45.5t42 104.5q0 61 -44 113.5t-108 52.5q-98 0 -135 -105q-10 -31 -10 -65z" />
<glyph unicode="C" horiz-adv-x="1536" d="M12 -174q0 109 115 223q94 94 127 94q-41 59 -82 197q-47 160 -47 291q0 295 188.5 510t483.5 215q285 0 467 -195q164 -174 163 -395v-639h-96v645q0 174 -145 326q-164 172 -389 172q-248 0 -420 -215q-156 -199 -156 -437q0 -49 8.5 -107t26.5 -122q37 -135 76 -196 q213 98 430 98q121 0 211 -23q10 23 16 78l6 125v49q0 133 -86 223q-20 20 -159 78q104 -55 104 -217q0 -86 -56.5 -136t-148.5 -50q-84 0 -145 61q-57 63 -58 154q0 117 87.5 190.5t209.5 73.5q131 0 222 -82q84 -74 116 -207q12 -49 13 -123q0 -180 -35 -252q49 0 151 -98 q117 -117 117 -244l-2 -36q0 -121 -96 -185q-68 -45 -178 -45q-109 0 -240 53q-115 43 -143 80q-23 -33 -146 -80q-78 -29 -142.5 -43t-127.5 -14q-100 0 -170 53.5t-70 151.5zM109 -184q0 -66 77 -92q20 -6 42 -10.5t46 -4.5q63 0 187.5 30.5t126.5 65.5q-96 61 -164 129 l-64 66l-55 72q-31 -6 -108 -90q-88 -98 -88 -166zM379 119l57 -76l68 -68q43 -43 153 -114q96 61 166 139q39 43 68.5 90t52.5 100l-88 13l-92 4q-63 0 -91 -2t-109 -18.5t-185 -67.5zM539 631q0 -51 33.5 -91t82.5 -40q97 0 111 121q0 57 -30.5 104t-84.5 47 q-49 0 -80.5 -44t-31.5 -97zM741 -190q14 -37 130 -68t169 -31q61 0 105 19q84 36 84 155q0 82 -60 154q-80 98 -143 119q-86 -211 -285 -348z" />
<glyph unicode="D" horiz-adv-x="1118" d="M125 0v817h969v-96h-312v-721h-96v721h-465v-721h-96zM375 408q0 79 82 79h2q31 0 54.5 -26.5t23.5 -61.5q0 -73 -76 -73h-2q-31 0 -57.5 21.5t-26.5 60.5zM926 397q0 31 22 60q25 25 58 26q31 0 55 -25.5t24 -58.5q0 -75 -71 -75h-2q-29 0 -54.5 17t-31.5 56z" />
<glyph unicode="E" horiz-adv-x="1480" d="M68 139q0 70 59 106t133 36h227q82 0 160 61q35 29 55.5 65.5t20.5 77.5q0 125 -98 191q-84 53 -217 53q-49 0 -62 -6l47 -39q47 -57 47 -133q0 -72 -55 -127q-55 -49 -131 -49q-72 0 -129 55t-57 133q0 129 122 197q51 29 107.5 43t130.5 14q156 0 264 -82 q123 -90 123 -237q0 -135 -102 -226q-51 -45 -108.5 -66.5t-129.5 -21.5h-217l-61 -6q-31 0 -31 -39q0 -27 39 -41l41 -2h1210v-96h-1220q-63 0 -115.5 38t-52.5 101zM183.5 488.5q31.5 -33.5 70.5 -33.5t67.5 31.5t28.5 72.5q0 123 -96 123q-45 0 -76 -37q-26 -36 -26 -81 q0 -42 31.5 -75.5z" />
<glyph unicode="F" horiz-adv-x="2109" d="M74 563q0 121 125 195q102 59 237 59q154 0 259.5 -84t105.5 -235q0 -190 -158 -271q-49 -25 -160 -43h-217l-63 -2q-35 -6 -35 -43q0 -31 25 -37l61 -6h1814v-96h-1824q-68 0 -117 37t-49 102q0 141 190 142h228q90 0 149 61q55 61 55 156q0 117 -90 182q-76 51 -166 51 l-63 -2l-49 -6q41 -18 57 -35q57 -51 57 -135q0 -72 -55 -127q-55 -49 -131 -49q-80 0 -133 53t-53 133zM160 561q0 -41 26.5 -73.5t67.5 -32.5q45 0 74.5 27.5t29.5 70.5t-26.5 82t-69.5 39q-102 0 -102 -113zM924 465q0 139 75 240q83 112 218 112h2q133 0 229 -92v92h620 v-96h-223v-541h-96v541h-205v-541h-96v383q-12 72 -77.5 120t-141.5 48q-92 0 -162 -78q-29 -35 -45 -88l-10 -37l-2 -28l2 -39q14 16 55 47q47 20 86 20q76 0 125 -56t49 -138q0 -70 -57 -119q-27 -23 -59.5 -35t-71.5 -12q-100 0 -164 100q-51 90 -51 197zM1036 348 q6 -35 17 -49q33 -51 90 -51q37 0 67.5 30.5t30.5 67.5q0 106 -94 107q-61 0 -94 -52z" />
<glyph unicode="G" horiz-adv-x="1343" d="M86 369q0 324 332 426q75 22 114 22h3h790v-96h-291v-721h-96v721h-430q-113 -18 -164 -47q-164 -90 -164 -305q0 -131 78 -209q16 -18 80 -58q-49 35 -49 142q0 88 61.5 147.5t147.5 59.5q96 0 154.5 -61.5t58.5 -158.5q0 -106 -64.5 -167.5t-173.5 -61.5 q-168 0 -277.5 101.5t-109.5 265.5zM377 221q0 -53 30.5 -92t90.5 -39q49 0 84.5 44t35.5 95q0 139 -120 140q-53 0 -90 -45q-31 -43 -31 -103z" />
<glyph unicode="H" horiz-adv-x="1312" d="M74 356q0 184 130 322.5t314 138.5h776v-96h-278v-713l-113 -55q-86 -59 -164 -162q-10 -12 -24.5 -36.5t-28.5 -51.5l-84 53q33 61 64 97l79 86q55 57 175 124v658h-408q-133 0 -236.5 -106.5t-103.5 -241.5q0 -158 129 -260l-27 63l-8 62q0 90 66.5 150.5t156.5 60.5 q98 0 161 -68t63 -164q0 -104 -68 -172q-68 -63 -172 -63q-156 0 -277.5 109.5t-121.5 264.5zM354 219q0 -59 32 -105t89 -46q63 0 99 44t36 107q0 57 -31.5 101.5t-91.5 44.5q-53 0 -96 -46q-37 -43 -37 -100z" />
<glyph unicode="I" horiz-adv-x="1388" d="M84 -156q0 135 90 243t225 108h527q115 0 210 74.5t95 191.5q0 104 -55 184q-61 86 -164 86q-86 0 -152.5 -54t-66.5 -136v-254h-95v254q0 88 -88 145q-76 47 -172 47q-111 0 -178 -61l-41 -64l31 21q23 10 31 12q27 8 59 8q86 0 141.5 -55t55.5 -141t-62 -146 q-59 -53 -151 -53t-156 69.5t-64 176.5q0 129 97 223q47 45 104 69.5t125 24.5q203 0 307 -135q31 41 92 84q84 51 168 51q145 0 235.5 -104t90.5 -254q0 -154 -122 -257.5t-277 -103.5h-510q-111 0 -172.5 -79.5t-61.5 -192.5q0 -92 82 -162q76 -63 172 -63q92 0 178 59 t86 150v190h95v-182q0 -88 62.5 -154.5t152.5 -66.5q82 0 143 47t61 125q0 86 -49 139l-49 29l49 86q49 -25 74 -50q74 -74 74 -204q0 -121 -91.5 -191t-215.5 -70q-86 0 -158 39q-51 25 -98 109q-33 -45 -97 -80q-104 -61 -231 -61q-139 0 -237.5 96t-98.5 233zM203 461 q0 -55 35 -90q39 -33 84 -33q55 0 89.5 32t34.5 89q0 51 -31.5 87t-88.5 36q-53 0 -88 -35q-35 -31 -35 -86z" />
<glyph unicode="J" horiz-adv-x="1406" d="M92 326q0 96 44 182t140 164q182 145 422 145q246 0 426 -131q201 -145 201 -383q0 -51 -14.5 -95t-44.5 -79q-59 -68 -162 -68q-74 0 -133.5 42t-73.5 112l-4 39l2 37l14 39q-27 -12 -65 -58q-47 -59 -47 -120q0 -86 86 -146q74 -49 170 -49h176v-96h-228l-43 -21 q-18 -14 -47 -51l-49 -102q-61 -125 -162 -156q-29 -6 -58.5 -10t-63.5 -4q-283 0 -283 207q0 80 57.5 131t139.5 51v-90q-39 0 -70 -29q-29 -33 -29 -70q0 -116 179 -116h3q43 0 84 12q55 12 107 115l39 77q14 29 63 72l45 29q-68 23 -100 45q-102 72 -102 203 q0 147 125 223q82 47 143 47l22 -2l-16 -74l-8 -106q0 -37 41 -70q10 -8 31.5 -17.5t50.5 -9.5q53 0 93 44t40 104q0 188 -172 317q-156 115 -363 115q-252 0 -399 -156q-119 -125 -119 -264q0 -18 2 -30.5t13 -45.5q4 -23 26 -63l-4 31q0 90 49 157.5t140 67.5 q98 0 148 -62.5t50 -158.5q0 -80 -55 -140.5t-135 -60.5q-170 0 -262 125q-47 66 -58 172zM299 205q0 -119 109 -119q104 0 104 117q0 137 -102 137q-111 0 -111 -135z" />
<glyph unicode="K" horiz-adv-x="1409" d="M92 326q0 96 44 182t140 164q182 145 422 145t422 -143q199 -156 199 -387q0 -106 -62.5 -172t-166.5 -66q-113 0 -162 80q-33 59 -33 141v31q0 18 4 25q-68 -41 -92 -109l-8 -61q0 -78 86 -146q72 -53 157 -53h160v-96h-205q-29 0 -51 -13.5t-43 -54.5l-110 -199 q-31 -33 -94.5 -57t-114.5 -24q-305 0 -305 229q0 78 48 127t126 49q76 0 125 -46t49 -120q0 -92 -68 -135q-12 -8 -70 -20l33 -9l49 -4q45 0 81 15.5t71 52.5l45 67l35 70q25 53 65 88l37 33q-59 25 -94 49q-96 72 -96 197q0 127 98 206q82 63 182 64l-12 -47l-8 -80 q0 -168 115 -168q63 0 102 47t39 111q0 205 -170 325q-152 111 -363 111q-252 0 -399 -156q-119 -125 -119 -264q0 -18 2 -30.5t13 -45.5q4 -23 26 -63l-4 31q0 90 49 157.5t140 67.5q98 0 148 -62.5t50 -158.5q0 -80 -55 -140.5t-135 -60.5q-170 0 -262 125q-47 66 -58 172 zM299 205q0 -119 109 -119q104 0 104 117q0 137 -102 137q-111 0 -111 -135zM360 -256q0 -39 29 -65.5t68 -26.5q94 0 94 102q0 92 -92 92q-98 0 -99 -102z" />
<glyph unicode="L" horiz-adv-x="1116" d="M84 276q0 119 94 170q33 12 96 25v346h676v-96h-252v-250h123q213 0 213 -238q0 -129 -71 -192q-51 -41 -113 -41q-47 0 -94 12l-23 6l27 82l28 -8l58 -10q94 0 94 145q0 92 -63 131l-64 17h-115v-121q0 -76 -26 -127q-68 -127 -269 -127q-121 0 -219 74 q-100 82 -100 202zM180 274q0 -80 72 -139q68 -51 151 -51q129 0 179 82q2 4 8 29.5t14 54.5v125h-303q-37 0 -59 -8q-61 -25 -62 -93zM371 471h233v250h-233v-250z" />
<glyph unicode="M" horiz-adv-x="1384" d="M109 0v817h731v-96h-285v-270q31 29 123 49l41 4q96 0 170 -68q70 -70 69 -155q0 -86 -38 -146q-12 -18 -39 -39h303v721h96v-817h-819v96h239q33 6 47.5 11.5t32.5 17.5q41 25 61.5 61.5t20.5 89.5q0 59 -41 101q-37 43 -98 43q-74 0 -133 -49l-35 -49v-121h-96v520 h-254v-721h-96z" />
<glyph unicode="N" horiz-adv-x="1001" d="M90 268q0 121 86 176q18 10 88 27v346h658v-96h-228v-250h236v-96h-236v-137q0 -72 -24 -119q-66 -121 -269 -121q-127 0 -219 71.5t-92 198.5zM184 268q0 -80 60 -133q63 -51 157 -51q129 0 179 74q12 24 18 75v142h-313q-45 0 -68 -21q-33 -33 -33 -86zM360 471h238 v250h-238v-250z" />
<glyph unicode="O" horiz-adv-x="1771" d="M86 340q0 139 48 257t142 218l64 -63q-158 -168 -158 -420q0 -141 58.5 -277.5t162.5 -230.5q209 -184 551 -184q123 0 266.5 50t222.5 134t112.5 163t33.5 187q0 78 -45 141.5t-123 63.5q-61 0 -108 -43l-29 -43v-266h-96v694h-357q-182 0 -294 -107q-102 -98 -103 -266 q0 -74 33 -125q10 -18 82 -84l-21 51l-8 60q0 88 67.5 155.5t157.5 67.5t158 -67.5t68 -159.5l-2 -21q-10 -100 -66 -153q-61 -61 -160 -72l-34 -2q-72 0 -130.5 21.5t-119.5 74.5q-117 104 -117 262q0 350 363 443q74 18 126 18h771v-96h-318v-285l37 19q47 18 90 18 q131 0 204 -88t73 -221q0 -233 -175 -402q-221 -211 -559 -211q-373 0 -620.5 217.5t-247.5 571.5zM608 242q0 -61 35 -109q39 -45 98 -45q55 0 95.5 42t40.5 97q0 63 -39 112.5t-97 49.5q-55 0 -94 -45t-39 -102z" />
<glyph unicode="P" horiz-adv-x="1335" d="M111 0v817h96v-721h1087v-96h-1183z" />
<glyph unicode="Q" horiz-adv-x="2174" d="M90 346q0 207 155.5 341t362.5 134q178 0 293 -84q111 86 236 86q55 0 133 -22.5t121 -57.5q53 43 116 62l52 8l65 4h504v-96h-252v-721h-96v721h-185q-45 0 -63 -8l-37 -17l-37 -20q55 -59 91 -154.5t36 -181.5q0 -104 -43 -209q-53 -131 -145 -131t-154 129 q-51 109 -51 211q0 209 123 344q-29 20 -90 39q-31 8 -50.5 12t-39.5 4q-96 0 -166 -57q121 -131 121 -348q0 -109 -41 -205q-53 -129 -142 -129q-88 0 -145 125q-43 98 -43 201q0 90 33.5 190t91.5 162q-106 59 -199 59h-24q-178 0 -314 -121q-70 -61 -103.5 -129.5 t-33.5 -144.5l4 -57q0 -33 20.5 -69t59.5 -77q-18 37 -18 101q0 86 56 154.5t144 68.5t148 -80q49 -72 49 -166q0 -92 -59.5 -156.5t-153.5 -64.5q-141 0 -235.5 104.5t-94.5 245.5zM309 229q0 -147 113 -147q72 0 115 86q10 26 10 65q0 145 -117 146q-53 0 -90 -45 q-31 -43 -31 -105zM801 324q0 -45 6 -85t22 -83q31 -78 76 -78t76 106q23 81 23 144q0 61 -29 171.5t-72 110.5q-29 0 -65.5 -121.5t-36.5 -164.5zM1282 336q0 -70 27 -150q31 -106 86 -106q49 0 82 108q22 84 22 152q0 66 -29 158q-37 118 -83 118h-1q-23 0 -65 -98 q-39 -104 -39 -182z" />
<glyph unicode="R" horiz-adv-x="1116" d="M55 -295q0 172 207 172h379q119 0 209 84t90 201q0 82 -39 141q-43 72 -119 72h-98v-142q-12 -80 -35 -110q-76 -113 -258 -113q-129 0 -219 66q-98 74 -98 198q0 109 88 164q25 16 88 31v348h684v-96h-250v-250h84q121 0 196.5 -91t75.5 -218q0 -178 -147 -289 q-123 -92 -256 -92h-422q-55 -12 -55 -68q0 -63 51 -102l-82 -55q-74 59 -74 149zM172 266q0 -78 69.5 -126t149.5 -48q117 0 168 70q11 12 29 71v142h-314l-30 -6q-72 -25 -72 -103zM346 471h242v250h-242v-250z" />
<glyph unicode="S" horiz-adv-x="1067" d="M6 -301q0 178 207 178h391q115 0 199 111q74 98 74 221q0 84 -41 158q-47 88 -125 88q-61 0 -115 -49l-33 -50v-356h-96v721h-252v-721h-96v817h708v-96h-264v-223q12 12 31.5 23t50.5 20.5t68 9.5q119 0 196 -105q70 -94 70 -217q0 -184 -100 -311q-109 -137 -289 -137 h-369q-61 0 -84 -17q-18 -18 -33 -65q-6 -23 6.5 -49.5t43.5 -50.5l-70 -62q-43 35 -60.5 81t-17.5 81z" />
<glyph unicode="T" horiz-adv-x="1198" d="M119 0v817h96v-721h776v721h96v-817h-968z" />
<glyph unicode="U" horiz-adv-x="1314" d="M111 0v817h96v-721h399v504q0 98 64.5 170t163.5 72q168 0 290 -174q107 -156 107 -334q0 -334 -297 -334h-823zM707 96h256q78 0 127 62q40 57 40 139q0 147 -69 287q-84 170 -219 170q-53 0 -97 -43q-39 -43 -38 -105v-510z" />
<glyph unicode="V" horiz-adv-x="1366" d="M102 209v608h97v-596q0 -135 106 -135q84 0 150 86q20 29 43 88v557h96v-721h577v721h97v-817h-766v104l-31 -32q-68 -72 -172 -72q-86 0 -141.5 61.5t-55.5 147.5z" />
<glyph unicode="W" horiz-adv-x="880" d="M109 0v817h751v-96h-258v-721q-82 -33 -121 -57q-20 -12 -42.5 -30.5t-55.5 -53.5l-68 -74l-55 -86l-76 53q59 92 142 172q55 53 84 70l96 53v674h-301v-721h-96z" />
<glyph unicode="X" horiz-adv-x="1368" d="M84 369q0 184 120 316t302 132q147 0 237.5 -74.5t90.5 -220.5v-289q0 -78 30.5 -113.5t93.5 -35.5q119 0 181 119q45 94 45 225q0 102 -49 211q-55 115 -144 158l62 77q113 -61 171 -188t58 -262q0 -180 -70 -293q-82 -131 -254 -131q-221 0 -221 233v285 q0 92 -60.5 153.5t-152.5 61.5q-147 0 -248.5 -113.5t-101.5 -263.5q0 -61 16.5 -106t67.5 -109l-14 45l-6 60q0 76 59 130t135 54q90 0 141.5 -69.5t51.5 -159.5q0 -84 -62 -146q-63 -57 -149 -57q-154 0 -242 106.5t-88 264.5zM313 221q0 -139 107 -139q121 0 121 131 q0 51 -33 94t-78 43q-49 0 -83 -40t-34 -89z" />
<glyph unicode="Y" horiz-adv-x="1546" d="M78 375q0 190 141 321t330 131q182 0 314 -128t132 -314q0 -123 -32 -219q-4 -14 -13.5 -33.5t-21.5 -36.5h405v721h97v-817h-625v66q61 72 80 145q8 29 12 66.5t4 99.5q0 154 -99.5 262.5t-252.5 108.5q-154 0 -267.5 -109t-113.5 -264q0 -129 70 -219q18 -23 71 -60 l-26 35q-29 53 -29 105q0 92 67.5 159.5t159.5 67.5q104 0 171 -75t67 -181q0 -96 -74 -160.5t-170 -64.5q-168 0 -282.5 111.5t-114.5 281.5zM332 215q0 -57 44 -103t101 -46q61 0 107.5 40t46.5 103q0 74 -39 126t-111 52q-96 0 -139 -106q-10 -31 -10 -66z" />
<glyph unicode="Z" horiz-adv-x="1314" d="M106 0v817h97v-721h401v504q0 102 62.5 175t164.5 73q178 0 299 -172q103 -152 103 -342q0 -70 -10.5 -118t-36.5 -93q-72 -123 -240 -123h-244l11 -35q18 -68 112 -94l39 -4h209v-96h-145q-45 0 -109 -45q-55 -39 -86 -84q-66 -94 -106 -123q-88 -66 -213 -66 q-109 0 -199 60q-102 66 -102 170q0 123 106 180l107 28h170v-96h-166q-121 0 -121 -98q0 -72 67 -119q61 -39 136 -39q160 0 260 170q18 31 65 64l47 26q-37 6 -49 17q-80 25 -123 145l-8 39h-498zM698 96h254q82 0 132.5 60.5t50.5 146.5q0 156 -66 289q-80 170 -219 170 q-61 0 -106.5 -45t-45.5 -111v-510z" />
<glyph unicode="[" horiz-adv-x="1540" d="M86 383q0 174 120 304t294 130q121 0 223 -69q29 -16 72 -70v139h712v-96h-217v-721h-98v721h-301v-721h-96v494q-55 238 -301 237q-135 0 -226.5 -106.5t-91.5 -245.5q0 -135 82 -225l39 -35l-14 28q-16 45 -17 103q0 84 59.5 146.5t141.5 62.5q90 0 147.5 -67.5 t57.5 -162.5l-2 -28q0 -86 -68 -154q-61 -57 -153 -57q-160 0 -261.5 114.5t-101.5 278.5zM342 231q0 -59 27.5 -111t85.5 -52q55 0 91 51t36 110q0 53 -30 101.5t-85 48.5q-53 0 -89 -45t-36 -103z" />
<glyph unicode="\" horiz-adv-x="1091" d="M47 -291q0 129 146 162q23 6 59 6h303q174 0 270 164q82 141 82 328q0 125 -41 225q-53 139 -157 139q-61 0 -103 -47q-20 -23 -30.5 -47.5t-10.5 -58.5v-580h-96v586q0 55 -38 99t-91 44q-127 0 -127 -145v-584h-96v590q0 98 62.5 162.5t162.5 64.5q47 0 99.5 -27.5 t76.5 -68.5q43 49 68.5 64.5t54.5 23.5t70 8q150 0 231 -155q64 -127 64 -291q0 -240 -107 -404q-125 -186 -354 -186h-285q-104 0 -117 -82q-6 -57 52 -100l-70 -62q-66 49 -76 123z" />
<glyph unicode="]" horiz-adv-x="1669" d="M90 360q0 203 168 338q158 123 367 123q188 0 342 -98l43 39l51 29q14 10 100 22l31 4h438v-96h-162v-721h-96v721h-178l-51 -2q-41 0 -72 -17l-29 -20l-12 -10l68 -105q68 -129 67 -258q0 -98 -45 -200q-55 -125 -145 -125q-96 0 -152 122q-43 92 -43 207q0 219 131 351 q-119 72 -280 71q-178 0 -312 -102q-141 -111 -141 -285q0 -29 6 -58.5t25.5 -72.5t54.5 -88q-18 49 -18 96q0 90 61.5 162t155.5 72q102 0 165.5 -76t63.5 -180q0 -100 -68.5 -165t-166.5 -65q-154 0 -260.5 115t-106.5 272zM324 223q0 -63 36.5 -116.5t96.5 -53.5 q63 0 105 47t42 113q0 68 -37 117t-104 49q-61 0 -100 -48t-39 -108zM868 315q0 -76 21 -149q29 -104 86 -105q43 0 76 107q10 35 16 74.5t6 70.5q0 109 -47 201q-6 20 -49 96q-109 -150 -109 -295z" />
<glyph unicode="^" horiz-adv-x="1742" d="M88 389q0 178 114.5 304t295.5 126q143 0 241 -74l72 -83q6 59 65.5 106t120.5 47q80 0 142.5 -53t62.5 -117v-399q0 -57 41 -107.5t94 -50.5q106 0 181 117q61 98 61 215q0 233 -180 356l47 74q102 -59 164 -191q55 -116 55 -247q0 -162 -82 -281q-94 -131 -250 -131 q-92 0 -164 84q-33 39 -48 81t-15 93v358q0 113 -105 113q-59 0 -96 -67q-16 -33 -21 -64t-5 -61v-537h-97v535q0 86 -98 147q-88 53 -178 53q-145 0 -235.5 -98t-90.5 -246q0 -72 31 -145q18 -45 80 -107l-15 66l-6 71q10 80 62.5 135.5t130.5 55.5q100 0 153 -72 q49 -61 50 -168q0 -94 -54.5 -159.5t-148.5 -65.5q-158 0 -266.5 114.5t-108.5 272.5zM352 246q0 -160 107 -160q119 0 119 137q0 31 -3.5 57.5t-19.5 55.5q-29 53 -92 53q-47 0 -79 -44t-32 -99z" />
<glyph unicode="_" horiz-adv-x="1411" d="M92 -190q0 135 97.5 237.5t230.5 102.5h516q121 0 199.5 90t78.5 213q0 111 -55 190q-61 90 -168 90q-76 0 -146.5 -66.5t-70.5 -144.5v-307h-96v301q0 100 -63.5 157.5t-168.5 57.5q-147 0 -227 -104q-20 -29 -45 -105l33 41q45 41 110 41q86 0 145.5 -59.5t59.5 -147.5 t-60.5 -140t-148.5 -52q-98 0 -163 86q-57 76 -58 182q0 152 99.5 248t254.5 96q53 0 94.5 -10t84.5 -37q59 -35 106 -98q92 145 264 145q150 0 237 -105.5t87 -258.5q0 -174 -109.5 -287t-285.5 -113h-504q-98 0 -168 -71q-66 -76 -66 -185q0 -100 59.5 -173t155.5 -73 q100 0 224 144l73 102q74 111 176 156q68 31 183 31q113 0 192.5 -74t79.5 -189q0 -117 -61.5 -189.5t-180.5 -72.5q-248 0 -247 224q0 14 10 25t29 18q27 6 43 -17q4 -4 10 -33q0 -135 153 -135q147 0 148 180q0 68 -51.5 125.5t-122.5 57.5q-184 0 -305 -183 q-170 -260 -344 -260q-135 0 -226.5 105.5t-91.5 243.5zM199 406q0 -49 31.5 -87t84.5 -38t89 31.5t36 86.5q0 51 -34 86q-31 37 -82 45q-55 0 -90 -34.5t-35 -89.5z" />
<glyph unicode="`" horiz-adv-x="2062" d="M86 365q0 180 145.5 317t325.5 137q197 0 322 -135t125 -338q0 -43 -6.5 -83t-24 -87t-43.5 -80h626v135l-43 -6h-47q-137 0 -228 77t-91 210q0 117 83 204t202 87q90 0 155 -60q66 -55 66 -145v-256q66 10 116 47q59 39 109 100h88v-489h-313v-436h-97v436h-757v59 q43 37 73.5 130.5t30.5 154.5q0 82 -22.5 147.5t-73.5 124.5q-96 115 -252 115q-154 0 -264.5 -111.5t-110.5 -269.5q0 -123 115 -229l-16 37q-4 12 -9.5 33.5t-7.5 35.5q0 74 49 142q63 88 174 88q96 0 163 -75t67 -175q0 -94 -67.5 -158.5t-162.5 -64.5 q-158 0 -278.5 111.5t-120.5 269.5zM344 215q0 -59 37 -104t96 -45q63 0 105.5 40t42.5 103q0 61 -38 114.5t-100 53.5q-59 0 -101 -50.5t-42 -111.5zM1239 518q0 -100 90 -164q68 -47 133 -47l60 2q6 2 14 3t20 7v269q0 49 -41.5 88t-95.5 39q-76 0 -128 -60.5t-52 -136.5z M1653 96h217v266l-39 -36l-49 -31q-49 -31 -129 -43v-156z" />
<glyph unicode="a" horiz-adv-x="2191" d="M86 365q0 180 145.5 317t325.5 137q197 0 322 -135t125 -338q0 -43 -6.5 -83t-24 -87t-43.5 -80h282v502q0 92 53.5 157.5t141.5 65.5q72 0 125 -51q14 -12 35 -53q74 102 209 102q162 0 256 -143q77 -121 77 -295q0 -444 -376 -574q-83 -26 -131 -26h-3h-1157 q-98 0 -116 -86q-1 -6 -1 -11q0 -53 52 -90l-70 -61q-66 49 -76 123l-2 49q0 98 90 143q57 29 113 29h1176q31 0 102 27q297 111 297 473q0 135 -49 233q-63 125 -184 125q-59 0 -111.5 -45t-52.5 -100v-590h-97v598q0 47 -31.5 93t-76.5 46q-96 0 -96 -145v-592h-510v59 q43 37 73.5 130.5t30.5 154.5q0 82 -22.5 147.5t-73.5 124.5q-96 115 -252 115q-154 0 -264.5 -111.5t-110.5 -269.5q0 -123 115 -229l-16 37q-4 12 -9.5 33.5t-7.5 35.5q0 74 49 142q63 88 174 88q96 0 163 -75t67 -175q0 -94 -67.5 -158.5t-162.5 -64.5 q-158 0 -278.5 111.5t-120.5 269.5zM344 215q0 -59 37 -104t96 -45q63 0 105.5 40t42.5 103q0 61 -38 114.5t-100 53.5q-59 0 -101 -50.5t-42 -111.5z" />
<glyph unicode="b" horiz-adv-x="2439" d="M86 274q0 78 64 134q53 45 141 57v352h676v-96h-267v-256h162q23 39 56 72q83 71 217 71h4q172 0 264 -123q70 -94 70 -202q0 -115 -46 -187h504v170l-24 -4l-49 -2q-66 0 -113 10.5t-96 38.5q-123 74 -123 240q0 115 83 193.5t201 78.5q129 0 187 -108q18 -35 31 -109 v-233q51 6 61 14l70 41l55 45l55 57h86v-528h-327v-436h-97v436h-645v61q88 76 88 226q0 94 -70.5 163.5t-166.5 69.5q-82 0 -136 -35q-18 -6 -40 -34q61 -23 100 -52q102 -74 102 -194q0 -205 -180 -205q-82 0 -132 75t-50 158q0 80 10 117l6 25h-117v-142q0 -106 -92 -174 q-82 -59 -194 -59q-131 0 -229.5 71.5t-98.5 202.5zM180 266q0 -84 74 -137q68 -45 154 -45q72 0 134 34.5t62 104.5v152h-313q-49 0 -80 -30t-31 -79zM387 465h217v256h-217v-256zM889 258q0 -53 28.5 -113.5t77.5 -60.5q72 0 72 98l-2 25q-6 70 -80 125l-72 35l-6 -17 q-18 -49 -18 -92zM1620 547q0 -113 90 -164q66 -33 160 -33h35l26 4v254q0 53 -31.5 88t-84.5 35q-86 0 -140.5 -49t-54.5 -135zM2028 96h231v297q-14 -18 -51 -47l-68 -35l-53 -22l-59 -15v-178z" />
<glyph unicode="c" horiz-adv-x="2205" d="M104 0v817h99v-721h682v510q0 90 58 153.5t149 63.5q92 0 155 -51v45h264q-31 23 -55 107q-8 29 -14 63.5t-6 56.5q0 156 120.5 249t278.5 93q76 0 130 -14t106 -51q92 -65 92 -182q0 -82 -68 -138q-68 -51 -160 -51t-155 51q-72 53 -72 144q0 68 55 129l56 43 q-92 -18 -146 -43q-147 -74 -147 -234q0 -80 34.5 -149.5t67.5 -73.5h359v-96h-285v-272q70 51 137 51l43 -4q86 0 154 -72q72 -72 71 -203q0 -362 -401 -567q-350 -178 -858 -178q-252 0 -449 55q-242 68 -241 199l2 20q0 86 174 127q41 8 104.5 14.5t130.5 6.5h33 q270 0 475 -119l-53 -68q-66 37 -204 69t-222 32q-344 0 -344 -86q0 -74 209 -123q88 -20 182 -30.5t207 -10.5q446 0 778 155q381 178 381 496q0 66 -36 124t-101 75q-7 1 -14 1q-41 0 -88 -30q-70 -45 -70 -137v-246h-96v721h-271v-721h-94v596q0 59 -42 100t-103 41 q-49 0 -82 -35.5t-33 -83.5v-618h-877zM1792 1133q0 -39 49 -74q41 -29 96 -29q49 0 89.5 28t48.5 75l2 24q0 49 -41 90q-41 37 -105 37q-59 0 -104 -45q-35 -35 -35 -106z" />
<glyph unicode="d" horiz-adv-x="1124" d="M92 276q0 115 105 170q35 12 106 25v346h655v-96h-251v-250h122q213 0 213 -238q0 -129 -71 -192q-51 -41 -113 -41q-47 0 -94 12l-23 6l27 82l29 -8l57 -10q94 0 94 145q0 92 -63 131l-64 17h-114v-121q0 -76 -27 -127q-68 -127 -268 -127q-121 0 -219 74 q-100 82 -101 202zM188 274q0 -80 72 -139q68 -51 152 -51q129 0 178 82q12 16 20 84v125h-301q-37 0 -59 -8q-61 -25 -62 -93zM399 471h211v250h-211v-250zM494 1141q0 43 28.5 71.5t73.5 28.5q39 0 69.5 -30.5t30.5 -71.5q0 -43 -28.5 -72t-71.5 -29q-45 0 -73.5 31 t-28.5 72z" />
<glyph unicode="e" horiz-adv-x="1406" d="M119 0v817h731v-96h-285v-270q31 29 123 49l41 4q96 0 170 -68q70 -70 70 -155q0 -86 -39 -146q-12 -18 -41 -39h305v721h96v-817h-819v96h240q33 6 47 11.5t33 17.5q41 25 61 61.5t20 89.5q0 59 -41 101q-37 43 -98 43q-74 0 -133 -49l-35 -49v-121h-96v520h-254v-721 h-96zM645 1141q0 41 31 68.5t69 27.5q41 0 72 -28.5t31 -69.5q0 -43 -28.5 -72t-71.5 -29q-45 0 -74 31t-29 72z" />
<glyph unicode="f" horiz-adv-x="985" d="M90 268q0 123 96 176q20 10 99 27v346h637v-96h-228v-250h236v-96h-236v-137q0 -72 -24 -119q-66 -121 -269 -121q-127 0 -219 71.5t-92 198.5zM180 268q0 -86 70 -137q31 -23 67.5 -35t83.5 -12q129 0 179 74q12 24 18 75v142l-346 -2q-72 -16 -72 -105zM381 471h217 v250h-217v-250zM420 1141q0 41 27.5 68.5t68.5 27.5q45 0 74 -29q31 -24 31 -69q0 -43 -29 -72t-72 -29q-45 0 -72.5 30t-27.5 73z" />
<glyph unicode="g" horiz-adv-x="1775" d="M94 340q0 139 48 257t143 218l63 -63q-158 -168 -158 -420q0 -66 14.5 -136.5t45.5 -140.5q59 -139 160 -227q219 -190 553 -190q70 0 137 12t139 41q219 82 317 278q20 41 30.5 91.5t10.5 113.5q0 82 -47 145.5t-125 63.5q-63 0 -106 -45q-10 -10 -27 -45v-266h-96v694 h-356q-182 0 -295 -107q-102 -98 -103 -266q0 -74 33 -125q10 -18 82 -84l-20 51l-9 60q0 92 68 157.5t158 65.5q92 0 159 -76q31 -35 45.5 -71.5t14.5 -83.5v-17q-12 -98 -72 -159q-47 -53 -156 -66l-24 -2q-68 0 -128.5 24.5t-125.5 83.5q-117 109 -117 250q0 330 363 439 q81 22 123 22h4h770v-96h-318v-285l37 19q37 18 90 18q131 0 204 -88t73 -221q0 -117 -47 -217q-111 -240 -389 -344q-150 -53 -302 -54q-377 0 -620.5 219.5t-243.5 571.5zM612 242q0 -61 39 -107.5t99 -46.5q55 0 95 42t40 97q0 63 -39 112.5t-96 49.5q-59 0 -98.5 -45 t-39.5 -102zM883 1128q0 41 27.5 69t68.5 28q45 0 74 -29q30 -25 30 -70q0 -43 -28.5 -71.5t-71.5 -28.5q-45 0 -72.5 29.5t-27.5 72.5z" />
<glyph unicode="h" horiz-adv-x="1339" d="M111 0v817h96v-721h1087v-96h-1183zM604 1153q0 43 29 70.5t72 27.5t71.5 -28.5t28.5 -71.5q0 -45 -30 -72.5t-73 -27.5q-41 0 -71 30q-27 33 -27 72z" />
<glyph unicode="i" horiz-adv-x="2174" d="M90 346q0 207 155.5 341t362.5 134q178 0 293 -84q111 86 236 86q55 0 133 -22.5t121 -57.5q53 43 116 62l52 8l65 4h504v-96h-252v-721h-96v721h-185q-45 0 -63 -8l-37 -17l-37 -20q55 -59 91 -154.5t36 -181.5q0 -104 -43 -209q-53 -131 -145 -131t-154 129 q-51 109 -51 211q0 209 123 344q-29 20 -90 39q-31 8 -50.5 12t-39.5 4q-96 0 -166 -57q121 -131 121 -348q0 -109 -41 -205q-53 -129 -142 -129q-88 0 -145 125q-43 98 -43 201q0 90 33.5 190t91.5 162q-106 59 -199 59h-24q-178 0 -314 -121q-70 -61 -103.5 -129.5 t-33.5 -144.5l4 -57q0 -33 20.5 -69t59.5 -77q-18 37 -18 101q0 86 56 154.5t144 68.5t148 -80q49 -72 49 -166q0 -92 -59.5 -156.5t-153.5 -64.5q-141 0 -235.5 104.5t-94.5 245.5zM309 229q0 -147 113 -147q72 0 115 86q10 26 10 65q0 145 -117 146q-53 0 -90 -45 q-31 -43 -31 -105zM801 324q0 -45 6 -85t22 -83q31 -78 76 -78t76 106q23 81 23 144q0 61 -29 171.5t-72 110.5q-29 0 -65.5 -121.5t-36.5 -164.5zM1047 1120q0 41 31.5 71t74.5 30q39 0 67.5 -32t28.5 -71q0 -35 -30.5 -67.5t-69.5 -32.5q-35 0 -72 31q-31 31 -30 71z M1282 336q0 -70 27 -150q31 -106 86 -106q49 0 82 108q22 84 22 152q0 66 -29 158q-37 118 -83 118h-1q-23 0 -65 -98q-39 -104 -39 -182z" />
<glyph unicode="j" horiz-adv-x="1132" d="M66 -301q0 178 206 178h379q119 0 209 84t90 201q0 80 -41 141q-43 72 -118 72h-97v-142q-12 -80 -35 -110q-76 -113 -258 -113q-129 0 -219 66q-98 74 -98 198q0 104 98 164q29 16 99 31v348h663v-96h-250v-250h84q121 0 197 -91t76 -218q0 -178 -148 -289 q-123 -92 -256 -92h-366q-47 0 -58 -4q-59 -16 -59 -70q0 -70 51 -108l-72 -62q-43 35 -60 81t-17 81zM178 266q0 -80 74 -129q33 -20 69.5 -32.5t79.5 -12.5q117 0 168 70q11 12 29 71v142h-313q-37 -6 -54 -15q-53 -29 -53 -94zM377 471h221v250h-221v-250zM510 1135 q0 41 25.5 68.5t68.5 27.5t75 -28.5t32 -69.5q0 -43 -29 -72t-72 -29q-45 0 -72.5 30t-27.5 73z" />
<glyph unicode="k" horiz-adv-x="1083" d="M12 -301q0 178 207 178h389q115 0 201 113q72 96 72 219q0 86 -39 158q-47 88 -125 88q-61 0 -115 -49l-33 -50v-356h-96v721h-252v-721h-96v817h709v-96h-265v-223q12 12 32 23t50.5 20.5t67.5 9.5q119 0 196 -105q70 -94 70 -217q0 -184 -100 -311q-109 -137 -289 -137 h-369q-61 0 -84 -17q-18 -18 -32 -65q-6 -23 6 -49.5t43 -50.5l-70 -62q-43 35 -60.5 81t-17.5 81zM455 1137q0 41 30.5 75.5t73.5 34.5q39 0 69.5 -31.5t30.5 -80.5q0 -43 -28 -72q-25 -29 -70 -29t-75.5 29t-30.5 74z" />
<glyph unicode="l" horiz-adv-x="1181" d="M111 0v817h96v-721h776v721h96v-817h-968zM506 1151q0 45 28.5 75.5t71.5 30.5q39 0 71 -31.5t32 -72.5q0 -39 -30 -72.5t-71 -33.5q-37 0 -69.5 30.5t-32.5 73.5z" />
<glyph unicode="m" horiz-adv-x="1312" d="M111 0v817h96v-721h399v504q0 98 64.5 170t163.5 72q168 0 290 -174q107 -156 107 -334q0 -334 -297 -334h-823zM600 1143q0 41 28.5 70.5t69.5 29.5t69 -32.5t28 -73.5q0 -96 -97 -97q-35 0 -69 31q-29 33 -29 72zM707 96h256q78 0 127 62q40 57 40 139q0 147 -69 287 q-84 170 -219 170q-53 0 -97 -43q-39 -43 -38 -105v-510z" />
<glyph unicode="n" horiz-adv-x="1386" d="M104 209v608h97v-596q0 -135 106 -135q84 0 150 86q20 29 43 88v557h96v-721h578v721h96v-817h-766v104l-31 -32q-68 -72 -172 -72q-86 0 -141.5 61.5t-55.5 147.5zM651 1147q0 41 31 71.5t78 30.5q37 0 66.5 -32.5t29.5 -69.5t-31 -72q-32 -28 -68 -28h-3 q-45 0 -74 28.5t-29 71.5z" />
<glyph unicode="o" horiz-adv-x="884" d="M117 0v817h735v-96h-248v-721h-94v721h-297v-721h-96zM395.5 1214.5q30.5 30.5 73.5 30.5q39 0 70.5 -31.5t31.5 -72.5q0 -37 -30 -72q-33 -29 -72 -29q-43 0 -76 27q-28 28 -28 71q0 46 30.5 76.5z" />
<glyph unicode="p" horiz-adv-x="1370" d="M90 369q0 184 120 316t302 132q147 0 237.5 -74.5t90.5 -220.5v-289q0 -149 123 -149h2q119 0 180 119q45 94 45 225q0 102 -49 211q-55 115 -144 158l62 77q113 -61 171 -188t58 -262q0 -180 -69 -293q-82 -131 -254 -131q-221 0 -222 233v285q0 92 -60 153.5t-153 61.5 q-147 0 -248.5 -113.5t-101.5 -263.5q0 -61 16.5 -106t67.5 -109l-14 45l-6 60q0 76 59 130t135 54q90 0 141.5 -69.5t51.5 -159.5q0 -84 -62 -146q-63 -57 -149 -57q-154 0 -242 106.5t-88 264.5zM319 221q0 -139 107 -139q121 0 121 131q0 51 -33 94t-78 43q-49 0 -83 -40 t-34 -89zM614 1116q0 43 31 72t72 29q39 0 68.5 -33t29.5 -72q0 -35 -30.5 -67.5t-69.5 -32.5q-37 0 -72 30q-29 33 -29 74z" />
<glyph unicode="q" horiz-adv-x="1556" d="M92 375q0 190 141.5 321t329.5 131q182 0 314.5 -128t132.5 -314q0 -131 -35 -219q-6 -27 -37 -70h410v721h96v-817h-629v66q61 68 80.5 140.5t19.5 170.5q0 154 -99 262.5t-253 108.5t-267.5 -109t-113.5 -264q0 -129 70 -219q18 -23 72 -60l-27 35q-29 53 -29 105 q0 92 67.5 159.5t160.5 67.5q100 0 168.5 -75t68.5 -181q0 -96 -73.5 -160.5t-170.5 -64.5q-168 0 -282.5 111.5t-114.5 281.5zM346 215q0 -57 44 -103t102 -46q61 0 107 40t46 103q0 74 -39 126t-110 52q-96 0 -140 -106q-10 -31 -10 -66zM760 1137q0 43 31.5 74.5 t74.5 31.5q35 0 65 -32.5t30 -69.5q0 -43 -29 -72q-25 -29 -70 -29t-73.5 26t-28.5 71z" />
<glyph unicode="r" horiz-adv-x="1323" d="M113 0v817h96v-721h399v504q0 102 64.5 175t165.5 73q178 0 299 -172q102 -152 102 -342q0 -70 -10 -118t-37 -93q-72 -123 -240 -123h-243l10 -35q18 -68 112 -94l39 -4h209v-96h-145q-45 0 -109 -45q-55 -39 -86 -84q-55 -76 -104 -115q-78 -55 -211 -55 q-113 0 -197 51q-104 61 -104 164q0 127 102 178q23 10 105 26h172v-96h-166q-121 0 -121 -98q0 -70 72 -109q53 -30 130 -30h5q104 0 168 45q39 27 88 106q18 31 65 64l48 26q-37 6 -50 17q-88 43 -125 145l-8 39h-495zM608 1149q0 43 29 72.5t72 29.5q39 0 69.5 -30.5 t30.5 -71.5t-28.5 -71.5t-69.5 -30.5q-45 0 -74 30.5t-29 71.5zM705 96h253q82 0 132.5 60.5t50.5 146.5q0 156 -66 289q-80 170 -219 170q-61 0 -106 -45t-45 -111v-510z" />
<glyph unicode="s" horiz-adv-x="1540" d="M92 383q0 174 120 304t294 130q121 0 223 -69q29 -16 72 -70v139h712v-96h-217v-721h-98v721h-301v-721h-96v494q-55 237 -299 237h-2q-135 0 -226.5 -106.5t-91.5 -245.5q0 -135 82 -225l39 -35l-14 28q-16 45 -17 103q0 84 59.5 146.5t141.5 62.5q90 0 147.5 -67.5 t57.5 -162.5l-2 -28q0 -86 -68 -154q-61 -57 -153 -57q-160 0 -261.5 114.5t-101.5 278.5zM348 231q0 -59 27.5 -111t85.5 -52q55 0 91 51t36 110q0 53 -30 101.5t-85 48.5q-53 0 -89 -45t-36 -103zM754 1139q0 41 30.5 68.5t69.5 27.5q43 0 72.5 -28.5t29.5 -71.5 t-28.5 -72t-71.5 -29q-37 0 -69.5 31t-32.5 74z" />
<glyph unicode="t" horiz-adv-x="1087" d="M43 -297q0 98 100 147l103 27h303q164 0 266 154q86 129 86 317q0 127 -39 236q-55 149 -159 149h-1q-61 0 -102 -47q-20 -23 -30.5 -47.5t-10.5 -58.5v-580h-96v586q0 55 -38 99t-91 44q-127 0 -127 -145v-584h-96v590q0 98 62.5 162.5t162.5 64.5q47 0 99 -27.5 t77 -68.5q43 49 68.5 64.5t54.5 23.5t70 8q150 0 231 -170q61 -129 61 -301q0 -221 -110 -385q-61 -90 -145.5 -135t-194.5 -45h-293q-115 0 -115 -82q0 -57 45 -90l-82 -47q-25 25 -40 62.5t-19 78.5zM457 1120q0 41 28.5 69t69.5 28q45 0 74 -29q30 -25 30 -70 q0 -35 -30.5 -67.5t-69.5 -32.5q-35 0 -72 31q-31 31 -30 71z" />
<glyph unicode="u" horiz-adv-x="1677" d="M98 360q0 203 168 338q158 123 367 123q188 0 342 -98l43 39l51 29q14 10 100 22l31 4h438v-96h-161v-721h-97v721h-178l-51 -2q-41 0 -72 -17l-28 -20l-13 -10l68 -105q68 -129 68 -258q0 -104 -46 -203q-55 -122 -146 -122h-1q-92 0 -152 122q-41 98 -41 207 q0 219 132 351q-117 71 -277 71h-4q-178 0 -311 -102q-141 -111 -142 -285q0 -29 6.5 -58.5t26 -72.5t53.5 -88q-18 49 -18 96q0 90 61.5 162t155.5 72q100 0 163.5 -76t63.5 -180q0 -98 -67 -166q-68 -63 -166 -64q-154 0 -260.5 115t-106.5 272zM330 223 q0 -61 36.5 -115.5t98.5 -54.5q63 0 104 47t41 113q0 68 -36.5 117t-102.5 49q-59 0 -100 -47t-41 -109zM801 1126q0 37 30.5 68t71.5 31q43 0 74 -30t31 -73q0 -45 -29 -73.5t-72 -28.5q-41 0 -73.5 30.5t-32.5 75.5zM877 315q0 -76 20 -149q29 -104 84 -105q45 0 78 107 q22 84 22 145q0 102 -49 201l-49 96q-14 -20 -29 -43q-4 -6 -24 -45q-53 -113 -53 -207z" />
<glyph unicode="v" horiz-adv-x="1753" d="M90 389q0 178 114.5 304t295.5 126q143 0 241 -74l72 -83q6 59 65.5 106t120.5 47q80 0 142.5 -53t62.5 -117v-399q0 -57 41 -107.5t94 -50.5q106 0 181 117q61 98 61 215q0 233 -180 356l47 74q102 -59 164 -191q55 -116 55 -247q0 -162 -82 -281q-94 -131 -250 -131 q-92 0 -164 84q-33 39 -48 81t-15 93v358q0 113 -104 113q-59 0 -97 -67q-16 -33 -21 -64t-5 -61v-537h-97v535q0 86 -98 147q-88 53 -178 53q-145 0 -235.5 -98t-90.5 -246q0 -72 31 -145q18 -45 80 -107l-14 66l-7 71q10 80 62.5 135.5t130.5 55.5q100 0 153 -72 q49 -61 50 -168q0 -94 -54.5 -159.5t-148.5 -65.5q-158 0 -266.5 114.5t-108.5 272.5zM354 246q0 -160 107 -160q119 0 119 137q0 31 -3.5 57.5t-19.5 55.5q-29 53 -92 53q-47 0 -79 -44t-32 -99zM831 1124q0 41 29 69t70 28q45 0 74 -29q30 -25 30 -72q0 -35 -30.5 -67.5 t-69.5 -32.5q-37 0 -70 30.5t-33 73.5z" />
<glyph unicode="w" horiz-adv-x="1415" d="M94 -190q0 133 96.5 236.5t229.5 103.5h518q121 0 200 90t79 213q0 111 -56 190q-61 90 -168 90q-76 0 -146.5 -66.5t-70.5 -144.5v-307h-96v301q0 100 -63.5 157.5t-167.5 57.5q-147 0 -228 -104q-20 -29 -45 -105l33 41q45 41 110 41q86 0 145.5 -59.5t59.5 -147.5 t-60.5 -140t-148.5 -52q-98 0 -163 86q-57 76 -58 182q0 152 99.5 248t255.5 96q53 0 94 -10t84 -37q59 -35 106 -98q92 145 264 145q150 0 237 -105.5t87 -258.5q0 -174 -109.5 -287t-285.5 -113h-504q-98 0 -168 -71q-66 -76 -66 -185q0 -100 59.5 -169.5t155.5 -69.5 q86 0 175 82q41 37 120 153q72 102 154 150q82 41 207 41q113 0 192.5 -74t79.5 -189q0 -117 -61.5 -189.5t-179.5 -72.5q-248 0 -248 224q0 14 10 25t29 18q27 6 43 -17q4 -4 10 -33q0 -135 153 -135q147 0 148 180q0 68 -51 125.5t-123 57.5q-184 0 -305 -183 q-167 -253 -343 -253h-1q-137 0 -227.5 101t-90.5 241zM201 406q0 -49 31.5 -87t84.5 -38t89 31.5t36 86.5q0 51 -34 86q-31 37 -82 45q-55 0 -90 -34.5t-35 -89.5zM662 1122q0 41 28.5 69t69.5 28q45 0 74 -29q30 -25 30 -70t-28.5 -73.5t-71.5 -28.5t-72.5 31.5 t-29.5 72.5z" />
<glyph unicode="x" horiz-adv-x="2070" d="M88 365q0 180 145.5 317t325.5 137q197 0 322 -135t125 -338q0 -43 -6.5 -83t-24 -87t-43.5 -80h627v135l-43 -6h-48q-137 0 -228 77t-91 210q0 117 83 204t202 87q90 0 155 -60q66 -55 66 -145v-256q66 10 117 47q59 39 108 100h88v-489h-313v-436h-96v436h-758v59 q43 37 73.5 130.5t30.5 154.5q0 82 -22.5 147.5t-73.5 124.5q-96 115 -252 115q-154 0 -264.5 -111.5t-110.5 -269.5q0 -123 115 -229l-16 37q-4 12 -9.5 33.5t-7.5 35.5q0 74 49 142q63 88 174 88q96 0 163 -75t67 -175q0 -94 -67.5 -158.5t-162.5 -64.5 q-158 0 -278.5 111.5t-120.5 269.5zM346 215q0 -59 37 -104t96 -45q63 0 105.5 40t42.5 103q0 61 -38 114.5t-100 53.5q-59 0 -101 -50.5t-42 -111.5zM1020 1141q0 35 31.5 68.5t70.5 33.5t70 -31.5t31 -72.5q0 -37 -33 -70q-33 -29 -70 -29t-71 31q-29 33 -29 70zM1241 518 q0 -100 90 -164q68 -47 133 -47l60 2q6 2 14.5 3t20.5 7v269q0 49 -42 88t-96 39q-76 0 -128 -60.5t-52 -136.5zM1655 96h217v266l-39 -36l-49 -31q-49 -31 -129 -43v-156z" />
<glyph unicode="y" horiz-adv-x="2211" d="M98 375q0 190 141.5 321t329.5 131q182 0 314.5 -128t132.5 -314q0 -131 -35 -219q-6 -27 -37 -70h283v502q0 92 53 157.5t141 65.5q72 0 125 -51q14 -12 35 -53q74 102 209 102q162 0 256 -143q78 -121 78 -295q0 -444 -377 -574q-83 -26 -130 -26h-3h-1157 q-100 0 -117 -86q-1 -8 -1 -15q0 -53 52 -86l-69 -61q-63 51 -76 125l-4 47q0 98 90 143q57 29 114 29h1176q31 0 102 27q297 111 297 473q0 135 -49 233q-63 125 -184 125q-59 0 -111.5 -45t-52.5 -100v-590h-96v598q0 47 -32 93t-77 46q-96 0 -96 -145v-592h-512v59 q111 121 111 318q0 154 -99.5 262.5t-253.5 108.5t-267.5 -109t-113.5 -264q0 -129 70 -219q16 -23 70 -60l-27 35q-27 53 -27 105q0 92 68 159.5t160 67.5q100 0 168.5 -75t68.5 -181q0 -96 -73.5 -160.5t-169.5 -64.5q-168 0 -283 111.5t-115 281.5zM352 215 q0 -55 43 -104q45 -45 103 -45q61 0 107 40t46 103q0 74 -39 126t-110 52q-96 0 -140 -106q-10 -31 -10 -66zM1047 1130q0 41 28.5 69t69.5 28q43 0 72.5 -29t29.5 -72t-28.5 -71.5t-71.5 -28.5q-37 0 -72 31q-29 33 -28 73z" />
<glyph unicode="z" horiz-adv-x="2445" d="M88 274q0 78 64 134q53 45 141 57v352h676v-96h-267v-256h162q37 43 70 70q93 69 208 69h3q160 0 254 -121q71 -93 71 -197q0 -85 -20 -145l-20 -45h503v150l-49 -4q-59 0 -113.5 11t-105.5 40q-137 78 -137 256q0 115 83 193.5t204 78.5q129 0 186 -108q12 -25 29 -109 v-254q47 6 65 17l70 36l47 33q25 16 49 49h86v-485h-317v-436h-97v436h-645v61q92 80 92 226q0 96 -68.5 166.5t-164.5 70.5q-80 0 -141 -37l-48 -36q70 -29 103 -54q102 -78 102 -192q0 -205 -180 -205q-74 0 -127 71.5t-53 161.5v48l8 41l8 47h-117v-136q0 -106 -92 -174 q-82 -59 -194 -59q-131 0 -229.5 71.5t-98.5 202.5zM182 266q0 -78 76 -133q68 -49 152 -49q76 0 129 33q67 36 67 106v146h-313q-43 0 -77 -29t-34 -74zM389 465h217v256h-217v-256zM891 258q0 -51 26.5 -112.5t73.5 -61.5t70 37q10 27 10 86q0 74 -78 127q-16 14 -78 37 l-12 -31q-12 -31 -12 -82zM1196 1147q0 41 28.5 70.5t69.5 29.5q37 0 68 -31.5t31 -70.5q0 -100 -95 -101q-45 0 -73.5 31t-28.5 72zM1622 547q0 -127 113 -182q72 -33 172 -33h16l10 2v274q0 51 -31.5 89t-86.5 38q-88 0 -140.5 -51t-52.5 -137zM2030 96h221v260l-49 -34 l-60 -29l-57 -23l-55 -12v-162z" />
<glyph unicode="{" horiz-adv-x="1456" d="M92 375q0 190 141.5 321t331.5 131q184 0 316.5 -128t132.5 -316q0 -131 -35 -219q-6 -31 -37 -68h475v-96h-598v66q96 109 96 311q0 154 -99 262.5t-255 108.5q-158 0 -268.5 -106.5t-110.5 -266.5q0 -135 70 -217q18 -23 72 -58l-27 33q-29 47 -29 103q0 94 66.5 160.5 t161.5 66.5q106 0 173.5 -68.5t67.5 -177.5q0 -96 -73 -168q-74 -68 -175 -67q-168 0 -282.5 111.5t-114.5 281.5zM346 221q0 -63 44 -109t102 -46q59 0 106 43q20 20 32.5 46.5t12.5 59.5q0 70 -39 121t-108 51q-61 0 -109 -49q-41 -51 -41 -117z" />
<glyph unicode="|" horiz-adv-x="1814" d="M115 0v817h96v-721h399v504q0 106 86 186q37 33 90 52q-123 92 -122 260q0 139 116 231q106 82 252 82q45 0 68 -10l16 4l58 10h43l49 -2q29 0 75 -12q90 -12 162 -105q12 47 62.5 83t103.5 36q117 0 146 -29v-88l-31 19q-43 18 -109 18q-55 0 -97 -51t-42 -108v-195h-96 v190q0 49 -31 93q-37 45 -88 57l-39 8l-39 2l-39 -2q80 -43 80 -158q0 -78 -54 -135t-134 -57q-84 0 -145.5 54t-61.5 138q0 55 26 103l37 47q-51 12 -116 -49q-51 -51 -72 -111l-8 -49q0 -41 8 -72.5t35 -81.5q45 -82 108 -112q154 -37 246 -199q82 -145 82 -313 q0 -334 -297 -334h-823zM711 96h256q78 0 127 62q41 57 41 139q0 76 -14.5 140.5t-51.5 142.5q-78 176 -201 176l-22 -2q-135 -12 -135 -148v-510zM975 1169q0 -45 33 -77q33 -29 82 -29q41 0 71 31q27 32 27 77q0 55 -31 92t-86 37q-96 -12 -96 -131z" />
<glyph unicode="}" horiz-adv-x="3358" d="M82 340q0 180 29 287q37 137 131 252q201 246 598 366q293 84 694 84q612 0 993 -313q156 -129 211 -322q10 -31 23 -164v-301q0 -29 2 -41t14 -30q43 -74 158 -74q92 0 160 49q92 68 92 240q0 94 -43 223q-25 76 -68 137q-10 23 -45 66l88 57l33 -57l55 -113 q25 -47 53 -162q8 -39 14.5 -87t6.5 -83q0 -188 -117 -284q-92 -74 -229 -74q-166 0 -236 113q-16 25 -35 114v273q0 139 -54 264t-161 203q-356 270 -915 270q-526 0 -844 -135q-360 -154 -471 -477q-43 -123 -43 -287q0 -74 16.5 -141.5t53.5 -143.5q70 -139 184 -235 q172 -141 449 -215q115 -29 225 -43.5t237 -14.5q219 0 469 62q299 74 416 198q80 86 114 161t34 181q0 72 -50 150q-61 92 -165 92q-113 0 -183 -88v-297h-96v721h-264v-721h-483v66q96 109 96 311q0 154 -100.5 262.5t-254.5 108.5q-158 0 -268 -106.5t-110 -266.5 q0 -133 69 -217q18 -25 70 -58l-27 33q-6 14 -16 44t-10 59q0 94 66.5 160.5t158.5 66.5q109 0 176.5 -67.5t67.5 -178.5q0 -96 -74 -168q-74 -68 -176 -67q-168 0 -281.5 111.5t-113.5 281.5q0 190 141 321t332 131q184 0 316 -128t132 -316q0 -131 -35 -219 q-6 -31 -37 -68h265v721h698v-96h-242v-303q35 25 101 43q31 8 53 9t35 1q123 0 210 -94t87 -223q0 -231 -187 -420q-139 -139 -444 -217q-121 -29 -237.5 -43.5t-247.5 -14.5q-133 0 -260.5 14.5t-243.5 45.5q-291 74 -475 231q-127 109 -206 266.5t-79 323.5zM659 221 q0 -59 42 -107t102 -48q59 0 108 43q20 20 32.5 46.5t12.5 59.5q0 68 -39.5 120t-109.5 52q-66 0 -109 -49q-39 -49 -39 -117z" />
<glyph unicode="~" horiz-adv-x="2461" d="M90 315q0 180 27 275q43 158 192 348q100 127 261 205t323 78q231 0 440 -117q145 -84 205 -176v45q0 96 55.5 181t112.5 118t145 33q129 0 205 -89.5t76 -222.5q0 -86 -31 -153l-14 -25h354v-96h-489v74q92 68 92 200q0 90 -51 161t-142 71q-84 0 -139 -55.5 t-70.5 -134.5t-15.5 -150v-60l8 -47q0 -27 11 -59h-93q0 121 -192 256q-217 150 -477 149q-156 0 -292 -70.5t-229 -197.5q-102 -141 -151 -299q-31 -98 -31 -240q0 -274 191 -495q199 -229 469 -230q252 0 415 132q176 139 177 387v32l-2 21q-8 98 -62 176q-59 88 -154 88 q-55 0 -99 -28.5t-44 -80.5v-319h-96v721h-266v-721h-97v817h701v-96h-242v-252l43 29q27 16 84 16q143 0 234.5 -97.5t91.5 -242.5q0 -305 -185 -487q-94 -90 -216 -135.5t-279 -45.5q-313 0 -539 250q-215 240 -215 559z" />
<glyph unicode="&#xa1;" horiz-adv-x="1361" d="M86 276q0 115 104 170q35 12 107 25v346h301q-66 94 -66 209q0 135 111 222t250 87q190 0 289 -153q70 -111 69 -226v-956h-96v958q0 76 -37 150t-106 111q-14 6 -45 16t-70 10q-98 0 -182 -56t-84 -149q0 -72 43 -157l35 -66h282v-96h-291v-250h123q213 0 213 -238 q0 -129 -71 -192q-51 -41 -113 -41q-47 0 -94 12l-23 6l27 82l29 -8l57 -10q49 0 73.5 46t24.5 99q0 96 -65 131l-66 17h-115v-121q0 -76 -26 -127q-68 -127 -268 -127q-121 0 -220 74q-100 82 -100 202zM182 274q0 -80 72 -139q68 -51 152 -51q129 0 178 82q12 16 20 84 v125h-301q-37 0 -59 -8q-61 -25 -62 -93zM393 471h211v250h-211v-250z" />
<glyph unicode="&#xa2;" horiz-adv-x="1849" d="M119 0v817h715v-96h-269v-266l70 34q61 20 98 21q90 0 163 -67.5t73 -161.5q0 -111 -80 -185h434v473l-29 -10l-32 -4l-43 6q-111 14 -198 118.5t-87 246.5q0 176 117.5 290.5t296.5 114.5q193 0 297 -155q90 -133 90 -338v-838h-97v817q0 172 -59 283q-74 141 -229 141 q-133 0 -226.5 -97t-93.5 -237q0 -84 53 -157q53 -68 136 -97l34 -6q20 0 70 21v149h96v-817h-950v96h264q55 0 101 64q39 61 38 116q0 61 -41 103q-37 41 -100 41q-129 0 -166 -94v-148h-96v543h-254v-721h-96z" />
<glyph unicode="&#xa3;" horiz-adv-x="1296" d="M84 268q0 123 96 176q20 10 99 27v346h294q-106 76 -106 209q0 131 108.5 219t241.5 88q182 0 287 -153q80 -117 80 -269v-911h-97v913q0 127 -67 226q-76 106 -203 106q-100 0 -177 -60.5t-77 -160.5q0 -80 58 -152q8 -10 24.5 -25.5t34.5 -29.5h235v-96h-227v-250h236 v-96h-236v-137q0 -72 -24 -119q-66 -121 -269 -121q-127 0 -219 71.5t-92 198.5zM174 268q0 -86 70 -137q31 -23 67.5 -35t83.5 -12q129 0 178 74q13 24 19 75v142l-346 -2q-72 -16 -72 -105zM375 471h217v250h-217v-250z" />
<glyph unicode="&#xa4;" horiz-adv-x="2043" d="M80 340q0 139 48 257t142 218l64 -63q-158 -168 -158 -420q0 -141 58.5 -283.5t160.5 -230.5q236 -201 553 -201q123 0 263.5 55.5t223.5 138.5t115.5 167.5t32.5 195.5q0 82 -41 143q-51 70 -127 70q-63 0 -108 -47q-10 -10 -29 -47v-266h-96v694h-357q-182 0 -295 -107 q-102 -98 -102 -266q0 -74 33 -125q10 -18 82 -84l-21 51l-8 60q0 88 67.5 155.5t157.5 67.5t156 -68.5t66 -158.5l-3 -21q-10 -94 -71 -159q-47 -53 -156 -66l-24 -2q-68 0 -128.5 24.5t-125.5 83.5q-117 109 -117 250q0 330 362 439q84 23 127 22h338q-68 80 -67 205 q0 141 135 233q121 80 270 80q193 0 308.5 -111.5t115.5 -299.5v-924h-96v924q0 135 -92 227q-47 45 -102.5 67.5t-127.5 22.5q-119 0 -204 -53q-106 -63 -107 -166q0 -92 35 -154q10 -27 35 -51h329v-96h-317v-285l37 19q47 18 90 18q131 0 203.5 -88t72.5 -221 q0 -236 -178 -412q-164 -160 -401 -209q-35 -6 -74 -10t-80 -4q-360 0 -614 224t-254 587zM606 242q0 -61 39 -107.5t98 -46.5q55 0 95.5 42t40.5 97q0 63 -39 112.5t-97 49.5q-59 0 -98 -45t-39 -102z" />
<glyph unicode="&#xa5;" horiz-adv-x="1343" d="M125 0v817h96v-721h328q-45 39 -66 66q-66 90 -65 217q0 104 80 182t182 78q115 0 182 -74q51 -61 51 -147v-322h402v-96h-402v-428h-96v428h-692zM516 375q0 -123 82 -213q18 -20 82 -66h137v318q0 61 -38 99t-97 38q-68 0 -117 -54.5t-49 -121.5z" />
<glyph unicode="&#xa6;" horiz-adv-x="2476" d="M90 346q0 207 155.5 341t362.5 134q164 0 297 -82q119 84 232 84t192 -39q29 -12 60 -41l36 25q27 18 76 35l68 10l73 4h123l-49 45q-51 70 -51 164q0 137 97.5 225t236.5 88q172 0 265 -98t93 -266v-975h-98v971q0 123 -68.5 199.5t-189.5 76.5q-100 0 -170 -60.5 t-70 -162.5q0 -72 56 -150l55 -57h217v-96h-213v-721h-96v721h-199q-76 0 -117 -35l-12 -10q133 -133 133 -336q0 -104 -43 -209q-53 -131 -145 -131t-154 129q-51 109 -51 211q0 209 129 344q-92 55 -186 55q-55 0 -111 -28q-25 -6 -49 -29l57 -92q29 -68 43.5 -127.5 t14.5 -128.5q0 -334 -183 -334q-88 0 -145 125q-43 98 -43 201q0 217 127 352q-106 59 -199 59h-26q-178 0 -314 -121q-70 -61 -103.5 -129.5t-33.5 -144.5l4 -57q0 -33 20.5 -69t59.5 -77q-18 37 -18 101q0 86 56 154.5t144 68.5t148 -80q49 -72 49 -166 q0 -92 -59.5 -156.5t-153.5 -64.5q-141 0 -235.5 104.5t-94.5 245.5zM309 229q0 -147 113 -147q72 0 115 86q10 26 10 65q0 145 -117 146q-53 0 -90 -45q-31 -43 -31 -105zM805 324q0 -72 21.5 -159t78.5 -87q41 0 67.5 82t26.5 168q0 57 -11 109t-36 95q-12 35 -49 86 q-35 -45 -49 -77q-49 -102 -49 -217zM1282 336q0 -70 27 -150q31 -106 86 -106q49 0 82 108q22 84 22 152q0 121 -55 217l-55 66q-29 -31 -54 -72q-53 -100 -53 -215z" />
<glyph unicode="&#xa7;" horiz-adv-x="1359" d="M63 -301q0 178 207 178h379q117 0 206 84t89 201q0 80 -37 141q-43 72 -116 72h-99v-142q-12 -80 -35 -110q-76 -113 -258 -113q-129 0 -219 66q-98 74 -98 198q0 104 98 164q29 16 99 31v348h284q-35 53 -51 137l-6 72q0 119 104 215q51 45 117 69.5t145 24.5 q147 0 250 -94q127 -121 127 -285v-956h-96v954q0 92 -70 183q-84 109 -206 108q-104 0 -189.5 -60.5t-85.5 -162.5q0 -104 29 -162q6 -18 31 -43h280v-96h-250v-250h84q121 0 197 -91t76 -218q0 -178 -148 -289q-123 -92 -256 -92h-366q-47 0 -58 -4q-59 -16 -59 -70 q0 -70 51 -108l-72 -62q-43 35 -60.5 81t-17.5 81zM176 266q0 -80 74 -129q33 -20 69.5 -32.5t79.5 -12.5q117 0 168 70q11 12 29 71v142h-313q-37 -6 -54 -15q-53 -29 -53 -94zM375 471h221v250h-221v-250z" />
<glyph unicode="&#xa8;" horiz-adv-x="1286" d="M0 -301q0 178 207 178h391q117 0 197 111q74 98 73 221q0 86 -39 158q-47 88 -124 88q-61 0 -115 -49l-33 -50v-356h-96v721h-252v-721h-96v817h321l-28 94l-7 109q0 127 115 224t279 97q180 0 280.5 -116.5t100.5 -300.5v-924h-97v913q0 76 -14 131q-53 207 -264 207 q-121 0 -207 -55q-94 -66 -94 -184q0 -129 45 -195h278v-96h-264v-223q25 25 80 43q29 8 45 9t25 1q121 0 198 -102q70 -94 70 -220q0 -186 -103 -313q-109 -135 -288 -135h-369q-61 0 -84 -17q-18 -18 -33 -65q-6 -23 6.5 -49.5t42.5 -50.5l-69 -62q-43 35 -60.5 81 t-17.5 81z" />
<glyph unicode="&#xa9;" horiz-adv-x="1525" d="M125 0v817h96v-721h768v473l-57 -14l-45 6q-109 12 -196 117.5t-87 247.5q0 178 117 291.5t295 113.5q172 0 284 -133q104 -127 105 -303v-895h-96v893q0 141 -74 240q-80 109 -219 108q-139 0 -226.5 -96t-87.5 -238q0 -84 52.5 -155.5t132.5 -98.5l35 -6q20 0 67 21 v149h98v-817h-962z" />
<glyph unicode="&#xaa;" horiz-adv-x="1605" d="M119 0v817h96v-721h399v539q0 43 20.5 79t67 75.5t99.5 46.5l51 6l-29 51q-31 72 -30 149q0 125 102 208t231 83q182 0 287 -141q76 -106 76 -240v-952h-96v926q0 125 -68 217q-74 98 -199 98q-92 0 -161.5 -60.5t-69.5 -154.5q0 -66 35 -135q12 -31 37 -62 q47 -31 81.5 -60.5t53.5 -53.5q137 -162 137 -381q0 -334 -297 -334h-823zM715 96h256q78 0 127 62q39 59 39 139q0 147 -70 287q-84 170 -217 170q-53 0 -96 -43q-39 -43 -39 -105v-510z" />
<glyph unicode="&#xab;" horiz-adv-x="1695" d="M104 209v608h97v-596q0 -57 35.5 -94t93.5 -37q43 0 100 41t57 80v606h97v-721h579v475l-24 -8l-33 -2q-31 0 -45 4q-123 18 -204 125t-81 236q0 178 117 291.5t295 113.5q174 0 287 -133q102 -125 102 -303v-895h-96v893q0 141 -74 240q-80 109 -217 108 q-133 0 -226.5 -97t-93.5 -237q0 -80 56.5 -154.5t134.5 -99.5l35 -6q37 0 55 10l12 7v153h97v-817h-773v70q-23 -23 -73 -52q-49 -23 -90 -22q-90 0 -156 65q-63 70 -64 148z" />
<glyph unicode="&#xac;" horiz-adv-x="1165" d="M104 0v817h375q-25 20 -45 51q-47 72 -47 150q0 135 88 229t221 94q190 0 287 -151q68 -104 68 -234v-956h-95v950q0 98 -49 189q-68 117 -209 116q-94 0 -154.5 -69.5t-60.5 -165.5q0 -74 54 -146l53 -57h219v-96h-221v-721h-96v721h-291v-721h-97z" />
<glyph unicode="&#xad;" horiz-adv-x="1724" d="M84 369q0 184 120 316t302 132q147 0 237.5 -74.5t90.5 -220.5v-289q0 -78 30.5 -113.5t93.5 -35.5q119 0 181 119q45 94 45 225q0 109 -33 180q-14 33 -129 170q-94 113 -94 271q0 123 119 198q102 63 233 64q197 0 287 -140q31 -49 47 -106t16 -125v-940h-94v940 q0 287 -250 287q-96 0 -168 -43q-76 -49 -94 -142l-2 -34q0 -47 15.5 -87t52.5 -81q94 -100 139 -187q53 -102 53 -225q0 -184 -68 -295q-80 -133 -256 -133q-221 0 -221 233v285q0 92 -60.5 153.5t-152.5 61.5q-147 0 -248.5 -113.5t-101.5 -263.5q0 -61 16.5 -106 t67.5 -109l-14 45l-6 60q0 76 59 130t135 54q90 0 141.5 -69.5t51.5 -159.5q0 -84 -62 -146q-63 -57 -149 -57q-154 0 -242 106.5t-88 264.5zM313 221q0 -139 107 -139q121 0 121 131q0 51 -33 94t-78 43q-49 0 -83 -40t-34 -89z" />
<glyph unicode="&#xae;" horiz-adv-x="1916" d="M98 375q0 190 141.5 321t329.5 131q182 0 314.5 -128t132.5 -314q0 -131 -35 -219q-6 -27 -37 -70h438v473l-53 -8q-31 0 -47 4q-125 23 -204 127.5t-79 233.5q0 164 124 284.5t290 120.5q172 0 285 -133q104 -127 104 -303v-895h-96v893q0 141 -74 240q-80 111 -217 110 q-135 0 -228 -94t-93 -231q0 -90 51 -165t139 -102l39 -6l33 4l26 6v162h97v-817h-658v66q61 68 81 140.5t20 170.5q0 154 -99.5 262.5t-253.5 108.5t-267.5 -109t-113.5 -264q0 -129 70 -219q16 -23 70 -60l-27 35q-27 53 -27 105q0 92 68 159.5t160 67.5q100 0 168.5 -75 t68.5 -181q0 -96 -73.5 -160.5t-169.5 -64.5q-168 0 -283 111.5t-115 281.5zM352 215q0 -55 43 -104q45 -45 103 -45q61 0 107 40t46 103q0 74 -39 126t-110 52q-96 0 -140 -106q-10 -31 -10 -66z" />
<glyph unicode="&#xaf;" horiz-adv-x="1564" d="M106 -305q0 74 67 136.5t144 62.5h170v-97h-161q-51 0 -89 -28.5t-38 -75.5q0 -82 80 -117q55 -20 139 -20q98 0 157 38q45 31 115 121q29 39 53 58l33 24l-47 15q-41 12 -76 55q-43 55 -43 133h-495v817h96v-721h397v504q0 125 90 191q61 45 125 45q-6 10 -21.5 41.5 t-25.5 56.5q-12 55 -12 110q0 119 108 207q100 78 226 78q190 0 286 -151q68 -104 68 -226v-952h-96v956q0 100 -58 179q-74 104 -200 104q-100 0 -171 -63.5t-71 -161.5q0 -47 26.5 -106.5t65.5 -86.5q123 -43 205 -200q33 -68 51.5 -140.5t18.5 -146.5q0 -70 -10.5 -118 t-36.5 -93q-72 -123 -238 -123h-233q-12 -131 143 -131h229v-96h-164q-78 0 -176 -131q-61 -78 -108 -115q-80 -55 -213 -55q-309 0 -310 223zM705 96h237q182 1 182 228q0 150 -65 272q-80 152 -217 152t-137 -142v-510z" />
<glyph unicode="&#xb0;" horiz-adv-x="1851" d="M90 383q0 174 120 304t294 130q121 0 223 -69q29 -16 72 -70v139h354q-98 78 -98 209q0 135 95 224t232 89q188 0 283 -151q68 -109 68 -232v-958h-97v954q0 129 -63.5 214t-188.5 85q-96 0 -165.5 -63.5t-69.5 -159.5q0 -94 57 -160q12 -18 58 -51h247v-96h-219v-721 h-96v721h-301v-721h-96v494q-55 238 -301 237q-135 0 -226.5 -106.5t-91.5 -245.5q0 -135 82 -225l39 -35l-14 28q-16 45 -17 103q0 84 59.5 146.5t141.5 62.5q90 0 147.5 -67.5t57.5 -162.5l-2 -28q0 -86 -68 -154q-61 -57 -153 -57q-160 0 -261.5 114.5t-101.5 278.5z M346 231q0 -59 27.5 -111t85.5 -52q55 0 91 51t36 110q0 53 -30 101.5t-85 48.5q-53 0 -89 -45t-36 -103z" />
<glyph unicode="&#xb1;" horiz-adv-x="1382" d="M57 -291q0 70 54 125q57 53 143 53h305q154 0 258 166q88 145 88 307q0 125 -37 230q-49 141 -153 141q-61 0 -102.5 -41t-41.5 -102v-588h-96v586q0 53 -36 99t-89 46q-55 0 -94 -45q-35 -45 -35 -102v-584h-96v590q0 94 64.5 160.5t156.5 66.5q109 0 174 -108 q23 45 66 73l30 17l39 12q-106 94 -106 201q0 129 104.5 219t233.5 90q197 0 297 -145q74 -104 73 -232v-944h-96v940q0 127 -72.5 210t-201.5 83q-94 0 -168 -66q-74 -61 -74 -155q0 -55 43 -114.5t103 -82.5l114 -92q98 -121 99 -342q0 -115 -27 -209t-88 -186 q-129 -195 -328 -195h-309q-100 0 -100 -82l6 -53q6 -16 32 -41l-77 -43q-55 55 -56 137z" />
<glyph unicode="&#xb2;" horiz-adv-x="2009" d="M92 360q0 203 168 338q158 123 367 123q188 0 342 -98l43 39l51 29q14 10 100 22l31 4h113q-41 39 -72 92q-23 49 -23 117q0 127 92.5 221t225.5 94q190 0 291 -151q72 -109 71 -234v-956h-96v956q0 100 -63 191q-78 109 -199 108q-98 0 -160.5 -62.5t-62.5 -160.5 q0 -141 123 -215h198v-96h-162v-721h-96v721h-178l-51 -2q-63 0 -101 -35l-12 -10q51 -74 68 -107q68 -127 67 -258q0 -98 -45 -200q-55 -125 -145 -125q-96 0 -152 122q-43 92 -43 207q0 219 131 351q-119 72 -280 71q-178 0 -311 -102q-141 -111 -142 -285 q0 -29 6.5 -58.5t25.5 -72.5t54 -88q-18 49 -18 96q0 90 61.5 162t155.5 72q102 0 165.5 -76t63.5 -180q0 -100 -68.5 -165t-166.5 -65q-154 0 -260.5 115t-106.5 272zM326 223q0 -63 36.5 -116.5t96.5 -53.5q63 0 104 47t41 113q0 68 -37 117t-102 49q-61 0 -100 -48 t-39 -108zM870 315q0 -76 21 -149q29 -104 86 -105q43 0 76 107q10 35 16 74.5t6 70.5q0 102 -49 201l-49 96q-14 -20 -29 -43q-4 -6 -24 -45q-53 -113 -54 -207z" />
<glyph unicode="&#xb3;" horiz-adv-x="2064" d="M90 381q0 176 117 307t299 131q150 0 239 -65l70 -76q12 57 70.5 98t118.5 41q72 0 138 -50t66 -122v-399q0 -57 39 -108.5t96 -51.5q98 0 174 92t76 232q0 137 -90 227l-137 141q-109 113 -109 271q0 123 103 198q92 68 221 68q172 0 273.5 -99.5t101.5 -269.5v-946h-96 v934q0 293 -275 293q-215 0 -229 -170l-2 -25q0 -109 86 -192q252 -227 252 -434q0 -162 -90 -283q-47 -66 -104.5 -95.5t-131.5 -29.5l-27 2q-84 0 -155.5 77t-71.5 181v360q0 49 -26.5 82t-77.5 33q-123 0 -123 -196v-537h-97v524q0 90 -98 152q-88 53 -184 53 q-145 0 -234.5 -103.5t-89.5 -254.5q0 -141 119 -242l-16 49l-9 70l3 28q0 37 15 70t46 66q57 57 131 57q92 0 149.5 -69.5t57.5 -166.5l-6 -57q-41 -176 -211 -176q-154 0 -262.5 111.5t-108.5 269.5zM360 248q0 -61 23 -105q25 -57 80 -57q53 0 89 45t36 102 q0 55 -31 103.5t-86 48.5q-96 0 -111 -137z" />
<glyph unicode="&#xb4;" horiz-adv-x="1638" d="M90 473q0 143 106.5 243.5t252.5 100.5q178 0 284 -145l21 35l71 71l62 33q-78 94 -78 199q0 133 104 219q96 78 236 78q195 0 299 -136q78 -106 78 -256v-915h-94v889q0 330 -293 330q-96 0 -164 -59.5t-68 -153.5q0 -55 39 -125l39 -56l35 -2q133 0 231 -157 q61 -98 62 -215q0 -154 -104.5 -276t-262.5 -122h-524q-98 0 -168 -71q-66 -76 -66 -185q0 -100 59.5 -173t155.5 -73q74 0 152 74l127 166q139 190 352 191q119 0 199 -76t80 -191q0 -90 -49 -164q-63 -94 -199 -94q-100 0 -168 47q-78 55 -78 150l-2 10q0 31 45 39 q41 0 41 -41q0 -59 50.5 -95t113.5 -36q74 0 116 57.5t42 130.5q0 66 -54.5 124.5t-123.5 58.5q-195 0 -314 -189q-31 -47 -112 -151q-100 -100 -209 -101q-135 0 -226.5 105.5t-91.5 243.5q0 133 96.5 236.5t229.5 103.5h518q117 0 199 92t82 211q0 109 -59.5 194.5 t-166.5 85.5q-76 0 -146.5 -66.5t-70.5 -144.5v-305h-96v299q0 104 -65.5 160.5t-163.5 56.5q-96 0 -166 -52t-97 -132q55 55 131 55q84 0 144 -55q61 -61 61 -152q0 -88 -60.5 -140t-148.5 -52q-98 0 -161.5 84t-63.5 184zM201 406q0 -49 31.5 -87t84.5 -38t89 31.5 t36 86.5q0 51 -34 86q-31 37 -82 45q-55 0 -90 -34.5t-35 -89.5z" />
<glyph unicode="&#xb5;" horiz-adv-x="2205" d="M92 365q0 186 130 320t317 134q188 0 315 -145q121 -137 121 -328q0 -78 -37 -162q-12 -29 -55 -88h565v170l-25 -2q-51 0 -102 11.5t-107 37.5q-145 74 -145 222q0 106 64.5 178.5t171.5 91.5q-29 51 -43 100q-12 53 -13 119q0 145 121 236q113 82 260 81 q207 0 334 -118.5t127 -325.5v-897h-96v895q0 160 -97.5 261t-261.5 101q-109 0 -196.5 -68.5t-100.5 -172.5l-2 -29q0 -49 17.5 -97t58.5 -97q84 -31 115 -121q10 -37 10 -74v-229l51 14l45 27q49 31 82 96h88v-506h-268v-418h-92v418h-692v59q45 45 79 107q51 96 52 178 q0 160 -86 270q-92 117 -252 117q-147 0 -254 -118.5t-107 -266.5q0 -121 113 -225l-18 37q-8 25 -17 69q0 76 47 142q63 88 174 88q100 0 162 -75t62 -181q0 -92 -62.5 -154.5t-157.5 -62.5q-158 0 -276.5 110.5t-118.5 270.5zM346 215q0 -59 37 -104t96 -45q53 0 93 44 t40 97q6 61 -29.5 115.5t-99.5 54.5q-59 0 -98 -51.5t-39 -110.5zM1161 539q0 -98 105 -154q82 -39 159 -39l23 2v252q0 119 -125 119q-72 0 -117 -53q-20 -25 -32.5 -58t-12.5 -69zM1538 96h172v266q-33 -29 -80 -51l-47 -20l-45 -10v-185z" />
<glyph unicode="&#xb6;" horiz-adv-x="2553" d="M98 375q0 190 141.5 321t329.5 131q182 0 314.5 -128t132.5 -314q0 -131 -35 -219q-6 -27 -37 -70h281v502q0 96 50 162.5t144 66.5q66 0 109 -28q23 -14 51 -56l23 31l26 19l51 30q-88 94 -88 211q0 147 115 232q104 76 256 75q211 0 341 -110.5t130 -315.5v-917h-98 v920q0 166 -100.5 250.5t-270.5 84.5q-109 0 -188 -53q-88 -63 -88 -166q0 -66 36 -125q29 -45 84 -73q158 -88 207 -156q80 -117 80 -303q0 -236 -137 -410q-145 -186 -379 -186h-1085q-143 0 -144 -98q0 -72 49 -109l-77 -47q-63 63 -64 149q0 86 70 148q66 53 155 53 h1112q172 0 293 152q115 143 115 315q0 129 -55 252q-68 152 -185 152q-61 0 -101 -46.5t-40 -111.5v-590h-94v596q0 145 -107 145q-100 0 -100 -149v-592h-510v59q111 121 111 318q0 154 -99.5 262.5t-253.5 108.5t-267.5 -109t-113.5 -264q0 -129 70 -219q16 -23 70 -60 l-27 35q-27 53 -27 105q0 92 68 159.5t160 67.5q100 0 168.5 -75t68.5 -181q0 -96 -73.5 -160.5t-169.5 -64.5q-168 0 -283 111.5t-115 281.5zM352 215q0 -55 43 -104q45 -45 103 -45q61 0 107 40t46 103q0 74 -39 126t-110 52q-96 0 -140 -106q-10 -31 -10 -66z" />
<glyph unicode="&#xb7;" horiz-adv-x="2752" d="M94 274q0 150 205 187v356h676v-96h-266v-256h161q41 47 68 67q94 70 213 70q145 0 244 -117q82 -100 82 -202t-39 -187h501v154l-49 -4q-59 0 -112.5 11t-108.5 38q-141 74 -141 244q0 111 77.5 189.5t190.5 90.5q-33 43 -55 99q-18 55 -19 112q0 145 160 238 q135 76 293 75q465 0 465 -487v-856h-98v854q0 403 -361 403q-127 0 -231 -49q-131 -61 -131 -178q0 -59 43 -143q29 -53 61 -82q49 -27 84 -88l21 -51l8 -48v-268q80 10 139 53l47 35l45 47h86v-485h-317v-436h-97v436h-645v61q90 78 90 226q0 80 -74.5 156.5t-156.5 76.5 t-135 -35q-18 -6 -41 -34q63 -29 96 -56q96 -74 96 -190q0 -201 -190 -201q-74 0 -122 78t-48 156v45l8 39l8 47h-116v-136q0 -109 -93 -176q-82 -57 -196 -57q-129 0 -223 70q-102 78 -103 204zM188 266q0 -78 76 -133q68 -49 152 -49q76 0 129 33q67 36 67 106v146h-313 q-43 0 -77 -29t-34 -74zM395 465h217v256h-217v-256zM903 236q0 -53 22.5 -100.5t71.5 -47.5q78 0 78 115q0 80 -74 135l-28 16l-45 25l-13 -45q-12 -43 -12 -98zM1620 547q0 -121 104 -180q72 -39 170 -39h23q14 0 22 4v276q0 47 -31.5 87t-78.5 40q-92 0 -150.5 -51 t-58.5 -137zM2036 96h223v273q-74 -63 -158 -88l-65 -17v-168z" />
<glyph unicode="&#xb8;" horiz-adv-x="1138" d="M92 276q0 115 105 170q35 12 106 25v346h266q-20 18 -38.5 36.5t-32.5 37.5q-74 96 -74 201q0 133 88 215q47 41 99.5 61.5t123.5 20.5q111 0 194 -58.5t83 -167.5q0 -86 -52.5 -144t-136.5 -58q-80 0 -137 55t-57 141q0 55 37 115l39 43l-60 -15q-131 -55 -131 -204 q0 -82 47 -154t135 -125h301v-96h-290v-250h122q213 0 213 -238q0 -129 -71 -192q-51 -41 -113 -41q-47 0 -94 12l-23 6l27 82l29 -8l57 -10q49 0 73.5 46t24.5 99q0 96 -65 131l-66 17h-114v-121q0 -76 -27 -127q-68 -127 -268 -127q-121 0 -219 74q-100 82 -101 202z M188 274q0 -80 72 -139q68 -51 152 -51q129 0 178 82q12 16 20 84v125h-301q-37 0 -59 -8q-61 -25 -62 -93zM399 471h211v250h-211v-250zM715 1159q0 -45 29.5 -80t74.5 -35q47 0 75 35t28 84q0 41 -32 81t-75 40t-71.5 -40t-28.5 -85z" />
<glyph unicode="&#xb9;" horiz-adv-x="1536" d="M111 0v817h731v-96h-285v-272l39 22q53 31 123 31q94 0 168 -66q74 -61 74 -157q0 -106 -78 -183h432v508l-98 23q-109 37 -172.5 98t-96.5 137t-33 164q0 160 112 271.5t271 111.5q90 0 152 -63q29 -33 43 -69t14 -83q0 -78 -48 -143.5t-128 -65.5q-172 0 -209 170 l-4 41q0 33 25 88q-135 -96 -135 -262q0 -147 129 -256q33 -27 94 -51q25 -6 43 -10.5t41 -6.5v119h96v-817h-950v96h237q59 0 113.5 58.5t54.5 119.5q0 57 -44 101.5t-105 44.5q-117 0 -160 -98v-156h-96v555h-254v-721h-96zM1204 1188q0 -51 37 -86t84 -35q41 0 68.5 40 t27.5 81q0 55 -32.5 94t-88.5 39q-47 0 -71.5 -42t-24.5 -91z" />
<glyph unicode="&#xba;" horiz-adv-x="1028" d="M88 268q0 156 197 193v356h276q-43 25 -92 92q-70 94 -70 189q0 127 87 211t219 84q117 0 194 -52q86 -59 86 -174q0 -86 -50 -145t-134 -59q-80 0 -138.5 53t-58.5 133q0 98 55 154q-70 -25 -100 -50q-63 -53 -63 -151t92 -201q66 -68 110 -84h222v-96h-228v-260h236 v-96h-236v-132q0 -102 -88 -167.5t-194 -65.5q-123 0 -222.5 72.5t-99.5 195.5zM182 262q0 -80 76 -129q66 -43 150 -43q66 0 127 36.5t61 102.5v136h-311q-43 0 -73 -30t-30 -73zM381 461h215v260h-215v-260zM694 1163q0 -115 103 -114q96 -1 96 116q0 47 -27.5 79 t-74.5 32q-39 0 -70 -37q-27 -37 -27 -76z" />
<glyph unicode="&#xbb;" horiz-adv-x="1765" d="M100 340q0 139 31 240.5t109 220.5l84 -47q-129 -188 -129 -422q0 -141 58 -279.5t163 -230.5q209 -184 532 -184q119 0 264.5 51t223.5 129q147 141 147 360q0 80 -45 144.5t-123 64.5q-43 0 -83 -31.5t-56 -79.5v-276h-90v721h-365q-160 0 -276.5 -108.5t-116.5 -264.5 q0 -74 33 -125q10 -18 82 -84l-21 51l-8 60q0 88 67.5 155.5t157.5 67.5t156 -68.5t66 -158.5l-3 -21q-10 -94 -71 -159q-47 -53 -156 -66l-24 -2q-68 0 -128.5 24.5t-125.5 83.5q-117 109 -117 250q0 182 148.5 321.5t332.5 139.5h350q-45 31 -86 86q-59 82 -59 178 q0 137 89 224.5t228 87.5q115 0 189 -55.5t74 -168.5q0 -84 -48.5 -142t-130.5 -58q-84 0 -141 55t-57 145q0 43 30 103l31 41q-53 -12 -88 -37q-88 -63 -88 -193q0 -70 55 -147q70 -98 125 -119h305v-96h-317v-285l25 15l36 20q31 12 66 12q125 0 201.5 -92t76.5 -219 q0 -123 -47 -229q-102 -244 -387 -349q-131 -45 -288 -45q-387 0 -615 207q-246 221 -246 584zM600 242q0 -59 37 -109q39 -45 98 -45q55 0 95 42t40 97q0 59 -37.5 111.5t-97.5 52.5q-53 0 -96 -45q-39 -45 -39 -104zM1307 1167q0 -45 33.5 -82.5t78.5 -37.5q99 -1 99 122 q0 51 -29 88t-78 37q-45 0 -74.5 -38.5t-29.5 -88.5z" />
<glyph unicode="&#xbc;" horiz-adv-x="1267" d="M125 0v817h96v-721h348q-141 98 -141 242q0 129 92 221t221 92q115 0 195 -61.5t80 -175.5q0 -88 -47 -142q-49 -61 -135 -61q-90 0 -145.5 53t-55.5 156q0 86 57 143q-76 -18 -126 -81.5t-50 -143.5q0 -76 57 -141q74 -86 144 -101h522v-96h-1112zM715 420 q0 -53 31.5 -93t82.5 -40q47 0 74 40t27 91q0 131 -105 131q-49 0 -82 -39q-29 -39 -28 -90z" />
<glyph unicode="&#xbd;" horiz-adv-x="2183" d="M90 346q0 207 155.5 341t362.5 134q178 0 293 -84q115 84 236 84q33 0 60.5 -4t88 -21.5t103.5 -52.5l38 33l43 23l52 14l59 4h119q-49 25 -101 96q-31 47 -47 93.5t-16 93.5q0 129 102 211q96 74 230 73q109 0 184.5 -57t75.5 -168q0 -84 -51.5 -136t-132.5 -52 q-88 0 -144.5 53t-56.5 139q0 41 18 82q8 20 15.5 30.5t25.5 31.5q-180 -49 -180 -211q0 -96 98 -199q74 -74 109 -80h258v-96h-254v-721h-96v721h-168q-33 0 -56 -8l-30 -11l-27 -16q49 -47 89 -148.5t40 -197.5q0 -104 -43 -209q-53 -131 -145 -131t-154 129 q-51 109 -51 211q0 209 123 344q-29 20 -90 39q-31 8 -50.5 12t-39.5 4q-96 0 -166 -57q121 -131 121 -348q0 -109 -41 -205q-53 -129 -142 -129q-88 0 -145 125q-43 98 -43 201q0 90 33.5 190t91.5 162q-106 59 -199 59h-24q-178 0 -314 -121q-70 -61 -103.5 -129.5 t-33.5 -144.5l4 -57q0 -33 20.5 -69t59.5 -77l-14 51l-7 52q0 88 59.5 154.5t143.5 66.5q88 0 148 -80q49 -72 49 -166q0 -92 -59.5 -156.5t-153.5 -64.5q-141 0 -235.5 104.5t-94.5 245.5zM313 229q0 -150 117 -149q49 0 90 49q27 47 27 104q0 145 -117 146q-53 0 -85 -45 t-32 -105zM801 324q0 -45 6 -85t22 -83q31 -78 76 -78t76 106q23 81 23 144q0 61 -29 171.5t-72 110.5q-29 0 -65.5 -121.5t-36.5 -164.5zM1282 336q0 -70 27 -150q31 -106 86 -106q49 0 82 108q22 84 22 152q0 66 -29 158q-37 119 -84 118q-23 0 -65 -98q-39 -104 -39 -182 zM1825 1163q0 -53 32.5 -86t86.5 -33q45 0 74.5 35t29.5 82q0 55 -34 93t-87 38q-47 0 -74.5 -41t-27.5 -88z" />
<glyph unicode="&#xbe;" horiz-adv-x="1140" d="M72 -313q0 178 207 178h378q117 0 206 84t89 201q0 80 -37 141q-43 72 -118 71h-99v-139q-6 -37 -14 -65.5t-20 -46.5q-72 -113 -256 -113q-129 0 -220 65q-98 74 -98 199q0 104 98 164q29 17 99 31v360h276q-41 18 -94 86q-70 94 -70 199q0 141 98.5 216t241.5 75 q104 0 174 -63.5t70 -166.5q0 -78 -55.5 -141.5t-136.5 -63.5q-84 0 -146 56q-57 57 -57 153q0 82 53 136q-123 -49 -154 -185l-4 -35q0 -92 88 -182q66 -68 131 -84h269v-96h-273v-262h86q121 0 197 -91.5t76 -217.5q0 -178 -148 -289q-123 -92 -256 -92h-366q-47 0 -58 -5 q-59 -16 -59 -69q0 -70 51 -109l-71 -61q-43 35 -60.5 81t-17.5 81zM184 254q0 -80 74 -129q33 -20 70 -32.5t80 -12.5q117 0 167 70q11 12 29 71v141h-313q-37 -6 -53 -14q-53 -29 -54 -94zM383 461h221v260h-221v-260zM676 1163q0 -47 30.5 -86t84.5 -39q49 0 78.5 38 t29.5 87q0 57 -35 94q-31 41 -86 41q-102 0 -102 -135z" />
<glyph unicode="&#xbf;" horiz-adv-x="1081" d="M4 -301q0 178 207 178h391q117 0 197 111q74 98 73 221q0 86 -38 158q-47 88 -125 88q-61 0 -115 -49l-33 -50v-356h-96v721h-252v-721h-96v817h327q-37 23 -90 92q-70 100 -69 203q0 123 102 211q96 80 223 80q117 0 198 -59.5t81 -176.5q0 -86 -57.5 -144t-141.5 -58 q-78 0 -143 61q-31 33 -45.5 65.5t-14.5 77.5q0 51 17 86l33 60q-162 -68 -162 -211q0 -80 57 -162q74 -104 139 -125h275v-96h-285v-223q12 12 31.5 23t50.5 20.5t68 9.5q119 0 196 -105q70 -94 70 -217q0 -184 -100 -311q-109 -137 -289 -137h-369q-61 0 -84 -17 q-18 -18 -33 -65q-6 -23 6.5 -49.5t43.5 -50.5l-70 -62q-43 35 -60.5 81t-17.5 81zM575 1171q0 -121 117 -120q107 0 107 123q0 125 -115 124q-49 0 -79 -38.5t-30 -88.5z" />
<glyph unicode="&#xc0;" horiz-adv-x="1220" d="M117 0v817h98v-721h770v508q-43 0 -113 29q-96 37 -163 94q-129 109 -129 299q0 168 103 277.5t271 109.5q96 0 162 -62.5t66 -158.5q0 -88 -53.5 -149.5t-139.5 -61.5q-78 0 -140.5 51t-62.5 131q0 55 12.5 90t41.5 64q-76 -43 -125 -125q-45 -84 -45 -172 q0 -78 22 -125q29 -72 123 -139q45 -31 87 -47.5t83 -16.5v125h96v-817h-964zM866 1190q0 -55 32 -90t87 -35q109 0 109 127q0 49 -35 87t-82 38q-49 0 -80 -38t-31 -89z" />
<glyph unicode="&#xc1;" horiz-adv-x="1347" d="M115 0v817h96v-721h399v504q0 106 86 186q35 29 88 52q-121 92 -120 256q0 137 91 222t226 85q111 0 188 -55q80 -61 80 -172q0 -88 -49 -147.5t-133 -59.5q-88 0 -149 55q-57 57 -58 147q0 72 62 146q-166 -59 -166 -223q0 -176 151 -246q154 -37 246 -199 q82 -145 82 -313q0 -334 -297 -334h-823zM711 96h256q78 0 127 62q41 57 41 139q0 76 -14.5 140.5t-51.5 142.5q-78 176 -201 176l-22 -2q-135 -12 -135 -148v-510zM950 1171q0 -53 30 -88.5t83 -35.5q96 0 96 131q0 43 -26.5 82.5t-69.5 39.5q-49 0 -84 -36 q-29 -39 -29 -93z" />
<glyph unicode="&#xc2;" horiz-adv-x="1435" d="M125 213v604h96v-596q0 -53 31 -96q33 -39 86 -39q55 0 115 53q57 57 57 111v567h94v-721h596v502q-178 31 -280 133q-59 59 -92 135t-33 164q0 160 109.5 274.5t269.5 114.5q86 0 152.5 -66.5t66.5 -154.5q0 -82 -47.5 -144.5t-126.5 -62.5q-88 0 -148.5 47t-73.5 133 q0 68 15 99l18 30q-145 -96 -145 -272q0 -152 123 -256q53 -45 131 -70l61 -14v129h96v-817h-786v86q-37 -37 -72 -57q-12 -4 -42.5 -15.5t-53.5 -11.5q-86 0 -151.5 62.5t-65.5 148.5zM1083 1186q0 -47 36 -80t85 -33q45 0 75 38t30 85q0 55 -35 93t-90 38q-49 0 -75 -44 t-26 -97z" />
<glyph unicode="&#xc3;" horiz-adv-x="927" d="M133 0v817h356q-70 35 -129 133q-47 78 -47 152q0 131 90.5 219t221.5 88q117 0 192.5 -56t75.5 -171q0 -86 -49 -146.5t-135 -60.5q-88 0 -146.5 57.5t-58.5 145.5q0 84 61 149q-160 -74 -159 -229q0 -100 102 -197q74 -72 121 -84h245v-96h-239v-721h-96v721h-310v-721 h-96zM590 1180q0 -51 30.5 -90t84.5 -39q47 0 77 45q25 37 25 90q0 47 -31 89t-78 42q-45 0 -76.5 -44t-31.5 -93z" />
<glyph unicode="&#xc4;" horiz-adv-x="1443" d="M90 369q0 184 118 316t302 132q137 0 233.5 -71.5t96.5 -204.5v-314q0 -143 131 -143q217 0 217 356q0 96 -37 189.5t-113 148.5q-201 139 -200 316q0 115 94 188.5t211 73.5t194.5 -50t77.5 -161q0 -84 -41 -137q-43 -61 -125 -62q-59 0 -133 38t-80 99l-4 78 q0 55 47 111q-53 -12 -96 -51q-57 -47 -57 -121l-2 -31q0 -68 49 -129q33 -35 139 -117q84 -61 133 -166.5t49 -232.5q0 -176 -73 -293q-88 -131 -254 -131q-100 0 -162 60.5t-62 160.5v314q0 78 -66.5 138t-148.5 60q-145 0 -246.5 -115.5t-101.5 -261.5q0 -61 16.5 -106 t67.5 -109l-12 47l-8 56q0 74 59 130t135 56q90 0 141.5 -69.5t51.5 -159.5q0 -88 -62 -148q-61 -55 -151 -55q-152 0 -240 106.5t-88 264.5zM319 221q0 -139 107 -139q119 0 119 125q0 57 -29 100t-80 43q-49 0 -83 -40t-34 -89zM1122 1139q0 -106 111 -107q96 1 96 107 q0 49 -33 84q-16 16 -34.5 24t-47.5 8q-92 -12 -92 -116z" />
<glyph unicode="&#xc5;" horiz-adv-x="1597" d="M90 375q0 190 141.5 321t329.5 131q182 0 314.5 -128t132.5 -314q0 -176 -72 -289h438v508q-115 0 -166 23q-143 57 -213 219q-39 98 -39 180q0 154 109 263.5t262 109.5q88 0 156.5 -64.5t68.5 -154.5q0 -78 -50 -137.5t-126 -59.5q-150 0 -202 102q-12 31 -19 74l-2 25 q0 29 7 48t22 40q-135 -96 -135 -254q0 -102 56 -190.5t152 -125.5q31 -6 57.5 -10t61.5 -4v129h96v-817h-657v66q61 68 80.5 140.5t19.5 170.5q0 150 -100 259t-250 109q-158 0 -270.5 -106.5t-112.5 -263.5q0 -131 107 -244q-23 51 -23 102q0 94 67.5 162t166.5 68 q100 0 166.5 -76t66.5 -180q0 -96 -73.5 -160.5t-170.5 -64.5q-168 0 -282.5 111.5t-114.5 281.5zM342 215q0 -57 44 -101t106 -44q66 0 108.5 40.5t42.5 106.5q0 59 -44 111.5t-105 52.5t-109 -49q-43 -49 -43 -117zM1241 1178q0 -49 37 -80t86 -31q43 0 74.5 34t31.5 79 q0 55 -43 93t-96 38q-43 0 -66.5 -44t-23.5 -89z" />
<glyph unicode="&#xc6;" horiz-adv-x="1337" d="M119 0v817h98v-721h397v508q0 92 62 160q47 49 125 72q-119 106 -119 256q0 137 91 222t226 85q129 0 203 -68q64 -64 64 -160q0 -88 -49.5 -147t-133.5 -59q-88 0 -146 57t-58 145q0 72 61 146q-166 -59 -166 -223q0 -96 62 -175q37 -45 98 -73q135 -41 227 -205 q84 -150 84 -303q0 -70 -10 -118t-37 -93q-72 -123 -240 -123h-245q12 -59 53 -92l47 -31q16 -6 26.5 -8t37.5 -2h213v-94h-150q-94 0 -195 -131q-63 -84 -102 -115q-74 -55 -209 -55q-307 0 -307 217q0 80 61 145q63 59 148 60h172v-93h-164q-43 0 -82 -31.5t-39 -76.5 q0 -80 74 -115q51 -20 131 -20q96 0 162 49l90 102l45 45l51 43q-41 12 -86 54.5t-63 87.5q-10 27 -11 61h-497zM711 96h252q84 0 135 64q49 55 49 143q0 156 -66 289q-80 170 -219 170q-61 0 -106 -45t-45 -111v-510zM969 1169q0 -53 29.5 -89t80.5 -36q97 1 97 132 q0 49 -25 85.5t-72 36.5q-49 0 -79.5 -37.5t-30.5 -91.5z" />
<glyph unicode="&#xc7;" horiz-adv-x="1632" d="M98 383q0 170 122 303t292 133q66 0 112 -10t87 -37q35 -20 96 -94v139h356q-66 41 -108 107q-45 78 -45 176q0 125 97 216t222 91q117 0 191.5 -56t74.5 -171q0 -88 -49 -147.5t-133 -59.5q-88 0 -149 55q-57 57 -58 148q0 59 62 149q-63 -23 -111 -78q-55 -66 -55 -147 q0 -86 55 -166q68 -98 137 -117h226v-96h-220v-721h-96v721h-301v-721h-96v494q-25 106 -105.5 173.5t-193.5 67.5q-135 0 -227.5 -112.5t-92.5 -251.5q0 -129 101 -232q-14 51 -15 107q0 80 61.5 146.5t143.5 66.5q90 0 147.5 -67.5t57.5 -162.5l-2 -28q0 -86 -68 -154 q-61 -57 -153 -57q-160 0 -261.5 114.5t-101.5 278.5zM354 231q0 -59 28 -111t85 -52q55 0 91 51t36 110q0 53 -29.5 101.5t-85.5 48.5q-53 0 -89 -45t-36 -103zM1294 1178q0 -51 31 -90t84 -39q100 0 100 135q0 45 -30.5 87t-77.5 42t-77 -42t-30 -93z" />
<glyph unicode="&#xc8;" horiz-adv-x="1130" d="M55 -289q0 74 54.5 125t144.5 51h317q166 0 263 164q80 135 79 318q0 125 -41 225q-53 139 -157 139q-61 0 -103 -47q-20 -23 -30.5 -47.5t-10.5 -58.5v-580h-96v586q0 57 -39 100t-90 43q-127 0 -127 -145v-584h-98v590q0 96 65.5 161.5t161.5 65.5q47 0 99.5 -27.5 t76.5 -68.5q4 10 23 27l35 30q6 4 27.5 14.5t47.5 20.5q-35 20 -84 88q-61 92 -61 191q0 129 90 217q47 45 102.5 67.5t126.5 22.5q117 0 192 -56.5t75 -171.5q0 -88 -49.5 -147t-133.5 -59q-88 0 -149 55q-57 57 -57 147q0 35 16 77t43 69q-164 -78 -164 -223 q0 -92 55.5 -172t143.5 -107l45 -29q35 -23 55 -57q59 -84 82 -162q8 -35 14.5 -82t6.5 -98q0 -219 -105 -389q-125 -199 -330 -199h-282q-63 0 -93 -14t-46 -74q-10 -53 47 -88l-82 -47q-25 25 -40.5 62.5t-19.5 76.5zM797 1169q0 -49 31.5 -85.5t84.5 -36.5q45 0 74 43 q23 35 23 86q0 49 -29 89t-78 40q-43 0 -74.5 -44t-31.5 -92z" />
<glyph unicode="&#xc9;" horiz-adv-x="1796" d="M98 360q0 203 168 338q158 123 367 123q123 0 237 -39q70 -23 105 -51l45 35l49 25q12 10 100 22l31 4h125q-156 94 -156 279q0 131 93.5 221t224.5 90q119 0 194.5 -56t75.5 -169q0 -86 -50 -145.5t-138 -59.5q-94 0 -149.5 54t-55.5 147q0 53 37 112l37 41 q-51 -20 -90 -49q-90 -72 -91 -190q0 -119 101 -211q29 -27 100 -64h180v-96h-161v-721h-97v721h-178l-43 -2q-29 0 -51 -10q-31 -6 -57 -27l-13 -10l68 -105q68 -129 68 -258q0 -104 -46 -203q-55 -123 -147 -122q-92 0 -152 122q-41 98 -41 207q0 219 132 351 q-119 72 -281 71q-178 0 -311 -102q-141 -111 -142 -285q0 -29 6.5 -58.5t26 -72.5t53.5 -88q-18 49 -18 96q0 90 61.5 162t155.5 72q100 0 163.5 -76t63.5 -180q0 -98 -67 -166q-68 -63 -166 -64q-154 0 -260.5 115t-106.5 272zM330 223q0 -61 36.5 -115.5t98.5 -54.5 q63 0 104 47t41 113q0 68 -36.5 117t-102.5 49q-59 0 -100 -47t-41 -109zM877 315q0 -76 20 -149q29 -104 84 -105q45 0 78 107q22 84 22 145q0 102 -49 201l-49 96q-14 -20 -29 -43q-4 -6 -24 -45q-53 -113 -53 -207zM1446 1180q0 -53 33.5 -91t85.5 -38q49 0 80 45 q24 37 24 90q0 49 -30.5 91t-79.5 42q-47 0 -80 -45t-33 -94z" />
<glyph unicode="&#xca;" horiz-adv-x="1832" d="M86 389q0 176 116.5 303t295.5 127q182 0 276 -100l41 -55q10 61 66.5 106t117.5 45q72 0 140 -49q63 -51 63 -123v-397q0 -55 41 -109q43 -49 98 -55l29 -2q47 0 85 23.5t69 74.5q57 102 57 242q0 66 -12.5 120t-40.5 103q-35 59 -130 144t-128 137q-61 92 -62 178 q0 137 90.5 222t229.5 85q111 0 188.5 -59t77.5 -168q0 -88 -49 -147.5t-133 -59.5t-146 55q-57 57 -57 148q0 84 68 151q-39 -6 -54 -16q-55 -16 -75 -53l-35 -60q-18 -43 -19 -104q0 -86 97 -176q152 -141 182 -181q98 -135 98 -327q0 -170 -72 -283q-41 -66 -97 -97.5 t-128 -31.5l-31 2q-86 0 -161.5 76t-75.5 180v358q0 109 -98 109q-61 0 -101 -66q-29 -53 -28 -122v-537h-97v535q0 78 -104 143q-96 57 -180 57q-147 0 -235.5 -97t-88.5 -251q0 -147 129 -256q-33 45 -33 117q0 92 51.5 156.5t143.5 64.5q96 0 151.5 -66.5t55.5 -166.5 l-6 -60q-12 -74 -60 -117q-47 -47 -143 -57l-33 -2q-135 0 -239.5 119t-104.5 270zM346 254q0 -176 115 -176q53 0 90 43q16 29 24.5 52t8.5 54q0 162 -119 162q-51 0 -85 -42t-34 -93zM1493 1180q0 -51 30.5 -90t84.5 -39q100 0 100 135q0 45 -30.5 87t-78.5 42 q-49 0 -77.5 -41t-28.5 -94z" />
<glyph unicode="&#xcb;" horiz-adv-x="1406" d="M100 -201q0 135 93.5 243t230.5 108h518q117 0 199 92t82 211q0 109 -59.5 195.5t-166.5 86.5q-78 0 -147.5 -66.5t-69.5 -146.5v-305h-96v299q0 104 -64.5 161.5t-170.5 57.5q-127 0 -207 -92q-23 -25 -49 -94l32 26q47 29 99 29q209 0 208 -203q0 -84 -61 -143 q-63 -53 -152 -53q-96 0 -163 86q-55 78 -56 182q0 139 105.5 241.5t247.5 102.5q178 0 284 -145l49 57q39 47 140 78q-53 35 -97 100q-37 66 -36 144q0 129 78.5 217t218.5 88q119 0 190.5 -56.5t71.5 -169.5q0 -86 -48.5 -146t-129.5 -60q-84 0 -146 55q-57 57 -57 147 q0 88 59 148q-145 -55 -145 -221q0 -76 53 -148q55 -68 127 -88q248 -96 248 -368q0 -156 -102.5 -276t-260.5 -120h-524q-98 0 -168 -71q-66 -76 -65 -183q0 -100 59 -172q61 -80 158 -80q125 0 295 246q145 213 335 213h25l25 -4q115 -18 182 -100q57 -76 57 -160 q0 -121 -58.5 -202t-178.5 -81q-119 0 -185.5 73t-66.5 194q0 12 8 24t31 19q20 0 34 -15l11 -33l-2 -24q0 -63 38.5 -110.5t110.5 -47.5l23 2q145 12 145 201q0 68 -50 124t-118 56q-182 0 -311 -205q-158 -256 -344 -256q-135 0 -228 101q-45 51 -66.5 108.5t-21.5 128.5z M203 401q0 -49 34.5 -83.5t84.5 -34.5q49 0 86.5 31.5t37.5 84.5t-32.5 92t-85.5 39q-51 0 -90 -38q-35 -39 -35 -91zM1057 1128q0 -131 112 -131q99 1 99 138q0 51 -29 89t-76 38q-49 0 -77.5 -41t-28.5 -93z" />
<glyph unicode="&#xcc;" horiz-adv-x="1908" d="M92 365q0 186 130 320t317 134q188 0 315 -145q121 -137 121 -328q0 -78 -37 -162q-12 -29 -55 -88h565v172l-23 -2q-106 0 -208 49q-147 72 -148 220q0 190 176 266q-43 25 -104.5 117t-61.5 194q0 137 91.5 222t226.5 85q117 0 191.5 -57t74.5 -170q0 -86 -48 -147.5 t-132 -61.5q-90 0 -148.5 57.5t-58.5 147.5q0 84 63 147q-168 -68 -168 -225q0 -96 86 -205q59 -72 109 -96q68 -12 120 -70.5t52 -140.5v-227l49 14q16 4 45 27q43 23 84 94h88v-506h-266v-418h-90v418h-696v59q45 45 79 107q51 96 52 178q0 160 -86 270q-92 117 -252 117 q-147 0 -254 -118.5t-107 -266.5q0 -121 113 -225l-18 37q-8 25 -17 69q0 76 47 142q63 88 174 88q100 0 162 -75t62 -181q0 -92 -62.5 -154.5t-157.5 -62.5q-158 0 -276.5 110.5t-118.5 270.5zM346 215q0 -59 37 -104t96 -45q53 0 93 44t40 97q6 61 -29.5 115.5t-99.5 54.5 q-59 0 -98 -51.5t-39 -110.5zM1161 539q0 -98 103 -152q72 -37 157 -37q21 0 27 4v246q0 125 -125 125q-72 0 -119 -55q-43 -55 -43 -131zM1364 1186q0 -49 31 -90q31 -35 86 -35q98 0 98 135q0 49 -31.5 91t-81.5 42q-45 0 -75 -51q-6 -8 -16.5 -37t-10.5 -55zM1538 96h178 v273q-39 -33 -88 -56l-39 -18l-51 -12v-187z" />
<glyph unicode="&#xcd;" horiz-adv-x="2201" d="M90 375q0 190 141.5 321t329.5 131q182 0 314.5 -128t132.5 -314q0 -131 -35 -219q-6 -27 -37 -70h285v502q0 221 194 221q109 0 160 -102q10 27 22 37l29 26l37 21q25 12 59 12q-184 102 -184 291q0 129 82 218t213 89q119 0 203 -56t84 -171q0 -80 -48.5 -143.5 t-129.5 -63.5q-86 0 -143.5 56.5t-57.5 146.5t63 153q-80 -25 -130 -84t-50 -139q0 -82 60.5 -165t142.5 -111q31 -10 56.5 -21.5t37.5 -19.5q98 -59 154 -187q37 -86 36 -217q0 -227 -129 -409q-143 -199 -366 -199h-1145q-59 0 -70 -4q-57 -12 -57 -70q0 -72 55 -113 l-67 -57q-43 35 -60.5 81t-17.5 81q0 109 108 158q20 8 111 20h1143q180 0 295 158q106 150 106 342q0 66 -12 123t-41 112q-66 133 -182 133q-78 0 -127 -61q-37 -47 -37 -94v-590h-96v598q0 53 -29 95t-80 42q-96 0 -96 -143v-592h-514v59q111 121 110 318 q0 154 -99 262.5t-253 108.5t-267.5 -109t-113.5 -264q0 -129 70 -219q18 -23 72 -60l-27 35q-29 53 -29 105q0 92 67.5 159.5t160.5 67.5q100 0 168.5 -75t68.5 -181q0 -96 -73.5 -160.5t-170.5 -64.5q-168 0 -282.5 111.5t-114.5 281.5zM344 215q0 -57 44 -103t101 -46 q61 0 107.5 40t46.5 103q0 74 -39 126t-110 52q-96 0 -140 -106q-10 -31 -10 -66zM1821 1182q0 -51 31.5 -91t82.5 -40q47 0 76 43t29 88q0 49 -32 93t-83 44q-41 0 -72.5 -44t-31.5 -93z" />
<glyph unicode="&#xce;" horiz-adv-x="2455" d="M80 274q0 150 205 187v356h676v-96h-265v-260h158q35 43 68 69q94 72 215 72q145 0 243 -117q82 -100 82 -202t-39 -187h508v150l-39 -4q-125 0 -225 51q-152 80 -151 252q0 113 96 200q20 18 98 64q-74 49 -119 125q-20 39 -32.5 85t-12.5 97q0 115 101 213 q51 47 106 70.5t117 23.5q117 0 191.5 -56t74.5 -171q0 -84 -49 -149q-49 -59 -135 -60q-90 0 -146.5 56.5t-56.5 148.5q0 49 31 108l30 41q-55 -23 -86 -51q-86 -74 -86 -180q0 -115 86 -211q63 -70 142 -88q27 -6 50 -18.5t48 -40.5q57 -63 57 -134v-270q57 12 119 49 l60 52q14 10 53 67h86v-516h-318v-418h-90v418h-651v61q90 78 90 226q0 82 -70.5 156.5t-158.5 74.5q-86 0 -140 -33q-16 -10 -36 -32l59 -31q133 -86 133 -217q0 -90 -45 -147.5t-133 -57.5q-80 0 -132 76t-52 162v28l8 53q0 23 10 46h-117v-132q0 -109 -92 -176 q-82 -57 -196 -57q-131 0 -229.5 71.5t-98.5 202.5zM174 266q0 -78 76 -133q68 -49 151 -49q74 0 136.5 34.5t62.5 104.5v142h-315q-43 0 -77 -28t-34 -71zM381 461h219v260h-219v-260zM887 254q0 -57 22.5 -113.5t73.5 -56.5q33 0 56.5 39t23.5 84q0 92 -102 149l-48 21 l-12 -37q-14 -51 -14 -86zM1608 543q0 -119 94 -174q72 -39 164 -39q49 0 61 6v272q0 55 -39 93t-94 38q-80 0 -133 -58t-53 -138zM1835 1194q0 -55 30.5 -92t84.5 -37q47 0 73.5 42t26.5 93q0 45 -31.5 89t-76.5 44q-43 0 -75 -44t-32 -95zM2021 96h226v277l-49 -43 l-58 -33q-41 -23 -119 -39v-162z" />
<glyph unicode="&#xcf;" horiz-adv-x="1517" d="M92 176q0 190 91 364.5t257 256.5l45 -78q-143 -68 -223 -225q-33 -68 -51 -148t-18 -166q0 -233 167 -395q86 -82 186.5 -122t221.5 -40q238 0 391 117q166 127 166 362q0 96 -66.5 179.5t-162.5 83.5h-74v-132q0 -37 -12 -73q-55 -160 -271 -160q-127 0 -217 75 t-90 201q0 57 37 104.5t94 65.5l66 15v356h645v-96h-252v-260h80q137 0 228 -113t91 -244q0 -281 -192 -430q-172 -135 -463 -135q-270 0 -472 183.5t-202 453.5zM526 272q0 -84 62 -137q61 -49 149 -49q92 0 144 45q31 24 45 102v132h-301l-50 -13q-49 -23 -49 -80z M725 461h201v260h-201v-260z" />
<glyph unicode="&#xd0;" horiz-adv-x="1417" d="M125 0v817h731v-96h-285v-270l25 16q61 39 137 39q100 0 169 -64.5t69 -162.5q0 -109 -76 -183h305v721h96v-1241h-96v424h-725v96h297l51 51q51 63 51 129q0 55 -43 98.5t-98 43.5q-84 0 -131 -47q-12 -12 -31 -49v-140h-96v539h-254v-721h-96z" />
<glyph unicode="&#xd1;" horiz-adv-x="1148" d="M98 266q0 115 101 166q10 4 41.5 13.5t58.5 15.5v356h647v-96h-239v-260h397v-96h-113v-365h-96v365h-188v-132q0 -109 -85 -171t-198 -62q-135 0 -225 63q-100 72 -101 203zM195 264q0 -80 71 -133q63 -45 150 -45q76 0 129 33q65 40 65 110v136h-309q-106 0 -106 -101z M395 461h215v260h-215v-260z" />
<glyph unicode="&#xd2;" horiz-adv-x="1787" d="M90 358q0 190 144.5 324.5t336.5 134.5h777v-96h-318v-291l62 37q27 10 67 10q209 0 264 -213q14 -68 15 -139q0 -72 -25 -152l-24 -75h190v919h96v-1016h-334q-90 -127 -190 -200q-156 -109 -389 -109q-236 0 -432 70q-238 84 -238 227q0 37 43 78q43 31 117 31h1032 l27 77q29 86 28 146q0 102 -36 176q-47 92 -142 92q-78 0 -131 -90v-299h-96v721h-379q-150 0 -263.5 -103.5t-113.5 -255.5q0 -86 58 -163q18 -25 57 -58l-10 29l-11 80q0 90 62.5 154.5t154.5 64.5q98 0 160 -70q33 -37 46.5 -76.5t13.5 -89.5l-2 -24q0 -47 -17.5 -81 t-56.5 -71q-63 -57 -158 -57q-156 0 -270.5 102.5t-114.5 255.5zM188 -233q0 -74 218 -138q166 -49 356 -49q184 0 313 84q62 37 156 137h-963q-80 0 -80 -34zM354 233q0 -61 35 -104t94 -43q61 0 98 40t37 103q0 57 -35.5 106.5t-93.5 49.5q-55 0 -95 -48t-40 -104z" />
<glyph unicode="&#xd3;" horiz-adv-x="1429" d="M90 367q0 322 139 569q166 301 465 301q293 0 471 -248q154 -219 154 -528v-461h-96v451q0 258 -125 458q-150 236 -404 236q-248 0 -389 -281q-113 -229 -112 -499q0 -252 104 -449q127 -240 360 -240q172 0 279 146q94 131 94 309q0 84 -43 158q-49 84 -131 84 q-68 0 -115 -39q-57 -47 -59 -78v-256h-96v817h96v-418q76 59 172 60q129 0 205 -101q66 -90 65 -225q0 -225 -118 -377q-129 -164 -351 -164q-276 0 -432 261q-133 223 -133 514z" />
<glyph unicode="&#xd4;" horiz-adv-x="2402" d="M100 350q0 207 156 341t362 134q137 0 248 -55l45 -29q72 53 174 76l66 6q141 0 250 -75q80 55 172 65l26 2h23q184 0 297 -149q104 -135 104 -328q0 -285 -176 -440h344v919h99v-1016h-521q-319 -307 -938 -307q-238 0 -444 84q-244 96 -244 229q0 37 35 64 q10 6 35 16.5t55 10.5h1446q94 55 156 198q55 127 55 250q0 72 -16.5 131.5t-55.5 124.5q-88 137 -215 137l-36 -4l-74 -20l-60 -31q55 -55 91 -154.5t36 -185.5q0 -104 -43 -209q-53 -131 -145 -131q-94 0 -156 129q-49 104 -49 211q0 217 127 344q-84 51 -184 51 q-72 0 -129 -28l-39 -25q123 -135 123 -348q0 -111 -39 -207q-49 -127 -143 -127q-98 0 -150 121q-39 94 -39 203q0 223 125 354q-106 59 -199 59h-24q-178 0 -314 -120q-70 -61 -103.5 -130t-33.5 -145l4 -61q6 -37 52 -109l28 -35q-18 41 -18 103q0 86 56 154.5t144 68.5 t148 -80q49 -72 49 -166q0 -92 -59.5 -156.5t-153.5 -64.5q-141 0 -235.5 104.5t-94.5 245.5zM248 -219q0 -49 160 -117q190 -80 417 -80q117 0 231.5 14.5t227.5 45.5q235 61 346 157h-1343q-37 0 -39 -20zM319 233q0 -147 113 -147q59 0 92 45q10 16 21.5 41t11.5 66 q0 53 -31.5 99t-85.5 46q-53 0 -90 -45q-31 -43 -31 -105zM813 326q0 -47 6 -86t23 -82q29 -76 73 -76q45 0 76 106q23 81 23 144q0 109 -49 200l-50 91l-51 -88q-51 -115 -51 -209zM1292 340q0 -70 27 -150q31 -106 86 -106q47 0 78 111q10 37 16 74.5t6 74.5 q0 53 -12 104.5t-41 104.5q-18 35 -55 80l-51 -82q-53 -106 -54 -211z" />
<glyph unicode="&#xd5;" horiz-adv-x="1454" d="M16 -217q0 55 44 85t100 30h784q41 63 41 198v29l-4 29q-18 145 -98 188q-45 23 -183 23v-132q0 -111 -85 -172t-195 -61q-129 0 -227.5 71.5t-98.5 200.5q0 78 64 129q49 43 135 60v356h620v-96h-213v-260q180 0 246 -39t99.5 -104.5t33.5 -159.5l2 -54q0 -68 -6 -114.5 t-24 -91.5h184v919h96v-1016h-317q-86 -156 -213 -221q-59 -31 -134 -47t-169 -16q-135 0 -283 55q-199 74 -199 211zM109 -227q0 -53 88 -105q113 -66 288 -65q287 -1 422 198h-741q-51 0 -57 -28zM188 262q0 -80 72 -133q63 -45 150 -45q76 0 135 36.5t59 108.5v136h-309 q-45 0 -76 -29t-31 -74zM389 461h215v260h-215v-260z" />
<glyph unicode="&#xd6;" horiz-adv-x="1411" d="M8 -211q0 51 43 82q47 27 113 27h743q27 43 39 110l8 148q0 63 -7 104t-29 88q-47 98 -158 98q-53 0 -115 -49q-55 -49 -55 -106v-291h-96v721h-242v-721h-96v817h706v-96h-272v-260q43 55 121 69l59 5q141 0 217 -127q31 -53 47.5 -116t16.5 -140v-89q0 -23 -9.5 -62.5 t-29.5 -102.5h186v919h96v-1016h-325q-49 -106 -168 -186q-72 -49 -161 -74.5t-191 -25.5q-135 0 -275 69q-166 84 -166 205zM98 -221q0 -39 88 -101q115 -76 260 -75q78 0 139.5 14t127.5 51q104 55 149 133h-719q-43 0 -45 -22z" />
<glyph unicode="&#xd7;" horiz-adv-x="1189" d="M111 0v817h96v-721h766v721h96v-1288h-96v471h-862z" />
<glyph unicode="&#xd8;" horiz-adv-x="1837" d="M98 123q0 227 84 407q92 203 275 304l55 -72q-152 -80 -242 -277q-74 -164 -73 -342q0 -209 133 -379q143 -180 350 -180q182 0 313 119t131 297h-489v817h96v-721h393v504q0 100 61.5 172t164.5 72q176 0 290 -176q103 -156 103 -342q0 -121 -49 -207 q-70 -119 -234 -119h-237q0 -233 -160 -375q-150 -133 -389 -133q-233 0 -410 201q-166 190 -166 430zM1221 96h252q78 0 129 66q45 57 45 139q0 143 -74 289q-86 170 -219 170q-55 0 -94 -51.5t-39 -112.5v-500z" />
<glyph unicode="&#xd9;" horiz-adv-x="1382" d="M111 209v608h98v-596q0 -139 100 -139q53 0 125 55.5t72 110.5v569h96v-721h578v721h96v-1286h-96v469h-670v92l-59 -45q-63 -47 -134 -47q-90 0 -151 55q-55 55 -55 154z" />
<glyph unicode="&#xda;" horiz-adv-x="1599" d="M98 209q0 406 336 604l47 -72q-143 -86 -217 -231q-33 -70 -51 -146.5t-18 -158.5q0 -254 189 -433.5t447 -179.5q268 0 430 162t162 430q0 86 -56 164t-144 78l-54 -6q-37 0 -70.5 -33t-33.5 -68v-319h-96v721h-267v-721h-96v817h701v-96h-242v-252q53 35 90 43l37 2 l27 2q51 0 89 -13.5t81 -47.5q63 -59 102 -154q8 -25 14 -60.5t6 -70.5q0 -311 -177 -487.5t-492 -176.5q-295 0 -519.5 205t-224.5 498z" />
<glyph unicode="&#xdb;" horiz-adv-x="1687" d="M92 371q0 180 130 314t313 134q162 0 251 -104q61 -72 62 -146v-372q0 -49 51 -80q43 -25 98 -25q219 0 220 348q0 109 -61.5 198t-166.5 132l43 80q80 -27 164 -117q113 -125 113 -289q0 -240 -101 -348l-147 -88v-110h418v919h96v-1016h-514q-18 -111 -113 -190 q-125 -102 -344 -103q-170 0 -319 72q-170 80 -170 197q0 121 188 121h662v110q-76 0 -136 47q-78 61 -77 148v368q0 76 -70 125q-59 41 -141 41q-147 0 -253 -115.5t-106 -267.5q0 -98 68 -190l-4 51v39q0 66 63 121q68 51 137 51q80 0 139.5 -64.5t59.5 -146.5l-2 -22 q0 -78 -63.5 -135.5t-139.5 -57.5q-156 0 -252 105.5t-96 265.5zM199 -231q0 -59 135 -118t266 -59q127 0 248 68q99 57 115 141h-727q-18 0 -35 -18zM319 223q0 -57 30 -97t87 -40q121 0 121 125q0 49 -30.5 91t-82.5 42q-49 0 -81.5 -32.5t-43.5 -88.5z" />
<glyph unicode="&#xdc;" horiz-adv-x="1558" d="M90 369q0 184 141.5 321t329.5 137q184 0 315.5 -128t131.5 -316q0 -170 -72 -287h414v721h94v-1278h-94v461h-537v66q109 115 109 307q0 152 -103.5 262t-255.5 110q-156 0 -271.5 -110.5t-115.5 -265.5q0 -129 100 -230q-16 39 -16 86q0 98 69.5 168t168.5 70 q100 0 166.5 -76t66.5 -180q0 -94 -69 -162q-70 -63 -168 -63q-170 0 -287 108.5t-117 278.5zM342 215q0 -61 45 -106q45 -41 109 -41q53 0 102 43q45 45 45 104q0 70 -41 117q-37 49 -106 49q-63 0 -111 -49q-43 -49 -43 -117z" />
<glyph unicode="&#xdd;" horiz-adv-x="1828" d="M100 219q0 395 328 629l51 -64q-215 -160 -266 -389q-16 -78 -16 -174q0 -291 206.5 -489.5t499.5 -198.5q104 0 191.5 12.5t169.5 40.5q178 59 178 150q0 106 -88 106q-61 0 -97 -22q-12 -6 -24 -25v-82h-96v287h-494v817h96v-721h398v504q0 98 61.5 171t161.5 73 q176 0 285 -176q94 -154 94 -338q0 -147 -73 -238.5t-220 -91.5h-213v-98l27 10q43 12 96 12q80 0 130 -53t50 -131q0 -145 -215 -229q-166 -61 -412 -62q-326 0 -567.5 221t-241.5 549zM1233 96h211q207 1 207 230q0 145 -70 278q-80 160 -215 160q-55 0 -94 -48t-39 -110 v-510z" />
<glyph unicode="&#xde;" horiz-adv-x="2217" d="M102 340q0 154 35 268.5t123 241.5l74 -49q-137 -203 -137 -467q0 -145 59 -282.5t164 -233.5q125 -115 312.5 -182.5t367.5 -67.5q111 0 220.5 16.5t242.5 55.5q412 117 467 409l8 107q0 92 -60.5 160.5t-150.5 68.5q-109 0 -172 -88v-297h-96v721h-302v-721h-94v494 q-25 111 -107.5 175t-193.5 64q-135 0 -231 -115q-86 -104 -86 -247q0 -129 98 -232l-10 49l-6 62q0 80 62.5 142.5t139.5 62.5q92 0 152 -66q57 -70 57 -160l-2 -28q0 -86 -67 -150q-59 -55 -154 -55q-156 0 -259 113.5t-103 273.5q0 170 121.5 303t291.5 133 q127 0 197 -45q39 -27 100 -96v139h854v-96h-362v-303l31 18q70 35 151 35q127 0 210 -89t83 -216q0 -137 -38 -230.5t-132 -193.5q-115 -121 -369 -201q-221 -68 -417 -67h-39l-37 4q-444 0 -738 276q-102 96 -176 244q-82 170 -82 342zM709 231q0 -57 29.5 -105t84.5 -48 t90 47t35 104q0 53 -31.5 99.5t-82.5 46.5q-53 0 -89 -44t-36 -100z" />
<glyph unicode="&#xdf;" horiz-adv-x="1398" d="M10 -211q0 98 152 98h690q37 61 61 240q8 59 14.5 133t6.5 121q0 121 -39 219q-49 131 -154 131q-59 0 -110 -43t-51 -104v-584h-97v586q0 55 -32.5 100t-85.5 45t-91 -43q-33 -45 -32 -102v-586h-97v590q0 96 66 160q35 33 71.5 49t84.5 16q43 0 94 -31.5t78 -72.5 q37 43 79 67q55 37 119 37q141 0 224 -137q33 -57 51 -132t18 -165q0 -100 -19.5 -266t-54.5 -228h242v930h96v-1026h-379q-23 -90 -149 -178q-152 -104 -336 -105q-150 0 -272 72q-147 84 -148 209zM102 -227q0 -23 43 -72q102 -115 285 -115q131 0 258 84q94 62 127 121 l-680 6q-27 0 -33 -24z" />
<glyph unicode="&#xe0;" horiz-adv-x="1921" d="M98 348q0 193 172 338q162 137 361 137q68 0 118 -6t95 -22q43 -12 114 -64q104 92 232 92q166 0 272 -155q92 -135 92 -312q0 -143 -45 -297q-37 -125 -69 -172h268v930h96v-1026h-411q-78 -102 -234 -180q-182 -88 -422 -88q-190 0 -381 63q-240 78 -239 199 q0 47 56 74.5t122 27.5h1038q53 61 90 213t37 248q0 139 -61 254q-74 135 -207 135q-86 0 -168 -75q139 -123 139 -347q0 -106 -39 -198q-49 -117 -145 -117t-154 115q-47 94 -47 200q0 227 121 349q-113 72 -229 71h-39q-164 0 -303.5 -117.5t-139.5 -277.5q0 -68 27 -119 l37 -51q-6 18 -6 70v22l4 21q12 63 67.5 118.5t145.5 55.5q106 0 166 -72q61 -68 61 -176q0 -86 -66.5 -146.5t-156.5 -60.5q-162 0 -265.5 93t-103.5 253zM215 -233q0 -31 166 -93q92 -33 179 -49t175 -16q182 0 344 65q129 49 197 117h-1012q-49 0 -49 -24zM330 223 q0 -57 37 -100q39 -39 98 -39q57 0 99 37t42 98t-39 107.5t-100 46.5q-59 0 -98 -45t-39 -105zM868 315q0 -86 29 -158.5t78 -72.5q41 0 72 96q16 53 19 74.5t3 58.5q0 31 -6 67t-23 89q-37 115 -77 121q-37 0 -66 -114t-29 -161z" />
<glyph unicode="&#xe1;" horiz-adv-x="1808" d="M100 270q0 76 66 133q57 45 141 58v356h699v-96h-310v-260h205l33 41q80 80 201 80q125 0 204.5 -96.5t79.5 -223.5q0 -94 -55 -166h416v-96h-549v74q98 66 98 200q0 82 -56 155t-138 73q-51 0 -101 -25l-35 -26q45 -29 70 -54q72 -76 72 -180q0 -82 -33 -141 q-41 -76 -115 -76q-80 0 -129 80q-41 70 -41 153q0 90 29 132h-156v-132q0 -104 -88 -172q-80 -61 -188 -61q-125 0 -217 72q-102 78 -103 198zM190 268q0 -74 68 -133q70 -53 150 -53q192 0 192 141v142h-297q-43 0 -78 -26t-35 -71zM403 461h197v260h-197v-260zM905 221 q0 -47 19.5 -93t58.5 -46q37 0 57 76l9 65q0 80 -50 123l-49 27l-22 -41q-23 -57 -23 -111z" />
<glyph unicode="&#xe2;" horiz-adv-x="1667" d="M106 -246q0 84 154 121q41 8 105.5 14.5t134.5 6.5q86 0 166 -23q61 -16 129 -49l-41 -84l-129 47q-63 23 -131 23l-160 -3q-59 0 -92 -16t-33 -45q0 -74 209 -123q182 -41 364 -41q256 0 486 96q256 104 256 261q0 74 -58 106l-39 8q-104 0 -131 -84v-149h-96v180h-735 v96h266l45 13q104 43 105 161q0 59 -45 104.5t-103 45.5q-82 0 -129 -47q-10 -8 -35 -47v-152h-96v547h-254v-721h-96v817h731v-96h-285v-281l37 31q53 31 125 31q98 0 167 -64.5t69 -161.5q0 -100 -74 -180h307v721h96v-717q31 25 64 31l84 8q80 0 126 -56t46 -140 q0 -197 -281 -328q-250 -117 -555 -117q-674 0 -674 256z" />
<glyph unicode="&#xe3;" horiz-adv-x="1630" d="M106 178q0 418 306 635l59 -68q-270 -184 -270 -557q0 -258 233 -436q205 -156 424 -155q236 0 397 90q201 111 201 327q0 66 -31 119q-37 61 -100 62q-84 0 -131 -80v-115h-96v365h-103v-132q0 -109 -92 -176q-82 -57 -196 -57q-129 0 -222.5 72.5t-93.5 201.5 q0 145 197 187v356h676v-96h-269v-260h379v-96h-180v-125l63 28l72 8q92 0 155.5 -84t63.5 -180q0 -252 -223 -389q-188 -113 -463 -112q-268 0 -502 178q-254 199 -254 489zM481 266q0 -78 70 -133q70 -51 149 -51q82 0 140.5 36.5t58.5 112.5v134h-307q-43 0 -77 -28 t-34 -71zM684 461h215v260h-215v-260z" />
<glyph unicode="&#xe4;" horiz-adv-x="2207" d="M100 358q0 190 144.5 324.5t337.5 134.5h776v-96h-316v-291q63 47 136 47q135 0 208 -98q63 -88 64 -229v-33l-2 -19q0 -57 -13.5 -119.5t-37.5 -91.5h211v930h569v-96h-141v-930h-97v930h-235v-930h-354q-219 -305 -619 -305q-217 0 -422 82t-205 201q0 59 68 94 q53 25 123 24h995q31 39 45 103l13 92l6 82q0 55 -7.5 86t-31.5 69q-45 70 -131 70q-88 0 -142 -90v-299h-96v721h-371q-156 0 -270.5 -105.5t-114.5 -259.5q0 -100 64 -163l49 -48l-16 50l-8 55q0 88 68.5 153.5t158.5 65.5q92 0 156 -70q33 -37 46 -76.5t13 -89.5l-2 -24 q0 -86 -60 -141q-53 -55 -153 -66l-33 -2q-68 0 -130 23.5t-126 78.5q-117 102 -117 256zM197 -238q0 -49 172 -119.5t358 -70.5q309 0 514 219h-960q-82 0 -84 -29zM367 233q0 -59 37.5 -105t97.5 -46q55 0 92 43t37 104q0 55 -36 106.5t-93 51.5q-55 0 -95 -48t-40 -106z " />
<glyph unicode="&#xe5;" horiz-adv-x="1288" d="M100 358q0 307 187 568q207 287 504 286q160 0 294 -79q156 -94 156 -246q0 -92 -50 -151.5t-140 -59.5q-92 0 -152 53q-55 55 -55 143q0 102 78 162q39 29 92 35l24 2l-63 29q-90 29 -184 28q-244 0 -429 -245q-170 -231 -169 -537q0 -244 126 -436q145 -223 361 -223 q164 0 274 143q94 131 95 303q0 80 -39 152q-47 88 -119 88q-88 0 -133 -58q-10 -12 -25 -57v-258h-96v817h96v-409q70 51 154 51q115 0 188 -107q61 -92 62 -217q0 -217 -115 -364q-127 -166 -336 -166q-272 0 -440 248q-145 217 -146 505zM926 870q0 -53 35.5 -86.5 t87.5 -33.5q110 0 110 135q0 113 -121 112q-47 0 -82 -36q-31 -37 -30 -91z" />
<glyph unicode="&#xe6;" horiz-adv-x="2791" d="M102 350q0 207 156 341t363 134q137 0 247 -55l45 -29q72 53 174 76l66 6q141 0 250 -75q80 55 172 65l27 2h22q180 0 295 -147q53 -72 79.5 -151t26.5 -179q0 -270 -182 -440h348v919h574v-96h-139v-920h-97v920h-241v-920h-516q-317 -305 -938 -305q-231 0 -445 82 q-244 92 -244 229q0 37 35 64q10 6 35 16.5t55 10.5h1446q96 59 157.5 194t61.5 254q0 141 -73 258q-86 135 -222 135l-36 -4l-74 -20l-60 -31q55 -55 91 -154.5t36 -185.5q0 -104 -43 -209q-53 -131 -145 -131q-94 0 -156 129q-49 104 -49 211q0 217 127 344 q-84 51 -184 51q-72 0 -129 -28l-39 -25q123 -135 123 -348q0 -111 -39 -207q-49 -127 -143 -127q-98 0 -150 121q-39 94 -39 203q0 223 125 354q-106 59 -199 59h-24q-178 0 -314 -120q-70 -61 -103.5 -130t-33.5 -145l4 -61q6 -37 52 -109l28 -35q-18 41 -18 103 q0 86 56 154.5t145 68.5q88 0 147 -80q49 -72 49 -166q0 -92 -59.5 -156.5t-153.5 -64.5q-141 0 -235.5 104.5t-94.5 245.5zM250 -219q0 -49 158 -113q193 -76 413 -76q219 0 424 46q250 54 387 163h-1343q-37 0 -39 -20zM322 233q0 -147 112 -147q59 0 92 45q10 16 21.5 41 t11.5 66q0 53 -31.5 99t-85.5 46q-53 0 -90 -45q-31 -43 -30 -105zM815 326q0 -47 6 -86t23 -82q29 -76 74 -76t75 106q23 81 23 144q0 109 -49 200l-49 91l-52 -88q-51 -115 -51 -209zM1294 340q0 -70 27 -150q31 -106 86 -106q47 0 78 111q10 37 16 74.5t6 74.5 q0 53 -12 104.5t-41 104.5q-18 35 -55 80l-51 -82q-53 -106 -54 -211z" />
<glyph unicode="&#xe7;" horiz-adv-x="1814" d="M6 -221q0 47 49 82q47 27 99 26h784q10 16 17.5 44t7.5 63l8 158q0 55 -11.5 93t-39.5 66q-57 57 -224 58v-136q0 -109 -85 -171t-197 -62q-129 0 -227.5 71.5t-98.5 200.5q0 78 64 129q49 43 135 60v356h661v-96h-252v-260q178 0 260 -53q111 -70 111 -252l-6 -156v-29 q0 -16 -4 -28q-4 -35 -17 -56h170v930h570v-96h-142v-930h-96v930h-235v-930h-299q-154 -276 -557 -276q-141 0 -277 63q-168 78 -168 201zM98 -233q0 -35 86 -95q104 -68 256 -67q76 0 141.5 8t118.5 27q135 42 201 151l-768 2q-33 0 -35 -26zM182 262q0 -80 72 -133 q63 -45 149 -45q78 0 132 33q65 40 65 112v136h-311q-41 0 -74 -30t-33 -73zM383 461h217v260h-217v-260z" />
<glyph unicode="&#xe8;" horiz-adv-x="1802" d="M-2 -221q0 51 43 82q47 27 113 26h743q43 98 43 269q0 57 -8 98t-31 88q-49 104 -143 104q-55 0 -116.5 -50t-61.5 -105v-291h-97v721h-241v-721h-97v817h727v-96h-292v-260q80 74 180 74q139 0 215 -127q66 -109 65 -256q0 -172 -39 -265h187v930h569v-96h-139v-930h-96 v930h-238v-930h-326q-43 -104 -174 -190q-160 -104 -350 -105q-131 0 -272 74q-164 86 -164 209zM90 -233q0 -43 86 -105q109 -78 256 -78q117 0 238 56.5t182 150.5l-715 2q-45 0 -47 -26z" />
<glyph unicode="&#xe9;" horiz-adv-x="1439" d="M111 -254q0 88 112 131q80 29 197 29q90 0 174 -21q68 -12 137 -53l-57 -65q-20 16 -121 40l-61 13l-76 8q-29 0 -64 -1t-86 -15.5t-67 -61.5q-16 -68 127 -123q125 -47 272 -47q250 0 455 96q236 109 235 267q0 96 -98 112q-43 6 -81 -19.5t-54 -68.5v-196h-97v229h-837 v817h96v-721h741v721h97v-717q29 23 55 31l66 8q92 0 147 -56.5t55 -152.5q0 -195 -248 -319q-229 -113 -509 -113q-98 0 -172 10.5t-146 36.5q-193 68 -192 201z" />
<glyph unicode="&#xea;" horiz-adv-x="1841" d="M92 262q0 111 17.5 199t66.5 186q80 168 213 168q80 0 127 -67q31 -51 31 -130l-2 -38q0 -84 -82 -150q-70 -57 -172 -57q-43 0 -86 18l-12 -63l-5 -133q0 -113 34 -215.5t108 -202.5q147 -201 356 -201q184 0 309 118t148 306h-494v817h96v-721h394v504q0 100 62.5 172 t162.5 72q176 0 291 -176q102 -156 102 -342q0 -121 -49 -207q-70 -119 -233 -119h-240q0 -221 -162 -364.5t-385 -143.5q-225 0 -385 180.5t-197 429.5l-10 78zM211 489q2 -10 4 -12q39 -23 82 -22q90 0 145 82q23 35 23 81q0 117 -84 117q-59 0 -121 -112 q-49 -98 -49 -134zM1235 96h252q84 0 133 58q45 57 45 147q0 154 -70 291q-88 168 -227 168q-53 0 -93 -49t-40 -105v-510z" />
<glyph unicode="&#xeb;" horiz-adv-x="1718" d="M117 209v608h98v-596q0 -121 104 -139q53 -6 123 51q70 63 70 115v569h94v-721h580v721h96v-682q66 47 143 47l41 -2q80 0 134.5 -58t54.5 -138q0 -203 -285 -353q-256 -133 -551 -133q-285 0 -454 47q-242 61 -242 201q0 92 156 137q127 35 276 35l70 -2l110 -10 q145 -12 266 -78l-38 -74q-61 23 -176 50.5t-164 27.5q-86 0 -147.5 -2t-100.5 -8q-141 -18 -154 -78q-16 -74 211 -123q92 -18 188.5 -28.5t200.5 -10.5q211 0 445 94q297 117 297 293q0 104 -101 125q-10 2 -30 2q-35 0 -83.5 -20.5t-66.5 -71.5v-215h-96v211h-672v92 l-57 -47q-70 -47 -131 -47q-80 0 -146 63q-63 68 -63 148z" />
<glyph unicode="&#xec;" horiz-adv-x="1607" d="M96 221q0 195 60 361q84 233 239 233q82 0 125 -70q35 -57 35 -147q0 -88 -64.5 -147.5t-152.5 -59.5q-80 0 -139 39q-14 -43 -15 -108q0 -295 156 -496q86 -115 199.5 -176.5t255.5 -61.5l30 -2h29q248 0 410 183q154 172 153 426q0 80 -47 151q-53 80 -131 80 q-51 0 -102.5 -28.5t-51.5 -78.5v-319h-96v721h-254v-721h-96v817h719v-96h-273v-262q74 51 138 51q129 0 211 -96.5t82 -229.5q0 -309 -205 -495.5t-516 -186.5q-303 0 -501 205t-198 514zM211 537q0 -14 4 -19q41 -53 113 -53q66 0 104.5 45t38.5 111q0 92 -78 112 q-43 12 -100 -53q-82 -98 -82 -143z" />
<glyph unicode="&#xed;" horiz-adv-x="2084" d="M92 371q0 180 130 314t313 134q121 0 210 -61q102 -72 103 -189v-372q0 -49 51 -80q43 -25 98 -25q113 0 170 125q41 94 41 223q0 125 -90 234q-63 80 -137 112l53 76q84 -41 156 -127q111 -133 110 -291q0 -193 -59 -297q-47 -84 -180 -139v-121h418v930h569v-96h-139 v-930h-97v930h-237v-930h-518q-66 -137 -125 -190q-115 -102 -328 -103q-170 0 -319 72q-170 80 -170 197q0 121 188 120h662v121q-78 0 -140 43l-47 51q-27 49 -26 101v368q0 76 -70 125q-63 41 -141 41q-154 0 -256.5 -114.5t-102.5 -268.5q0 -98 68 -190l-4 51v39 q0 66 63 121q68 51 137 51q80 0 139.5 -64.5t59.5 -146.5l-2 -22q0 -78 -63.5 -135.5t-139.5 -57.5q-156 0 -252 105.5t-96 265.5zM203 -242q0 -61 133 -118q70 -29 132 -43.5t132 -14.5q176 0 287 105l67 104h-727q-25 0 -24 -33zM319 223q0 -57 30 -97t87 -40 q121 0 121 125q0 49 -30.5 91t-82.5 42q-49 0 -81.5 -32.5t-43.5 -88.5z" />
<glyph unicode="&#xee;" horiz-adv-x="1966" d="M90 369q0 184 141.5 321t329.5 137q184 0 315.5 -128t131.5 -316q0 -170 -72 -287h422v721h102v-606q51 41 123 57q16 4 47 4l84 -6q72 0 129 -100q49 -84 49 -164q0 -248 -344 -395q-285 -119 -628 -119q-285 0 -490 45q-274 59 -274 180q0 170 405 170q102 0 226 -28.5 t192 -77.5l-51 -64q-47 33 -179.5 61.5t-197.5 28.5q-137 0 -207 -10t-90 -63q-18 -47 108 -90q221 -70 558 -70q293 0 573 111q307 123 307 305q0 170 -151 200q-47 6 -105.5 -19.5t-83.5 -70.5v-301h-100v205h-547v66q109 115 109 307q0 152 -103.5 262t-255.5 110 q-156 0 -271.5 -110.5t-115.5 -265.5q0 -129 100 -230q-16 39 -16 86q0 98 69.5 168t168.5 70q100 0 166.5 -76t66.5 -180q0 -96 -70.5 -159.5t-166.5 -63.5q-170 0 -287 108.5t-117 276.5zM342 215q0 -59 43 -106q45 -41 109 -41q57 0 103 44t46 103q0 61 -42 112.5 t-107 51.5q-61 0 -109 -49q-43 -49 -43 -115z" />
<glyph unicode="&#xef;" horiz-adv-x="1818" d="M104 217q0 211 52 363q74 223 243 223q57 0 101 -55q20 -29 30.5 -55.5t10.5 -59.5l-6 -43q0 -20 -17 -45q-61 -121 -207 -121h-24l-35 4l-33 10l-18 -92l-4 -96v-31q0 -293 203.5 -492.5t498.5 -199.5q104 0 191.5 12t169.5 41q186 61 186 170q0 37 -25 72 q-23 23 -67 33q-29 6 -75 -17.5t-50 -56.5v-82h-96v301h-494v817h96v-721h398v504q0 98 61 171t162 73q176 0 284 -176q95 -154 95 -338q0 -330 -291 -330h-215v-104q45 35 123 34q78 0 129 -51t51 -129q0 -172 -246 -252q-160 -49 -387 -49q-336 0 -565.5 217t-229.5 551z M236 514q43 -12 77 -12q72 0 121 61q8 16 14.5 33.5t6.5 38.5q0 43 -25 67q-10 8 -45 15q-61 0 -113 -101q-16 -33 -36 -102zM1229 96h211q207 1 207 230q0 145 -68 278q-84 158 -217 158q-57 0 -95 -47t-38 -109v-510z" />
<glyph unicode="&#xf0;" horiz-adv-x="2375" d="M92 362v46q0 154 64 268q78 137 221 137q66 0 117 -54t51 -124l-4 -37q-10 -88 -121 -147q-80 -43 -174 -43q-43 0 -66 12l6 -86q0 -45 23 -107q43 -143 115.5 -249.5t144.5 -172.5q131 -117 362 -188q203 -59 408 -59q193 0 420 63q262 74 373 186q156 162 155 351 q0 86 -60.5 156.5t-150.5 70.5q-109 0 -172 -88v-297h-96v721h-301v-721h-96v494q-29 111 -110 174t-191 63q-135 0 -226.5 -112.5t-91.5 -247.5q0 -129 99 -232q-14 51 -15 111q0 82 61.5 143.5t139.5 61.5q92 0 151 -66q57 -70 58 -160l-2 -28q0 -80 -66 -146 q-61 -57 -153 -57q-156 0 -259.5 112.5t-103.5 272.5q0 170 122 303t290 133q127 0 198 -47q41 -27 99 -94v139h856v-96h-363v-303q82 53 183 53q123 0 210 -87t87 -214q0 -219 -181 -418q-109 -121 -401 -207q-256 -72 -455 -71q-535 0 -860 288q-98 90 -182 242 q-70 135 -103 285q-6 70 -10 73zM190 500q31 -18 80 -19q47 0 101 25q92 43 92 127q0 43 -34 74.5t-81 25.5q-68 -6 -125 -121zM856 231q0 -63 28.5 -108t88.5 -45q55 0 90 47t35 104q0 55 -33 100.5t-84 45.5q-53 0 -89 -44t-36 -100z" />
<glyph unicode="&#xf1;" horiz-adv-x="1796" d="M2 -221q0 51 51 84q43 25 101 24h690q37 61 61 240q8 59 14.5 133t6.5 121q0 121 -39 219q-49 131 -154 131q-59 0 -110.5 -43t-51.5 -104v-584h-96v586q0 55 -32.5 100t-86.5 45q-53 0 -90 -43q-33 -45 -33 -102v-586h-94v590q0 92 61.5 158.5t157.5 66.5 q43 0 93.5 -29.5t78.5 -74.5q37 43 80 67q55 37 119 37q141 0 223 -137q33 -57 51.5 -132t18.5 -165q0 -127 -25.5 -294t-48.5 -200h240v930h569v-96h-139v-930h-96v930h-238v-930h-373q-31 -82 -151 -176q-154 -117 -338 -117q-139 0 -272 74q-147 80 -148 207zM94 -236 q0 -63 123 -135q86 -49 205 -49q129 0 260 88q102 68 129 123l-705 -4q-12 -6 -12 -23z" />
<glyph unicode="&#xf2;" horiz-adv-x="2312" d="M98 348q0 193 172 338q162 137 361 137q68 0 118 -6t95 -22q43 -12 114 -64q104 92 232 92q154 0 264 -159q100 -147 100 -308q0 -143 -45 -297q-37 -125 -69 -172h268l96 -96h-415q-86 -135 -291 -215q-176 -68 -361 -68q-190 0 -381 72q-240 86 -239 205q0 47 56 74.5 t122 27.5h1030q49 57 96 222q39 150 39 239q0 117 -69 244q-80 145 -189 145q-100 0 -178 -75q139 -123 139 -347q0 -106 -39 -198q-49 -117 -145 -117t-154 115q-47 94 -47 200q0 227 121 349q-113 72 -229 71h-39q-164 0 -303.5 -117.5t-139.5 -277.5q0 -68 27 -119 l37 -51q-6 18 -6 70v22l4 21q12 63 67.5 118.5t145.5 55.5q106 0 166 -72q61 -68 61 -176q0 -86 -66.5 -146.5t-156.5 -60.5q-162 0 -265.5 93t-103.5 253zM215 -238q0 -29 166 -94q90 -33 180 -51t174 -18q184 0 346 71q123 53 195 121h-977h-51q-27 -2 -33 -29zM330 223 q0 -57 37 -100q39 -39 98 -39q57 0 99 37t42 98t-39 107.5t-100 46.5q-59 0 -98 -45t-39 -105zM868 315q0 -86 29 -158.5t78 -72.5q41 0 72 96q16 53 19 74.5t3 58.5q0 31 -6 67t-23 89q-37 115 -77 121q-37 0 -66 -114t-29 -161zM1708 -113v930h569v-96h-141v-930h-96v930 h-236v-930z" />
<glyph unicode="&#xf3;" horiz-adv-x="20" d="M-592 1126q0 37 32 72t71 35q43 0 72.5 -33t29.5 -78q0 -35 -31 -69q-33 -29 -71 -29q-35 0 -69 31.5t-34 70.5z" />
<glyph unicode="&#xf4;" horiz-adv-x="786" d="M115 0v817h628v-96h-200v-721h-97v721h-235v-721h-96z" />
<glyph unicode="&#xf5;" horiz-adv-x="233" d="M-584 1042q0 133 113 220q98 74 242 73q203 0 305 -157q70 -111 69 -242v-936h-96v938q0 106 -63 201q-78 115 -219 114q-90 0 -172 -58t-82 -146q0 -82 20 -111h-98l-8 18q-10 41 -11 86z" />
<glyph unicode="&#xf6;" horiz-adv-x="73" d="M-604 1059q0 129 87 203.5t222 74.5q141 0 232 -59q102 -68 102 -205q0 -86 -67.5 -137t-153.5 -51q-88 0 -157 55t-69 137t52 146q20 23 51 43q-39 0 -66 -9q-147 -43 -147 -213q0 -63 37 -129q12 -20 22 -28h-100q-10 6 -21.5 40t-17.5 66.5t-6 65.5zM-322 1090 q0 -51 43 -93q43 -37 99 -36q49 0 91 36.5t42 85.5q0 63 -36 104.5t-97 41.5q-59 0 -101 -41q-41 -37 -41 -98z" />
<glyph unicode="&#xf7;" horiz-adv-x="1052" d="M-2 721v96h668q92 -12 145 -37q147 -74 147 -262q0 -117 -86 -194.5t-204 -77.5q-172 0 -246 141q-4 14 -15.5 59.5t-19.5 81.5v193h-389zM483 526q0 -88 48.5 -142t134.5 -54q80 0 139 52t59 132q0 137 -96 188q-31 12 -98 19h-187v-195z" />
<glyph unicode="&#xf8;" horiz-adv-x="1521" d="M2 721v96h381q0 96 10 154q25 166 123 286q131 156 369 156q246 0 407 -211q146 -192 146 -448q0 -295 -189 -498q-195 -211 -483 -211q-164 0 -278.5 43t-231.5 162l61 65q100 -102 201 -145q104 -39 244 -39q248 0 416 182.5t168 434.5q0 221 -117 387 q-131 186 -344 186q-205 0 -307 -139q-94 -125 -95 -334v-23l2 -8h277q96 0 167.5 -61.5t71.5 -157.5q0 -98 -72.5 -156.5t-170.5 -58.5q-178 0 -291 168q-31 47 -78 170h-387zM489 721q31 -82 56 -123q82 -125 211 -125q59 0 106 31t47 86t-39 93t-92 38h-289z" />
<glyph unicode="&#xf9;" horiz-adv-x="1290" d="M90 625q0 270 174 487q186 229 453 229q168 0 291 -96q168 -131 168 -379v-866h-97v893q0 156 -98 259t-256 103q-227 0 -395 -219q-147 -190 -148 -409q0 -287 158 -437q35 -33 192 -116q-74 80 -73 200q0 102 73.5 176t178.5 74q104 0 179 -71.5t75 -176.5l2 -22 q0 -119 -88 -199t-209 -80q-268 0 -430 195q-150 180 -150 455zM547 254q0 -78 47 -133t119 -55q68 0 114.5 60t46.5 130q0 74 -47 130t-114 56q-70 0 -119 -57q-23 -27 -35 -59.5t-12 -71.5z" />
<glyph unicode="&#xfa;" horiz-adv-x="1245" d="M90 666q0 268 183.5 468.5t449.5 200.5q168 0 291 -67q149 -84 149 -242q0 -102 -61 -170q-63 -63 -166 -63q-94 0 -159.5 62.5t-65.5 154.5q0 150 135 223l-64 8l-65 2q-115 0 -209 -44t-180 -142q-133 -156 -133 -400q0 -215 134 -391t351 -213l31 -2l82 6l75 17 q-158 55 -157 229q0 98 62.5 163.5t164.5 65.5q92 0 155.5 -75.5t63.5 -171.5q0 -145 -133 -234q-63 -41 -137 -61.5t-154 -20.5l-45 2q-123 0 -228.5 56.5t-199.5 169.5q-170 201 -170 469zM801 1014q0 -55 41 -96t96 -41q61 0 97 44t36 105q0 59 -36 106.5t-95 47.5 q-61 0 -100 -51.5t-39 -114.5zM803 295q0 -37 8 -61.5t33 -51.5q43 -43 100 -43q61 0 94 45t33 111q0 150 -137 149q-57 0 -96 -45q-35 -45 -35 -104z" />
<glyph unicode="&#xfb;" horiz-adv-x="1613" d="M92 317q0 201 147.5 350.5t354.5 149.5q172 0 309 -112q102 113 250 112q166 0 272 -131q101 -123 101 -291q0 -117 -35 -228.5t-113 -168.5l-63 57q121 72 121 340q0 133 -72 232q-80 111 -209 110q-59 0 -117.5 -34.5t-79.5 -71.5q129 -121 129 -314q0 -117 -32 -202 q-47 -125 -142 -125q-78 0 -131 123q-37 96 -37 194q0 39 6.5 79t20.5 89q31 98 76 150q-61 61 -117.5 85.5t-140.5 24.5q-139 0 -266 -104q-145 -121 -146 -312q0 -82 41 -143l45 -53q-27 35 -26 92l2 25q0 39 15 71.5t46 65.5q55 55 139 55t146 -67q31 -35 45 -72t14 -84 q0 -90 -61 -158q-63 -63 -156 -63q-131 0 -233.5 99t-102.5 230zM324 211q0 -141 114 -141q53 0 88 38t35 93q0 61 -29 102q-35 49 -92 49q-55 0 -85.5 -42t-30.5 -99zM831 309q0 -59 21.5 -149t62.5 -90q45 0 70 98q6 33 10 65.5t4 69.5q0 47 -24 137q-31 109 -64 109 q-16 0 -51 -86q-29 -80 -29 -154z" />
<glyph unicode="&#xfc;" horiz-adv-x="1556" d="M94 383q0 170 122 303t292 133q66 0 112 -10t87 -37q35 -20 96 -94v139h713v-96h-218v-721h-98v721h-301v-721h-96v494q-55 238 -299 237q-135 0 -226.5 -110.5t-91.5 -249.5q0 -129 99 -232l-11 49l-6 62q0 78 62 145q63 63 145 64q90 0 147.5 -67.5t57.5 -162.5l-2 -28 q0 -86 -68 -154q-61 -57 -153 -57q-160 0 -261.5 114.5t-101.5 278.5zM350 231q0 -59 28 -111t85 -52q55 0 91 51t36 110q0 53 -30 101.5t-85 48.5q-53 0 -89 -45t-36 -103z" />
<glyph unicode="&#xfd;" horiz-adv-x="1724" d="M0 369q0 184 120 316t302 132q147 0 237.5 -74.5t90.5 -220.5v-289q0 -78 30.5 -113.5t93.5 -35.5q119 0 181 119q45 94 45 225q0 109 -33 180q-14 33 -129 170q-94 113 -94 271q0 123 119 198q102 63 233 64q197 0 287 -140q31 -49 47 -106t16 -125v-940h-94v940 q0 287 -250 287q-96 0 -168 -43q-76 -49 -94 -142l-2 -34q0 -47 15.5 -87t52.5 -81q94 -100 139 -187q53 -102 53 -225q0 -184 -68 -295q-80 -133 -256 -133q-221 0 -221 233v285q0 92 -60.5 153.5t-152.5 61.5q-147 0 -248.5 -113.5t-101.5 -263.5q0 -61 16.5 -106 t67.5 -109l-14 45l-6 60q0 76 59 130t135 54q90 0 141.5 -69.5t51.5 -159.5q0 -84 -62 -146q-63 -57 -149 -57q-154 0 -242 106.5t-88 264.5zM229 221q0 -139 107 -139q121 0 121 131q0 51 -33 94t-78 43q-49 0 -83 -40t-34 -89z" />
<glyph unicode="&#xfe;" horiz-adv-x="765" d="M92 489v97h594v-97h-594z" />
<glyph unicode="&#x2000;" horiz-adv-x="711" />
<glyph unicode="&#x2001;" horiz-adv-x="1423" />
<glyph unicode="&#x2002;" horiz-adv-x="711" />
<glyph unicode="&#x2003;" horiz-adv-x="1423" />
<glyph unicode="&#x2004;" horiz-adv-x="474" />
<glyph unicode="&#x2005;" horiz-adv-x="355" />
<glyph unicode="&#x2006;" horiz-adv-x="237" />
<glyph unicode="&#x2007;" horiz-adv-x="237" />
<glyph unicode="&#x2008;" horiz-adv-x="177" />
<glyph unicode="&#x2009;" horiz-adv-x="284" />
<glyph unicode="&#x200a;" horiz-adv-x="79" />
<glyph unicode="&#x202f;" horiz-adv-x="284" />
<glyph unicode="&#x205f;" horiz-adv-x="355" />
<glyph unicode="&#xe000;" horiz-adv-x="1239" d="M0 0v1239h1239v-1239h-1239z" />
</font>
</defs>
</svg>
