<?xml version="1.0" standalone="no"?>
<!DOCTYPE svg PUBLIC "-//W3C//DTD SVG 1.1//EN" "http://www.w3.org/Graphics/SVG/1.1/DTD/svg11.dtd" >
<svg xmlns="http://www.w3.org/2000/svg">
<metadata></metadata>
<defs>
<font id="av-web-mal1normal" horiz-adv-x="1024" >
<font-face units-per-em="2048" ascent="1638" descent="-410" />
<missing-glyph horiz-adv-x="718" />
<glyph horiz-adv-x="2048" />
<glyph horiz-adv-x="2048" />
<glyph unicode="&#xd;" horiz-adv-x="718" />
<glyph unicode=" "  horiz-adv-x="718" />
<glyph unicode="&#x09;" horiz-adv-x="718" />
<glyph unicode="&#xa0;" horiz-adv-x="718" />
<glyph unicode="!" horiz-adv-x="483" d="M223 68q0 43 29 71.5t72 28.5q35 0 67.5 -29.5t32.5 -70.5q0 -43 -28.5 -72t-71.5 -29q-39 0 -70 25.5t-31 75.5zM236 905q0 76 24.5 117t65.5 41q25 0 48.5 -35t35.5 -123l-9 -129q0 -37 -3 -72.5t-22.5 -204.5t-19.5 -272l-65 41q0 117 -37 406q-18 141 -18 231z" />
<glyph unicode="&#x22;" horiz-adv-x="505" d="M174 1047q0 86 76 167q61 66 143 97l45 -21q-86 -47 -135 -102t-49 -109q0 -33 18 -57q27 23 64 22q39 0 69.5 -26.5t30.5 -67.5q0 -39 -32.5 -72.5t-71.5 -33.5q-68 0 -113 55t-45 148z" />
<glyph unicode="#" horiz-adv-x="1089" d="M113 391q12 -86 54 -156.5t107 -123.5l39 51q-51 39 -90 102l-26 60l-21 73zM113 510q12 88 53 156q35 63 110 127l39 -54q-47 -35 -90 -100q-37 -61 -49 -137zM379 49l82 -24l86 -9q74 0 158 31l-25 62q-29 -10 -68 -18.5t-71 -8.5q-82 0 -135 27zM379 852q80 31 162 31 q80 0 164 -31l-25 -59q-80 27 -137 26q-76 0 -140 -28zM768 160q119 90 139 237l64 -6q-18 -166 -162 -285zM768 739l41 54q55 -43 109 -125q43 -74 55 -158l-66 -8q-18 147 -139 237z" />
<glyph unicode="$" horiz-adv-x="999" d="M158 348q0 145 86 249.5t239 104.5q174 0 271 -108q90 -100 90 -256q0 -139 -97.5 -248.5t-250.5 -109.5q-164 0 -258 126q-80 104 -80 242z" />
<glyph unicode="%" horiz-adv-x="1212" d="M150 760q0 90 64.5 165.5t174.5 75.5q104 0 174 -77q29 -31 46.5 -75t17.5 -89q0 -109 -69 -177.5t-169 -68.5q-92 0 -170 68q-70 70 -69 178zM270 758q0 -199 119 -199q117 0 117 199q0 201 -117 200q-119 0 -119 -200zM315 -68l633 1069h94l-632 -1069h-95zM743 176 q0 90 64.5 166t173.5 76q104 0 176 -78q62 -68 62 -164q0 -104 -70 -174t-168 -70q-94 0 -166 67t-72 177zM864 174q0 -199 117 -199q57 0 88 49.5t31 149.5q0 201 -119 201q-117 0 -117 -201z" />
<glyph unicode="&#x26;" horiz-adv-x="1306" d="M221 250v54.5t8.5 62.5t38.5 79q51 78 123 125q37 29 156 97q-121 164 -121 270q0 70 22.5 122t67.5 91q96 63 197 63q111 0 182 -57q25 -23 45.5 -58.5t20.5 -80.5q0 -39 -14.5 -80t-45.5 -82q-57 -80 -186 -162l178 -223l129 -149q123 172 217 354l41 -49l39 -35 q-43 -90 -242 -328l234 -270l-129 10q-41 0 -54 -4l-53 -6l-57 82l-53 65l-54 -43l-110 -69q-88 -53 -209 -54q-90 0 -155.5 17.5t-112.5 60.5q-41 43 -76 94l-17 39q-6 20 -10 64zM381 334l4 -37l6 -31q12 -47 30.5 -79.5t55.5 -63.5q70 -53 162 -53q74 0 142.5 30.5 t136.5 96.5l-334 415l-86 -69l-62 -58q-14 -14 -41 -67l-10 -39zM569 993q0 -111 107 -250q176 118 176 261q0 68 -33 102q-8 14 -30.5 27.5t-55.5 19.5h-22q-31 0 -52.5 -7t-44.5 -34q-45 -45 -45 -119z" />
<glyph unicode="'" horiz-adv-x="503" d="M176 864q88 47 137 102.5t49 108.5q0 37 -20 58q-23 -23 -63 -23q-33 0 -67 25.5t-34 68.5q0 35 31 71t74 36q66 0 111.5 -55.5t45.5 -147.5q0 -86 -75 -168q-61 -63 -142 -96z" />
<glyph unicode="(" horiz-adv-x="704" d="M178 483q0 233 148 486q135 229 317 342h51q-197 -197 -281.5 -397.5t-84.5 -430.5q0 -117 18 -221q10 -59 22.5 -100t37.5 -99q85 -202 288 -405h-51q-174 104 -319.5 346t-145.5 479z" />
<glyph unicode=")" horiz-adv-x="704" d="M158 -342q193 193 286 405q80 188 80 420q0 227 -80 422q-20 49 -47.5 100.5t-64.5 102.5q-70 98 -174 203h49q176 -104 320.5 -348t144.5 -480q0 -227 -148 -483q-135 -229 -317 -342h-49z" />
<glyph unicode="*" horiz-adv-x="806" d="M178 973q0 18 15.5 31.5t42.5 15.5q31 0 94 -45q49 -33 133 -117l-39 154l-6 63q0 47 17.5 71.5t43.5 24.5q59 0 60 -96q0 -49 -21 -123l-26 -94q74 74 136 118t97 44q20 0 37.5 -13.5t17.5 -33.5q0 -53 -86 -88l-110 -31l-72 -18v-9q150 -25 206 -57.5t56 -77.5 q0 -12 -17.5 -31.5t-41.5 -25.5q-23 0 -60 22l-75 70l-80 78l24 -119l15 -111q0 -33 -17 -55q-12 -25 -43 -24q-20 0 -45 24q-10 14 -16 55v46l8 38l12 48q6 29 10.5 45t18.5 53q-43 -29 -85 -77t-78 -70.5t-60 -22.5q-14 0 -37 18q-16 18 -21 39q0 39 58 78q51 27 202 57v9 l-69 16l-111 33q-88 31 -88 88z" />
<glyph unicode="+" horiz-adv-x="1003" d="M203 358v117h338v338h118v-338h338v-117h-338v-338h-118v338h-338z" />
<glyph unicode="," horiz-adv-x="403" d="M139 -279q88 47 137.5 102.5t49.5 108.5q0 37 -21 58q-23 -23 -63 -23q-37 0 -69 25.5t-32 68.5q0 35 31 71t74 36q66 0 111.5 -55.5t45.5 -147.5q0 -86 -75 -168q-61 -63 -142 -96z" />
<glyph unicode="." horiz-adv-x="403" d="M141 68q0 43 29 71.5t72 28.5t71.5 -28.5t28.5 -71.5t-28.5 -72t-71.5 -29q-39 0 -70 29t-31 72z" />
<glyph unicode="/" horiz-adv-x="806" d="M188 -418l492 1647h90l-494 -1647h-88z" />
<glyph unicode="0" d="M74 670q0 467 256 649q47 31 92 49q23 8 43 12t51 4q147 0 281 -159q154 -197 153 -535q0 -190 -49 -350q-61 -197 -192 -289q-106 -76 -203 -76q-188 0 -324 230q-108 193 -108 465zM270 645q0 -154 17 -252q8 -55 20 -105t33 -100q55 -150 170 -149q141 0 199 211 q47 178 47 485q0 428 -142 549q-41 35 -100 35q-172 0 -217 -324l-18 -174z" />
<glyph unicode="1" d="M240 1223l329 161h33v-1144l2 -103q6 -61 47 -84l49 -12l74 -4v-37h-510v37q61 0 90 6q49 12 72 49q12 25 12 148v731q0 209 -35 237q-12 8 -45 15q-31 0 -102 -31z" />
<glyph unicode="2" d="M43 0v37q276 252 401 401q240 287 240 498q0 117 -74.5 206t-191.5 89q-221 0 -297 -230h-37q18 170 119 277q51 53 115.5 79.5t150.5 26.5q156 0 271.5 -100t115.5 -256q0 -229 -289 -549q-256 -279 -311 -327h354q172 0 232 41q27 16 59 67h37l-94 -260h-801z" />
<glyph unicode="3" d="M84 84q0 31 22 51q20 14 58 21q27 0 49 -9l162 -73l37 -8l41 -3q100 0 177 81t77 186q0 145 -93 237q-113 106 -272 107h-31v28q39 0 75 13.5t83 44.5q74 41 113 109.5t39 148.5q0 98 -62.5 163.5t-163.5 65.5q-154 0 -258 -166l-33 17q121 287 367 286q156 0 250 -106 q66 -82 65 -168q0 -147 -186 -307q254 -98 254 -354q0 -172 -113 -306q-145 -168 -422 -168q-236 0 -235 109z" />
<glyph unicode="4" d="M33 358v127l629 899h108v-884h182v-142h-182v-358h-164v358h-573zM129 500h477v674z" />
<glyph unicode="5" d="M98 109q0 27 25 51q20 14 55 20q43 0 116 -50t148 -50q125 0 210 90t85 213q0 129 -88 242q-74 88 -209 151q-57 23 -114.5 34t-94 15t-88.5 4l260 527h486l-78 -170h-408l-90 -182q227 -31 379 -158q174 -143 174 -359q0 -143 -79.5 -264t-219.5 -192q-115 -55 -235 -56 q-88 0 -148 27q-86 35 -86 107z" />
<glyph unicode="6" d="M88 532q0 369 281 637q227 215 491 215h58v-36q-229 -23 -383 -175.5t-222 -414.5q141 98 289 98q154 0 252 -125q90 -119 90 -274q0 -170 -102 -312q-123 -170 -328 -170q-133 0 -235 93q-190 178 -191 464zM279 467q0 -150 59 -274q74 -160 205 -160q111 0 174 106 q51 96 51 209q0 154 -55 270q-68 150 -207 150q-80 0 -209 -84q-18 -135 -18 -217z" />
<glyph unicode="7" d="M76 1034l131 322h727v-37l-453 -1348h-112l405 1223h-373q-113 0 -161 -29q-80 -43 -136 -141z" />
<glyph unicode="8" d="M125 309q0 178 268 373q-129 109 -172 164q-82 106 -82 215q0 145 111.5 234t261.5 89q135 0 246 -73q119 -84 119 -219q0 -166 -279 -340q160 -125 231 -215q76 -106 76 -215q0 -156 -116.5 -251.5t-276.5 -95.5q-195 0 -301 121q-86 98 -86 213zM276 313 q0 -115 69 -198.5t181 -83.5q94 0 167 55t73 154q0 72 -39 129q-76 110 -287 276q-164 -135 -164 -332zM285 1128q0 -51 28.5 -108t71.5 -94l166 -135q96 86 129 135q53 78 53 176q0 104 -56 163.5t-163 59.5q-47 0 -86 -12.5t-76 -40.5q-68 -53 -67 -144z" />
<glyph unicode="9" d="M82 897q0 178 100 317q123 170 322 170q166 0 287 -139q145 -170 145 -422q0 -227 -110.5 -419.5t-309.5 -325.5q-166 -106 -350 -107h-57v37q262 0 458 266q98 137 146 322q-158 -102 -285 -102q-160 0 -253 121.5t-93 281.5zM258 1001q0 -213 90 -329q61 -86 160 -86 q117 0 219 84q18 129 18 207q0 100 -31.5 211.5t-93 171t-139.5 59.5q-111 0 -174 -109q-49 -86 -49 -209z" />
<glyph unicode=":" horiz-adv-x="403" d="M141 68q0 43 29 71.5t72 28.5t71.5 -28.5t28.5 -71.5t-28.5 -72t-71.5 -29q-39 0 -70 29t-31 72zM141 532q0 41 30 71t71 30q43 0 71.5 -29t28.5 -72t-28.5 -71.5t-71.5 -28.5q-39 0 -70 28.5t-31 71.5z" />
<glyph unicode=";" horiz-adv-x="417" d="M139 -279q88 47 137.5 102.5t49.5 108.5q0 37 -21 58q-23 -23 -63 -23q-37 0 -69 25.5t-32 68.5q0 35 31 71t74 36q66 0 111.5 -55.5t45.5 -147.5q0 -86 -75 -168q-61 -63 -142 -96zM141 532q0 41 30 71t71 30q43 0 71.5 -29t28.5 -72t-28.5 -71.5t-71.5 -28.5 q-39 0 -70 28.5t-31 71.5z" />
<glyph unicode="&#x3c;" horiz-adv-x="1073" d="M162 393v105l903 395v-121l-729 -328l729 -335v-117z" />
<glyph unicode="=" horiz-adv-x="815" d="M162 207v125h633v-125h-633zM162 494v120h633v-120h-633z" />
<glyph unicode="&#x3e;" horiz-adv-x="1046" d="M137 -6v119l729 327l-729 336v119l903 -401v-105z" />
<glyph unicode="?" horiz-adv-x="727" d="M203 836q0 96 67 163q70 63 170 64q113 0 191 -66.5t78 -191.5q0 -104 -107 -213l-213 -219q0 -33 12.5 -66t49.5 -67l-7 -11l-82 31q-43 43 -61 86t-18 78q0 74 174 204t174 218q0 74 -50.5 110.5t-121.5 36.5q-53 0 -94 -28q-41 -25 -41 -78q47 0 69.5 -23.5 t22.5 -62.5q0 -35 -31 -66q-27 -23 -61 -26q-51 0 -86 34.5t-35 92.5zM330 68q0 43 28.5 71.5t71.5 28.5q35 0 67.5 -29.5t32.5 -70.5q0 -43 -28.5 -72t-71.5 -29q-39 0 -69.5 25.5t-30.5 75.5z" />
<glyph unicode="@" horiz-adv-x="1396" d="M217 578q0 231 173 402t407 171q221 0 373.5 -136t152.5 -345q0 -176 -111.5 -309.5t-244.5 -133.5q-47 0 -80 17.5t-51 58.5q-78 -74 -185 -74q-96 0 -155 66q-57 70 -58 164q0 160 105 305q115 154 276 154q55 0 103.5 -26t66.5 -75l25 70h102l-153 -459l-13 -45 l-6 -37q0 -43 43 -43q90 0 168 124t78 247q0 178 -125 289.5t-309 111.5q-207 0 -347.5 -149.5t-140.5 -358.5q0 -201 141.5 -347t350.5 -146q125 0 227.5 52t177.5 155h90q-68 -125 -208 -204t-287 -79q-246 0 -416 170t-170 410zM557 465q0 -53 31 -100q33 -39 88 -39 q96 0 178 143q74 129 74 248q0 39 -30 75.5t-77 36.5q-106 0 -192 -129q-72 -115 -72 -235z" />
<glyph unicode="A" horiz-adv-x="2179" d="M158 461q0 182 122.5 319.5t319.5 137.5q72 0 133.5 -13.5t97.5 -34.5q100 47 252 48q104 0 197 -44q86 -35 139 -122q47 74 119 116q80 49 172 50q190 0 325.5 -154.5t135.5 -351.5q0 -180 -85 -306t-216 -126q-104 0 -185 95t-81 230q0 133 86 239.5t243 131.5 q-37 68 -104.5 104.5t-134.5 36.5q-45 0 -78 -9t-78 -38q-76 -45 -76 -119v-651h-172v559q0 102 -88 180t-182 78l-66 -2q135 -68 136 -203q0 -61 -33 -108t-90 -80q155 -47 155 -184q0 -90 -65 -168q-78 -92 -203 -92q-133 0 -227.5 116.5t-94.5 286.5q0 125 46.5 228.5 t146.5 183.5l-53 8l-58 2q-139 0 -252.5 -112.5t-113.5 -260.5q0 -131 50 -238.5t144 -179.5l-67 -34q-92 74 -154.5 204.5t-62.5 276.5zM598 383q0 -119 59.5 -204t149.5 -85q59 0 102 41t43 96q0 51 -48 94.5t-122 43.5h-51v69h49q63 0 112.5 47t49.5 105q0 43 -42 99 t-103 79q-82 -41 -135 -139q-63 -117 -64 -246zM1681 340q0 -90 52.5 -162t109.5 -72q68 0 119 78q51 84 51 199q0 72 -13 124t-38 105q-115 -12 -198 -84.5t-83 -187.5z" />
<glyph unicode="B" horiz-adv-x="2478" d="M158 461q0 182 122.5 319.5t319.5 137.5q72 0 133.5 -13.5t97.5 -34.5q100 47 252 48q104 0 197 -44q86 -35 139 -122q47 74 119 116q80 49 172 50q125 0 223.5 -63.5t157.5 -170.5q160 -31 261.5 -163t101.5 -316q0 -225 -140.5 -377t-369.5 -152q-137 0 -246 52l35 90 l53 -17q41 -10 90 -10q197 0 328 152.5t131 343.5q0 113 -57.5 204t-147.5 123q41 -113 41 -202q0 -180 -85 -306t-216 -126q-104 0 -185 95t-81 230q0 133 86 239.5t243 131.5q-37 68 -104.5 104.5t-134.5 36.5q-45 0 -78 -9t-78 -38q-76 -45 -76 -119v-651h-172v559 q0 102 -88 180t-182 78l-66 -2q135 -68 136 -203q0 -61 -33 -108t-90 -80q155 -47 155 -184q0 -90 -65 -168q-78 -92 -203 -92q-133 0 -227.5 116.5t-94.5 286.5q0 125 46.5 228.5t146.5 183.5l-53 8l-58 2q-139 0 -252.5 -112.5t-113.5 -260.5q0 -131 50 -238.5t144 -179.5 l-67 -34q-92 74 -154.5 204.5t-62.5 276.5zM598 383q0 -119 59.5 -204t149.5 -85q59 0 102 41t43 96q0 51 -48 94.5t-122 43.5h-51v69h49q63 0 112.5 47t49.5 105q0 43 -42 99t-103 79q-82 -41 -135 -139q-63 -117 -64 -246zM1681 340q0 -90 52.5 -162t109.5 -72 q68 0 119 78q51 84 51 199q0 72 -13 124t-38 105q-115 -12 -198 -84.5t-83 -187.5z" />
<glyph unicode="C" horiz-adv-x="1634" d="M158 455q0 197 126 330t357 133q102 0 182 -40t131 -120q31 61 103 106q82 53 170 54q158 0 277.5 -138.5t119.5 -312.5q0 -211 -96 -339t-240 -128h-864q-66 0 -103.5 -27.5t-37.5 -76.5q0 -31 29.5 -52.5t66.5 -21.5h1208v-170h-1188q-113 0 -166 59q-55 55 -55 158 q0 201 223 201h752q301 0 301 379q0 156 -78 262t-198 106q-80 0 -132.5 -41t-52.5 -119v-512h-172v469q0 74 -71 134q-35 29 -78 43q-23 6 -46.5 10t-56.5 4q-115 0 -200 -60q-98 -68 -125 -194l10 -4q74 115 192 115q98 0 168 -82q59 -76 60 -179q0 -113 -72 -191.5 t-170 -78.5q-117 0 -195.5 93t-78.5 231zM293 410q0 -82 34.5 -130.5t90.5 -48.5q43 0 84 50q37 49 37 127q0 68 -37 116.5t-90 48.5q-51 0 -85 -46t-34 -117z" />
<glyph unicode="D" horiz-adv-x="1173" d="M158 494q0 190 122.5 307t368.5 117q252 0 393 -136q123 -122 123 -315q0 -211 -96 -339t-240 -128h-405q-66 0 -103.5 -27.5t-37.5 -76.5q0 -31 29.5 -52.5t66.5 -21.5h772v-170h-752q-113 0 -166 59q-55 55 -55 158q0 201 223 201h293q301 0 301 379q0 154 -71 243 q-100 125 -332 125q-291 0 -348 -231l10 -6q73 114 190 114h2q98 0 168 -82q59 -76 60 -178q0 -113 -72 -191.5t-170 -78.5q-117 0 -195.5 93t-78.5 237zM293 442q0 -82 34.5 -130t90.5 -48q43 0 84 49q37 49 37 127q0 68 -37 117t-90 49q-51 0 -85 -46t-34 -118z" />
<glyph unicode="E" horiz-adv-x="1413" d="M182 -66q0 98 62 160q61 55 184 80q-117 43 -178 123q-68 92 -68 252q0 150 78 254q86 115 221 115q98 0 168 -73t70 -177q0 -125 -69.5 -196t-164.5 -71q-55 0 -114 33q-55 35 -92 94q0 -160 102 -235q121 -86 414 -86q281 0 407 86q106 76 107 235q-41 -61 -97 -94 l-57 -24l-57 -9q-92 0 -163 73t-71 194q0 104 66.5 177t171.5 73q131 0 215 -112t84 -257q0 -152 -68 -250q-53 -74 -178 -121q117 -25 181.5 -84.5t64.5 -159.5q0 -123 -127 -206q-154 -98 -479 -99q-317 0 -484 99q-129 80 -129 206zM332 662q0 -70 37 -125q37 -47 90 -48 q51 0 88 44.5t37 134.5q0 70 -32 116.5t-85 46.5q-49 0 -94 -51q-20 -27 -30.5 -55.5t-10.5 -62.5zM340 -68q0 -84 119 -151q53 -27 143 -47q43 -8 87 -12.5t106 -4.5q209 0 328.5 62.5t119.5 152.5q0 82 -117.5 143.5t-330.5 61.5q-215 0 -335 -56t-120 -149zM999 668 q0 -86 35 -133q39 -45 92 -46q51 0 88 49.5t37 123.5q0 72 -41 120.5t-94 48.5q-47 0 -84 -49q-16 -25 -24.5 -51t-8.5 -63z" />
<glyph unicode="F" horiz-adv-x="2078" d="M158 293q0 127 88 215q100 100 270 100q152 0 248 -100t96 -234q0 -31 -4 -54t-18 -56q-18 -59 -52 -94h254l-2 71q0 346 117 549q135 227 414 228q227 0 375 -209q127 -187 127 -433q0 -180 -77 -355t-239 -318l-102 41q123 111 185.5 259t62.5 343q0 242 -105.5 400.5 t-275.5 158.5q-176 0 -296 -185.5t-120 -480.5v-69h293v616h170v-829q0 -106 -66.5 -180t-169.5 -74q-129 0 -208 106.5t-79 290.5h-501v14q76 47 111.5 115t35.5 139q0 84 -53 146q-58 67 -151 67h-3q-96 0 -165.5 -66.5t-69.5 -160.5q0 -61 24.5 -113.5t81.5 -109.5 l-61 -51q-61 66 -103 151l-24 80zM1110 0q12 -143 59 -211q37 -59 101 -59q57 0 92 41t35 104v125h-287z" />
<glyph unicode="G" horiz-adv-x="2058" d="M158 293q0 127 88 215q100 100 270 100q152 0 248 -100t96 -234q0 -31 -4 -54t-18 -56q-18 -59 -52 -94h254l-2 71q0 346 117 549q135 227 414 228q178 0 293 -87q129 -102 129 -305q0 -76 -35 -139t-90 -92q94 -25 145 -133q39 -94 39 -209q0 -147 -69.5 -241.5 t-202.5 -94.5q-51 0 -107 18l-22 129l43 -14l47 -8q61 0 95 63.5t34 167.5q0 111 -51.5 193t-128.5 82h-46v88h29q66 0 108 60.5t42 142.5q0 113 -81 189.5t-220 76.5q-176 0 -296 -185.5t-120 -480.5v-69h293v616h170v-829q0 -106 -66.5 -180t-169.5 -74q-129 0 -208 106.5 t-79 290.5h-501v14q76 47 111.5 115t35.5 139q0 84 -53 146q-58 67 -151 67h-3q-96 0 -165.5 -66.5t-69.5 -160.5q0 -61 24.5 -113.5t81.5 -109.5l-61 -51q-61 66 -103 151l-24 80zM1110 0q12 -143 59 -211q37 -59 101 -59q57 0 92 41t35 104v125h-287z" />
<glyph unicode="H" horiz-adv-x="1218" d="M158 358q0 281 148.5 420.5t443.5 139.5q190 0 299 -78q100 -72 100 -178q0 -63 -29.5 -110.5t-93.5 -90.5q76 -18 130 -87.5t54 -135.5q0 -111 -81.5 -184.5t-208.5 -73.5q-55 0 -115 20l-27 123l51 -33l54 -10q63 0 110 43t47 94q0 78 -59 139.5t-147 61.5h-76v71 q104 0 164 41q57 45 57 109q0 76 -70 127q-84 51 -235 51q-199 0 -310.5 -99.5t-140.5 -322.5l6 -6q45 72 88 109q51 39 127 39q94 0 168 -93.5t74 -199.5q0 -119 -66.5 -191.5t-170.5 -72.5q-141 0 -222 118q-70 111 -69 260zM258 270q0 -55 43 -120q43 -55 105 -56 q59 0 108 58q37 49 37 106q0 72 -38 125t-103 53q-61 0 -109 -47q-43 -47 -43 -119z" />
<glyph unicode="I" horiz-adv-x="1599" d="M154 274q0 113 70.5 180.5t207.5 67.5h139q0 164 77 280t212 116q127 0 219 -111q80 -104 99 -285h135q119 0 190 -65q86 -74 86 -215q0 -106 -68.5 -184t-168.5 -78q-18 0 -62.5 11t-66.5 27l-11 97l50 -29l32 -4q55 0 101.5 46t46.5 138q0 184 -176 185h-82 q0 -236 -103 -363q-85 -108 -209 -108h-2q-80 0 -140 33.5t-107 129.5q-31 -72 -88 -120q-55 -43 -113 -43q-90 0 -174 67q-94 82 -94 227zM301 287q0 -80 40 -143.5t101 -63.5q59 0 94 56t35 140v175h-69q-98 0 -149.5 -45.5t-51.5 -118.5zM635 395q0 -156 59 -239 q53 -76 133 -76q100 0 154.5 97.5t54.5 273.5h-399zM637 522h399q0 115 -59 199q-55 84 -146 84q-74 0 -133 -68q-61 -78 -61 -215z" />
<glyph unicode="J" horiz-adv-x="1746" d="M158 358q0 223 121 381q133 178 339 179q207 0 351 -150q135 -141 135 -324q0 -94 -45 -192t-125 -182h631v833h170v-903h-1000v45q98 72 148.5 164t50.5 201q0 166 -105.5 280.5t-238.5 114.5q-145 0 -254 -123q-92 -109 -113 -287l6 -6q45 72 88 109q51 39 127 39 q94 0 168 -93.5t74 -199.5q0 -119 -66.5 -191.5t-170.5 -72.5q-141 0 -222 118q-70 111 -69 260zM258 270q0 -55 43 -120q43 -55 105 -56q59 0 108 58q37 49 37 106q0 72 -38 125t-103 53q-61 0 -109 -47q-43 -47 -43 -119z" />
<glyph unicode="K" horiz-adv-x="1419" d="M158 424q0 141 79.5 276.5t213.5 217.5l45 -52q-248 -180 -248 -430q0 -135 80 -232.5t196 -97.5q80 0 129 70q29 41 43 98q6 29 10.5 63t4.5 77v147q0 160 104 264q96 92 229 93q154 0 260.5 -125.5t106.5 -311.5q0 -145 -81 -286.5t-202 -214.5l-53 51q117 74 180 182 q31 55 47.5 114.5t16.5 127.5q0 156 -96 252q-80 86 -174 86q-84 0 -140 -82q-49 -80 -49 -236v-125q0 -162 -96 -266t-223 -104q-160 0 -271.5 136t-111.5 308z" />
<glyph unicode="L" horiz-adv-x="2355" d="M154 610q0 137 99 222.5t263 85.5q135 0 236.5 -100.5t101.5 -231.5q0 -39 -17.5 -94.5t-54.5 -92.5h260q0 152 25 246t94 164q51 51 127 80t158 29q125 0 205 -29q86 -25 155 -121q49 -63 78 -203l10 -104l4 -131h-686v-260h961v833h170v-903h-1301v330h-507v14 q72 45 110 109q39 74 39 129q0 80 -62.5 145.5t-148.5 65.5q-92 0 -170 -68q-72 -68 -72 -152q0 -49 25 -102t90 -109l-59 -55q-31 35 -55.5 68t-43.5 69q-34 68 -34 161v5zM1212 399h607q0 233 -76 328q-37 47 -101 78l-49 16q-37 10 -82 10q-143 0 -221 -89t-78 -232v-111 z" />
<glyph unicode="M" horiz-adv-x="1705" d="M158 358q0 231 141 395.5t379 164.5q100 0 181 -41t130 -117q47 74 125 117q82 41 195 41q137 0 235 -76t98 -160q0 -66 -34.5 -123t-98.5 -94q88 -18 136 -78q53 -57 53 -125q0 -109 -99.5 -195.5t-255.5 -86.5l-100 6q-37 0 -67 14l-27 119l82 -39q41 -12 72 -12 q86 0 154.5 50t68.5 128q0 74 -56 127q-55 49 -161 49h-127v70h65q39 6 71 10t75 30q80 41 80 119q0 59 -58 115q-57 51 -143 51q-92 0 -160 -37q-82 -45 -82 -123v-657h-170v614q0 72 -74 134q-37 29 -79 43q-23 6 -46.5 10t-54.5 4q-166 0 -265 -111.5t-118 -298.5l6 -6 q45 72 88 109q51 39 127 39q94 0 168 -93.5t74 -199.5q0 -119 -66.5 -191.5t-170.5 -72.5q-141 0 -222 118q-70 111 -69 260zM258 270q0 -55 43 -120q43 -55 105 -56q59 0 108 58q37 49 37 106q0 72 -38 125t-103 53q-61 0 -109 -47q-43 -47 -43 -119z" />
<glyph unicode="N" horiz-adv-x="1558" d="M147 0v70h416q29 10 51 28q12 8 25.5 22.5t28.5 33.5q59 76 59 155q0 68 -44 120t-110 52q-63 0 -114 -51q-45 -51 -45 -125q0 -29 4 -39l14 -30h-88l-14 49l-6 63q0 117 71.5 188.5t196.5 71.5q129 0 225 -92q80 -84 80 -199q0 -133 -102 -247h581v833h170v-903h-1399z " />
<glyph unicode="O" horiz-adv-x="2072" d="M147 0v70h416q29 10 51 28q12 8 25.5 22.5t28.5 33.5q59 76 59 155q0 68 -44 120t-110 52q-63 0 -114 -51q-45 -51 -45 -125q0 -29 4 -39l14 -30h-88l-14 49l-6 63q0 117 71.5 188.5t196.5 71.5q129 0 225 -92q80 -84 80 -199q0 -133 -102 -247h467q-47 68 -87 169 t-40 193q0 203 129 344.5t340 141.5q188 0 323 -154.5t135 -351.5q0 -180 -85 -306t-216 -126q-104 0 -184 95t-80 230q0 141 66 258q55 113 161 197q-6 6 -55 22l-72 11q-147 0 -258.5 -119t-111.5 -277q0 -113 60.5 -223.5t142.5 -159.5l-5 -14h-1278zM1575 340 q0 -90 52 -162t110 -72q68 0 118 78q52 84 52 199q0 104 -38 200.5t-85 131.5q-90 -74 -149.5 -175.5t-59.5 -199.5z" />
<glyph unicode="P" horiz-adv-x="1462" d="M158 637q0 113 111.5 205t260.5 92q129 0 211 -35q76 -29 117 -78q18 33 90 68l90 33q49 12 99 12q111 0 213 -80.5t102 -191.5q0 -135 -100 -216q-115 -92 -334 -92h-356q-147 0 -223.5 -37.5t-76.5 -109.5q0 -39 33 -72q33 -29 105 -29q53 0 139 26t154 56 q180 80 266 111q119 41 178 41q86 0 145.5 -50t59.5 -128q0 -80 -60 -133q-59 -49 -141 -49q-84 0 -140.5 46t-56.5 115q0 53 27 88l-4 4l-49 -18q-16 -4 -39 -14.5t-41 -20.5l-88 -43l-86 -47q-86 -47 -174 -82q-83 -28 -151 -28h-5q-104 0 -172.5 58t-68.5 128 q0 266 423 266h371q113 0 204 61.5t91 151.5q0 96 -55.5 148.5t-151.5 52.5q-78 0 -130 -46t-52 -132v-154h-170v131q0 98 -67.5 153.5t-166.5 55.5q-39 0 -98 -16.5t-96 -59.5l4 -6l27 12q16 6 43 7q57 0 106 -48q53 -43 53 -116q0 -88 -53 -142q-49 -53 -113 -53 q-90 0 -147 57.5t-57 147.5zM236 614q0 -43 24.5 -73.5t61.5 -30.5q39 0 62.5 29.5t23.5 74.5q0 43 -24 74t-62 31q-37 0 -61.5 -31t-24.5 -74zM1122 174q0 -43 30 -68.5t75 -25.5q35 0 64.5 24.5t29.5 69.5q0 43 -26.5 69.5t-67.5 26.5q-47 0 -76 -25.5t-29 -70.5z" />
<glyph unicode="Q" horiz-adv-x="2560" d="M158 461q0 182 122.5 319.5t319.5 137.5q66 0 121 -13.5t115 -46.5l61 27l70 20q49 12 120 13q150 0 241 -100.5t91 -254.5l4 -174q0 -145 55.5 -227t155.5 -82q68 0 133 43q57 45 58 117v663h170v-565q0 -102 44 -167t118 -65q113 0 202 97q100 106 101 268 q0 104 -54 197q-61 111 -186 198l57 52q123 -92 199 -219t76 -248q0 -213 -135 -355q-116 -116 -261 -116h-2q-59 0 -99 8t-81 32q-66 39 -108 113q-43 -68 -117 -110.5t-160 -42.5q-129 0 -221 106.5t-92 269.5l-4 187q0 117 -67.5 195.5t-178.5 78.5q-84 0 -119 -14 q106 -88 170 -219q51 -119 51 -215q0 -154 -79 -265q-89 -124 -232 -124h-2q-106 0 -196.5 111.5t-90.5 266.5q0 113 61.5 232t151.5 190q-25 12 -65 19l-76 6q-129 0 -240.5 -111.5t-111.5 -261.5q0 -131 50 -238.5t144 -179.5l-67 -34q-92 74 -154.5 204.5t-62.5 276.5z M594 356q0 -115 65 -186q57 -63 127 -64q80 0 136.5 77t56.5 188q0 61 -8 105t-33 97q-39 92 -137 175q-98 -80 -152.5 -186.5t-54.5 -205.5z" />
<glyph unicode="R" horiz-adv-x="2273" d="M158 358q0 231 141 395.5t379 164.5q102 0 186 -42t125 -116q37 68 115 112q37 20 79 33t83 13q66 0 121 -13.5t114 -46.5l58 27l65 20q59 12 129 13q219 0 364.5 -142.5t145.5 -353.5q0 -113 -62.5 -227.5t-187.5 -214.5l-100 34q86 86 129 172q23 47 37 102.5t14 106.5 q0 182 -117.5 309t-285.5 127q-47 0 -64 -4l-31 -6l-26 -12q111 -92 174 -225q49 -109 49 -215q0 -147 -80 -265q-87 -124 -229 -124h-2q-106 0 -196.5 111.5t-90.5 266.5q0 123 57.5 236t155.5 186q-31 12 -68 19l-73 6q-92 0 -164 -53q-72 -49 -72 -138v-614h-170v614 q0 72 -74 134q-37 29 -79 43q-23 6 -46.5 10t-54.5 4q-166 0 -265 -111.5t-118 -298.5l6 -6q45 72 88 109q51 39 127 39q94 0 168 -93.5t74 -199.5q0 -119 -66.5 -191.5t-170.5 -72.5q-141 0 -222 118q-70 111 -69 260zM258 270q0 -55 43 -120q43 -55 105 -56q59 0 108 58 q37 49 37 106q0 72 -38 125t-103 53q-61 0 -109 -47q-43 -47 -43 -119zM1257 356q0 -106 68 -186q57 -63 127 -64q80 0 136.5 77t56.5 188q0 63 -8.5 108t-32.5 94q-37 92 -138 175q-96 -76 -152.5 -183.5t-56.5 -208.5z" />
<glyph unicode="S" horiz-adv-x="999" d="M158 596q0 137 115.5 229.5t295.5 92.5q104 0 224 -42t180 -104l-55 -55q-51 47 -146.5 80.5t-181.5 33.5q-133 0 -215 -63t-82 -145q0 -43 41 -72q43 -25 104 -25l111 4l96 5q170 0 255 -62.5t85 -173.5q0 -131 -128 -225t-286 -94q-96 0 -197.5 33.5t-197.5 92.5l4 101 q78 -47 190.5 -87t178.5 -40q129 0 215 67q74 59 74 125q0 61 -41 84t-166 23l-117 -6l-90 -4q-113 0 -189.5 62.5t-76.5 164.5z" />
<glyph unicode="T" horiz-adv-x="1095" d="M158 430q0 209 128 348.5t318 139.5q209 0 345 -137.5t136 -336.5q0 -190 -137 -327q-68 -68 -150.5 -102.5t-183.5 -34.5q-190 0 -323 130t-133 320zM223 451q0 -141 102.5 -249t245.5 -108q139 0 241.5 102.5t102.5 241.5q0 143 -101 249t-245 106 q-145 0 -245.5 -100.5t-100.5 -241.5z" />
<glyph unicode="U" horiz-adv-x="2023" d="M158 451q0 203 107.5 335t273.5 132q129 0 218 -94.5t89 -260.5v-188q0 -158 69 -230q60 -65 179 -65h4q68 0 133 43q57 45 57 117v663h170v-565q0 -102 44 -167t118 -65q113 0 203 97q100 106 100 268q0 104 -53 197q-61 111 -187 198l58 52q123 -92 198.5 -219 t75.5 -248q0 -213 -135 -355q-116 -116 -260 -116h-2q-59 0 -99 8t-81 32q-66 39 -109 113q-43 -68 -116.5 -110.5t-159.5 -42.5q-133 0 -238 86q-117 102 -117 290v187q0 115 -47 182.5t-123 67.5q-109 0 -190 -95q-90 -106 -90 -266q0 -119 57 -220t172 -183l-45 -49 q-117 68 -190 186q-84 133 -84 285z" />
<glyph unicode="V" horiz-adv-x="2113" d="M158 451q0 203 111.5 335t269.5 132q129 0 218 -94.5t89 -260.5v-188q0 -150 67 -230q60 -65 169 -65h3q78 0 135.5 45t57.5 121v657h170v-573q0 -111 86 -185q77 -65 183 -65h3q154 0 237 124t83 310l-33 -51q-27 -39 -53 -60q-46 -36 -125 -36h-4q-98 0 -170 93 t-72 199q0 117 68.5 188t169.5 71q139 0 219 -123q65 -109 65 -291q0 -123 -28.5 -216t-91.5 -167q-121 -141 -334 -141q-92 0 -178 36q-100 43 -142 121q-47 -74 -124 -115.5t-165 -41.5q-129 0 -227 86q-117 104 -117 290v187q0 115 -47 182.5t-123 67.5q-109 0 -190 -95 q-90 -106 -90 -266q0 -119 57 -220t172 -183l-45 -49q-117 68 -190 186q-84 133 -84 285zM1718 668q0 -86 39 -144q18 -27 43 -43q29 -14 60 -14q70 0 111.5 47t41.5 117q0 63 -45 124.5t-102 61.5q-68 0 -108 -46t-40 -103z" />
<glyph unicode="W" horiz-adv-x="2258" d="M158 358q0 231 141 395.5t379 164.5q104 0 183 -40t132 -118q41 68 117 113t160 45q215 0 313 -148q33 61 113 109q39 18 79 28.5t83 10.5q160 0 276.5 -135t116.5 -332q0 -111 -51 -207q-70 -131 -244 -264l-88 43q109 111 161 217t52 206q0 180 -96 285q-78 86 -170 86 q-78 0 -135.5 -45t-57.5 -121v-651h-170v565q0 104 -68.5 172t-164.5 68q-72 0 -130.5 -44t-58.5 -102v-659h-170v614q0 72 -74 134q-37 29 -79 43q-23 6 -46.5 10t-54.5 4q-166 0 -265 -111.5t-118 -298.5l6 -6q45 72 88 109q51 39 127 39q94 0 168 -93.5t74 -199.5 q0 -119 -66.5 -191.5t-170.5 -72.5q-141 0 -222 118q-70 111 -69 260zM258 270q0 -55 43 -120q43 -55 105 -56q59 0 108 58q37 49 37 106q0 72 -38 125t-103 53q-61 0 -109 -47q-43 -47 -43 -119z" />
<glyph unicode="X" horiz-adv-x="1607" d="M158 461q0 182 122.5 319.5t319.5 137.5q66 0 121 -13.5t115 -46.5l61 27l70 20q49 12 120 13q221 0 366.5 -142.5t145.5 -353.5q0 -102 -65.5 -221t-185.5 -221l-101 34q84 86 129 172q53 102 54 209q0 182 -118 309t-286 127q-88 0 -123 -22q111 -92 174 -225 q51 -119 51 -215q0 -154 -79 -265q-89 -124 -232 -124h-2q-106 0 -196.5 111.5t-90.5 266.5q0 113 61.5 232t151.5 190q-25 12 -65 19l-76 6q-129 0 -240.5 -111.5t-111.5 -261.5q0 -131 50 -238.5t144 -179.5l-67 -34q-92 74 -154.5 204.5t-62.5 276.5zM594 356 q0 -115 65 -186q57 -63 127 -64q80 0 136.5 77t56.5 188q0 61 -8 105t-33 97q-39 92 -137 175q-98 -80 -152.5 -186.5t-54.5 -205.5z" />
<glyph unicode="Y" horiz-adv-x="1538" d="M182 0v903h172v-833h338v462q0 172 110.5 279t307.5 107q180 0 297 -118t117 -319v-481h-1342zM862 70h596v327q0 408 -309 408q-133 0 -210 -81t-77 -232v-422z" />
<glyph unicode="Z" horiz-adv-x="1015" d="M158 369q0 264 143 415q129 133 328 134q123 0 223 -74t100 -162q0 -147 -133 -217q86 -18 137.5 -75.5t51.5 -127.5q0 -111 -95 -192q-102 -90 -260 -90h-43h-41l-22 4q-43 0 -62 12l-24 123q92 -51 151 -51q84 0 155 50t71 128q0 80 -56 129q-20 18 -64 32.5t-100 14.5 h-124v70h65q39 6 71 10t75 30q77 40 77 123q0 63 -56 112.5t-151 49.5q-154 0 -246.5 -124t-92.5 -335q0 -104 18 -202l12 -62q6 -29 9.5 -41t19.5 -53l-82 -20l-37 190q-18 111 -18 199z" />
<glyph unicode="[" horiz-adv-x="1519" d="M158 442q0 135 61.5 239.5t231.5 236.5l90 -41q-102 -113 -162 -224q-20 -49 -37 -104q-6 -27 -10 -52.5t-4 -50.5q0 -176 96 -280q80 -86 170 -86q68 0 133 43q57 45 57 117v663h170v-565q0 -102 44 -167t118 -65q113 0 203 97q100 106 100 268q0 104 -53 197 q-61 111 -186 198l57 52q123 -92 198.5 -219t75.5 -248q0 -213 -135 -355q-117 -117 -262 -116q-59 0 -99 8t-81 32q-66 39 -109 113q-43 -68 -116.5 -110.5t-159.5 -42.5q-160 0 -275.5 136t-115.5 326z" />
<glyph unicode="\" horiz-adv-x="1519" d="M158 451q0 213 135 352q119 115 262 115q109 0 179.5 -38t109.5 -110q33 61 112 109q39 18 79 28.5t83 10.5q160 0 276.5 -135t116.5 -332q0 -111 -51 -207q-70 -131 -243 -264l-89 43q109 111 161 217t52 206q0 180 -96 285q-78 86 -170 86q-78 0 -135 -45t-57 -121 v-651h-170v565q0 104 -48.5 166t-113.5 62q-111 0 -203 -95q-100 -106 -100 -266q0 -104 53 -196q63 -113 188 -203l-57 -53q-119 94 -196.5 220t-77.5 251z" />
<glyph unicode="]" horiz-adv-x="1509" d="M158 293q0 127 88 215q100 100 270 100q152 0 248 -100t96 -234q0 -31 -4 -54t-18 -56q-18 -59 -52 -94h539v833h172v-903h-954v14q76 47 111.5 115t35.5 139q0 84 -53 146q-59 68 -154 67q-96 0 -165.5 -66.5t-69.5 -160.5q0 -61 24.5 -113.5t81.5 -109.5l-61 -51 q-61 66 -103 151l-24 80z" />
<glyph unicode="^" horiz-adv-x="1982" d="M158 293q0 127 88 215q100 100 270 100q152 0 248 -100t96 -234q0 -31 -4 -54t-18 -56q-18 -59 -52 -94h353v462q0 172 110.5 279t304.5 107q188 0 302 -119t114 -318v-481h-1427v14q76 47 111.5 115t35.5 139q0 84 -53 146q-59 68 -154 67q-96 0 -165.5 -66.5 t-69.5 -160.5q0 -61 24.5 -113.5t81.5 -109.5l-61 -51q-61 66 -103 151l-24 80zM1309 70h596v327q0 408 -312 408q-135 0 -209.5 -81t-74.5 -232v-422z" />
<glyph unicode="_" horiz-adv-x="2152" d="M158 358q0 231 141 395.5t379 164.5q104 0 184 -40t131 -120q31 61 101 106q82 53 170 54q160 0 279.5 -137.5t119.5 -313.5q0 -88 -56.5 -197.5t-144.5 -191.5l4 -8h504l2 833h170l-2 -903h-866v49q88 76 151 176q33 57 50 109q8 29 12 54.5t4 60.5q0 156 -78 262 t-199 106q-80 0 -132 -41t-52 -119v-657h-170v614q0 72 -74 134q-37 29 -79 43q-23 6 -46.5 10t-54.5 4q-166 0 -265 -111.5t-118 -298.5l6 -6q45 72 88 109q51 39 127 39q94 0 168 -93.5t74 -199.5q0 -119 -66.5 -191.5t-170.5 -72.5q-141 0 -222 118q-70 111 -69 260z M258 270q0 -55 43 -120q43 -55 105 -56q59 0 108 58q37 49 37 106q0 72 -38 125t-103 53q-61 0 -109 -47q-43 -47 -43 -119z" />
<glyph unicode="`" horiz-adv-x="1034" d="M158 371q0 276 135 417q123 129 336 130q160 0 272.5 -82t112.5 -199q0 -57 -44 -106.5t-118 -49.5h-47l-31 8l-102 21q-57 0 -92 -29q-37 -25 -37 -67q0 -78 155 -78h25q16 0 25 4l32 2h49q82 0 132 -35q65 -43 65 -129t-80 -151q-78 -59 -219 -60l-88 2h-53 q-25 6 -37 8h-33q-18 0 -43 5l-90 20l-18 107q35 -10 70.5 -18.5t74.5 -14.5l143 -8q201 0 201 104q0 43 -41 63.5t-133 20.5q-147 0 -227 37t-80 117t50 130t138 50l53 -2h37q20 -6 29 -8l84 -9q31 0 55.5 25t24.5 61q0 61 -68.5 110.5t-171.5 49.5q-174 0 -271 -117.5 t-97 -343.5q0 -100 18 -198l43 -160l-86 -18l-39 217l-10 92z" />
<glyph unicode="a" horiz-adv-x="1073" d="M182 0v289q0 252 15.5 330.5t78.5 171.5q43 59 136.5 93t197.5 34q223 0 332 -121q119 -131 119 -424v-373h-879zM248 70q195 139 289 295q81 141 81 258q0 80 -45 131t-108 51q-98 0 -157.5 -95.5t-59.5 -277.5v-362zM442 70h512v307q0 248 -84 359.5t-245 111.5 q143 -106 143 -258q0 -127 -53 -215q-63 -115 -273 -305z" />
<glyph unicode="b" horiz-adv-x="1624" d="M158 500q0 186 98 309q90 109 223 109q84 0 139 -41q55 -37 105 -136q55 72 129 127q78 49 174 50q125 0 216 -109t91 -248q0 -156 -61 -278q-68 -137 -225 -222q43 -12 69 -12q160 0 291 134t131 319q0 98 -43 196.5t-113 167.5l56 52q104 -129 141 -222.5t37 -197.5 q0 -190 -117 -342q-141 -176 -389 -176h-51l-64 10q-35 4 -53 16l-92 -18l-107 -8q-242 0 -413.5 152.5t-171.5 367.5zM223 498q0 -59 7.5 -96t33.5 -87q43 -82 137 -153q57 -45 150 -84q90 -29 174 -29q64 0 119 12q-78 41 -154 168q-86 145 -86 289q0 129 -50 202t-122 73 q-86 0 -147.5 -86t-61.5 -209zM739 510q0 -127 60.5 -243.5t154.5 -168.5q102 49 162 164t60 238t-61.5 214t-153.5 91q-98 0 -166 -98q-55 -86 -56 -197z" />
<glyph unicode="c" horiz-adv-x="1095" d="M158 424q0 207 131 350.5t338 143.5q188 0 323 -154.5t135 -351.5q0 -180 -85 -306t-216 -126q-104 0 -185 95t-81 230q0 137 60.5 253t169.5 202q-6 6 -58 22l-72 11q-145 0 -257.5 -122t-112.5 -274q0 -121 57 -223q45 -82 141 -162l-45 -45q-125 90 -190 238 q-53 119 -53 219zM598 340q0 -92 51 -163t111 -71q68 0 119 78q51 84 51 199q0 104 -38 200.5t-85 131.5q-90 -74 -149.5 -175.5t-59.5 -199.5z" />
<glyph unicode="d" horiz-adv-x="1058" d="M158 430q0 190 112 330q129 158 361 158q174 0 296 -133.5t122 -319.5q0 -137 -74 -258t-238 -227l-57 83q199 137 199 340q0 145 -83 245t-223 100q-133 0 -229 -91.5t-96 -242.5q0 -119 54 -212t169 -167l-35 -55q-127 78 -202.5 201.5t-75.5 248.5z" />
<glyph unicode="e" horiz-adv-x="1497" d="M182 0v399q0 152 24.5 246t94.5 164q51 51 127 80t158 29q125 0 205 -29q86 -25 155 -121q59 -74 80 -203q12 -78 12 -235h-684v-260h959v833h170v-903h-1301zM354 399h607q0 236 -78 328q-39 49 -101 76q-55 28 -126 28h-5q-141 0 -219 -90t-78 -231v-111z" />
<glyph unicode="f" horiz-adv-x="1171" d="M158 494q0 195 136 309.5t355 114.5q221 0 352 -76q113 -66 113 -160q0 -147 -133 -217q86 -18 137 -82t51 -152q0 -231 -335 -231h-410q-66 0 -103.5 -27.5t-37.5 -76.5q0 -31 29.5 -52.5t66.5 -21.5h772v-150h-752q-221 0 -221 197q0 201 223 201h324q147 0 210.5 45 t63.5 131q0 78 -56 127t-177 49v70q49 0 108 38q70 51 70 121q0 66 -67 115q-86 51 -238 51q-156 0 -246 -45q-117 -55 -149 -186l10 -6q73 114 190 114h2q98 0 168 -82q59 -76 60 -178q0 -113 -72 -191.5t-170 -78.5q-117 0 -195.5 93t-78.5 237zM293 442q0 -82 34.5 -130 t90.5 -48q43 0 84 49q37 49 37 127q0 68 -37 117t-90 49q-51 0 -85 -46t-34 -118z" />
<glyph unicode="g" horiz-adv-x="1040" d="M158 600q0 182 143 334l76 -72q-23 -33 -51 -110q-20 -82 -21 -117q0 -115 80 -210t182 -95q-35 53 -63 143q-27 94 -27 152q0 123 72 208t199 85q113 0 209 -91.5t96 -214.5q0 -111 -76 -198q-84 -98 -242 -142l13 -45l4 -51q0 -86 -64 -149q-63 -59 -174 -60 q-72 0 -149 37q-39 18 -69 43t-54 59l53 54q39 -39 94 -78q18 -10 44 -18.5t40 -8.5q51 0 87 36t36 102q0 31 -12 67q-193 0 -316 105q-111 96 -110 235zM627 598q0 -137 84 -264q104 25 178 98t74 182q0 74 -50.5 132.5t-115.5 58.5q-61 0 -121 -62q-49 -59 -49 -145z" />
<glyph unicode="h" horiz-adv-x="1519" d="M158 430q0 190 112 330q129 158 361 158q174 0 296 -133.5t122 -319.5q0 -104 -44 -203.5t-126 -191.5h458v833h170v-903h-848v41q92 68 156 167t64 195q0 145 -83 245t-223 100q-133 0 -229 -91.5t-96 -242.5q0 -119 54 -212t169 -167l-35 -55q-127 78 -202.5 201.5 t-75.5 248.5z" />
<glyph unicode="i" horiz-adv-x="1609" d="M158 424q0 141 79.5 276.5t213.5 217.5l45 -52q-248 -180 -248 -430q0 -135 80 -232.5t196 -97.5q80 0 129 70q29 41 43 98q6 29 10.5 63t4.5 77v147q0 162 105.5 259.5t258.5 97.5q246 0 398 -160q129 -141 129 -346q0 -180 -85 -306t-217 -126q-104 0 -185 95t-81 230 q0 123 60.5 245t185.5 222q-70 59 -178 59q-111 0 -178 -92q-63 -96 -64 -258v-131q0 -162 -96 -266t-223 -104q-160 0 -271.5 136t-111.5 308zM1112 340q0 -90 52.5 -162t109.5 -72q68 0 119 78q51 84 51 199q0 225 -111 342q-113 -88 -167 -187.5t-54 -197.5z" />
<glyph unicode="j" horiz-adv-x="1941" d="M158 293q0 127 88 215q100 100 270 100q152 0 248 -100t96 -234q0 -31 -4 -54t-18 -56q-18 -59 -52 -94h394v295q-131 0 -228.5 91t-97.5 216q0 98 73.5 172t186.5 74q115 0 175.5 -81t60.5 -210v-187q145 37 309 185.5t203 277.5h65v-903h-1384v14q76 47 111.5 115 t35.5 139q0 84 -53 146q-58 67 -151 67h-3q-96 0 -165.5 -66.5t-69.5 -160.5q0 -61 24.5 -113.5t81.5 -109.5l-61 -51q-61 66 -103 151l-24 80zM961 657q0 -82 58.5 -146.5t160.5 -76.5v244q0 61 -33 94t-80 33q-43 0 -74.5 -41t-31.5 -107zM1350 70h405v569 q-61 -78 -192 -164q-123 -80 -213 -98v-307z" />
<glyph unicode="k" horiz-adv-x="2023" d="M158 451q0 213 135 352q119 115 262 115q109 0 179.5 -38t109.5 -110q33 61 112 109q39 18 79 28.5t83 10.5q125 0 230 -87q117 -102 116 -288v-187q0 -104 43 -182q43 -68 113 -68q117 0 210 105.5t93 249.5q0 106 -70.5 225t-177.5 184l56 48q137 -106 208 -244 q35 -66 55.5 -134t20.5 -134q0 -156 -108 -283q-125 -143 -308 -143q-119 0 -196 90q-88 100 -88 266v188q0 152 -68 230q-59 63 -172 63q-78 0 -135 -45t-57 -121v-651h-170v565q0 104 -48.5 166t-113.5 62q-111 0 -203 -95q-100 -106 -100 -266q0 -104 53 -196 q63 -113 188 -203l-57 -53q-119 94 -196.5 220t-77.5 251z" />
<glyph unicode="l" horiz-adv-x="2021" d="M158 293q0 127 88 215q100 100 270 100q152 0 248 -100t96 -234q0 -31 -4 -54t-18 -56q-18 -59 -52 -94h500q-61 61 -112 163q-45 109 -46 203q0 188 121 330q129 152 326 152q184 0 311 -132.5t127 -320.5q0 -137 -73.5 -258t-237.5 -227l-57 83q198 136 198 338 q0 152 -84 249.5t-221 97.5q-139 0 -229 -90.5t-90 -243.5q0 -133 76.5 -245t193.5 -155v-14h-946v14q76 47 111.5 115t35.5 139q0 84 -53 146q-58 67 -151 67h-3q-96 0 -165.5 -66.5t-69.5 -160.5q0 -61 24.5 -113.5t81.5 -109.5l-61 -51q-61 66 -103 151l-24 80z" />
<glyph unicode="m" horiz-adv-x="862" d="M158 334h65q43 -227 211 -228q109 0 185.5 99.5t76.5 259.5q0 143 -71.5 247.5t-169.5 104.5q-188 0 -232 -287h-65q0 158 67 267q80 121 240 121q180 0 289 -140q98 -127 98 -317q0 -197 -98.5 -339t-274.5 -142q-133 0 -227 89t-94 265z" />
<glyph unicode="n" horiz-adv-x="450" d="M-176 995q0 106 92 187.5t211 81.5q123 0 203 -62q92 -74 92 -215v-987h-172v944q0 205 -176 205q-74 0 -123 -43t-62 -111h-65z" />
<glyph unicode="o" horiz-adv-x="681" d="M53 1012q0 94 88 173t217 79q123 0 203 -62q90 -72 90 -215v-987h-170v944q0 129 -55 191q-43 49 -123 49q-29 0 -57 -10q68 -18 108.5 -64.5t40.5 -112.5q0 -57 -50 -109t-114 -52q-68 0 -127 49q-51 51 -51 127zM119 1010q0 -45 24.5 -75t73.5 -30q41 0 77 31t36 74 q0 51 -47 86q-43 37 -111 37q-31 -25 -43 -58q-4 -12 -7 -26.5t-3 -38.5z" />
<glyph unicode="p" horiz-adv-x="565" d="M90 -244q0 98 49 161t142 87q51 115 80.5 222.5t29.5 179.5q0 145 -53 237t-180 135l12 140q299 -66 299 -420q0 -78 -29.5 -211t-89.5 -283q94 -18 147.5 -90t53.5 -174q0 -96 -66 -170q-61 -74 -163 -74q-100 0 -166 78t-66 182zM156 -244q0 -68 40 -113.5t105 -45.5 q61 0 102 47q43 42 43 112q0 59 -42 110.5t-103 51.5t-106 -45q-39 -51 -39 -117z" />
<glyph unicode="q" horiz-adv-x="530" d="M82 -229q0 88 49 155q45 53 133 78q47 109 75 212t28 163q0 133 -49.5 221t-170.5 131l13 131q281 -66 280 -395l-6 -90q-2 -18 -8 -50t-14 -61q-25 -121 -82 -262q90 -16 138 -84t48 -164q0 -86 -62.5 -157.5t-152.5 -71.5q-86 0 -158 74q-61 72 -61 170zM145 -223 q0 -57 37 -106.5t99 -49.5q57 0 97 43t40 111q-18 -14 -47 -31q-14 -8 -28.5 -16.5t-29 -12.5t-34.5 -4q-35 0 -62 17q-20 8 -72 49zM156 -170q55 -66 120 -66q33 0 66 16.5t66 53.5q-45 88 -127 88q-41 0 -78 -24q-20 -18 -47 -68z" />
<glyph unicode="r" horiz-adv-x="694" d="M41 -258q0 115 65 186q70 70 175 70q88 0 155.5 -75t67.5 -169q0 -100 -82 -170l2 -8q78 25 129 97.5t51 154.5q0 66 -39 131q-49 80 -162 180q-88 78 -140 238t-52 395q0 76 14 131h166q-10 -82 -10 -184q0 -106 6 -184t21 -134q29 -100 124 -251q74 -111 106 -189 t32 -139q0 -141 -109 -232q-100 -84 -235 -84q-131 0 -208 69t-77 167zM145 -264q0 -63 42 -111.5t106 -48.5q63 0 104 47t41 113q0 68 -41 115t-104 47q-66 0 -107 -47.5t-41 -114.5z" />
<glyph unicode="s" horiz-adv-x="1112" d="M158 358q0 215 123 381q135 178 344 179q203 0 346 -150q133 -144 133 -324q0 -143 -70 -264q-57 -98 -186 -213l-100 45q88 76 135 183q23 49 37 106t14 109q0 166 -105.5 280.5t-238.5 114.5q-145 0 -254 -123q-92 -109 -113 -287l6 -6q45 72 88 109q51 39 127 39 q94 0 168 -93.5t74 -199.5q0 -119 -66.5 -191.5t-170.5 -72.5q-141 0 -222 118q-70 111 -69 260zM258 270q0 -55 43 -120q43 -55 105 -56q59 0 108 58q37 49 37 106q0 72 -38 125t-103 53q-61 0 -109 -47q-43 -47 -43 -119z" />
<glyph unicode="t" horiz-adv-x="987" d="M158 457q0 193 129 327t338 134q158 0 256 -72t98 -172q0 -78 -55.5 -130t-124.5 -52q-90 0 -147.5 51t-57.5 121q0 88 88 170q-33 14 -68 14q-121 0 -215 -112.5t-94 -278.5q0 -170 92 -289t217 -119q43 0 68 17q-41 27 -64.5 65.5t-23.5 91.5q0 61 56.5 116.5 t148.5 55.5q70 0 125 -49t55 -121q0 -94 -98 -174q-99 -71 -252 -71h-4q-201 0 -334 136t-133 341zM698 217q0 -25 23.5 -69t64.5 -68q59 12 93 57t34 92q0 29 -36.5 63t-75.5 34q-43 0 -73 -33t-30 -76zM698 680q0 -29 6.5 -49.5t22.5 -38.5q29 -31 74 -31q41 0 76.5 31 t35.5 78q0 43 -30.5 86t-96.5 61q-29 -16 -59 -63q-10 -18 -17.5 -37t-11.5 -37z" />
<glyph unicode="u" horiz-adv-x="1394" d="M158 510q0 168 75 276q90 131 256 132q88 0 160 -48q76 -43 99 -102q25 55 100 98q92 51 184 52q154 0 253 -137.5t99 -356.5q0 -186 -102 -307q-125 -150 -379 -150q-186 0 -290.5 73t-104.5 183h65q0 -68 86 -123q84 -45 205 -45q168 0 259 94.5t91 294.5q0 90 -16 155 t-55 118q-72 100 -195 100q-59 0 -108 -47t-49 -102v-285h-173v203q0 96 -49 163.5t-131 67.5q-96 0 -155.5 -92t-59.5 -233l6 -101h-65z" />
<glyph unicode="v" horiz-adv-x="40" d="M-524 1280l2 41l6 37h158l-7 -41l-2 -41q0 -55 45.5 -97t104.5 -42q74 0 129 57q51 63 51 164h66q0 -160 -76 -248t-201 -88q-106 0 -191 71.5t-85 186.5z" />
<glyph unicode="w" horiz-adv-x="851" d="M158 348q0 145 86 249.5t239 104.5q174 0 271 -108q90 -100 90 -256q0 -139 -97.5 -248.5t-250.5 -109.5q-164 0 -258 126q-80 104 -80 242zM223 348q0 -109 65.5 -188.5t166.5 -79.5q106 0 173.5 79t67.5 179q0 92 -65.5 178t-175.5 86q-90 0 -161 -74.5t-71 -179.5z " />
<glyph unicode="x" horiz-adv-x="565" d="M158 186q0 88 53 154q61 78 151 78q72 0 133.5 -62.5t61.5 -154.5q0 -90 -55 -164q-57 -70 -144 -70q-78 0 -139 56q-61 61 -61 163zM158 684q0 88 53 154q61 80 151 80q74 0 134 -66q61 -62 61 -152t-55 -163q-57 -70 -144 -70q-80 0 -140 55.5t-60 161.5zM223 186 q0 -59 31 -104t84 -45q41 0 77 44t36 112q0 72 -35 113.5t-74 41.5q-45 0 -84 -51q-35 -51 -35 -111zM223 684q0 -59 31 -106q31 -41 84 -41q41 0 77 43.5t36 111.5q0 72 -35 114t-74 42q-45 0 -84 -51q-35 -51 -35 -113z" />
<glyph unicode="y" horiz-adv-x="792" d="M37 -274q0 57 36 99t95 42l43 -2l49 -8q39 0 59 20l13 29l4 53h115l6 -45q0 -59 -39 -93t-123 -34q-68 0 -95.5 -22.5t-27.5 -81.5q0 -41 49 -76q49 -31 115 -31q135 0 208.5 75t73.5 195q0 70 -25.5 123.5t-123.5 171.5q-68 86 -111 221q-6 23 -16 72t-16 88 q-12 86 -13 180v201h170v-317q0 -100 37 -212t94 -198q82 -115 118 -200t36 -148q0 -131 -111.5 -226.5t-296.5 -95.5q-152 0 -237.5 59.5t-85.5 160.5z" />
<glyph unicode="z" horiz-adv-x="442" d="M39 0v70h221v833h170v-903h-391z" />
<glyph unicode="{" horiz-adv-x="497" d="M166 145q0 160 43 424q37 231 70 334h67q-45 -162 -80 -388t-35 -335q0 -147 70 -219q63 -57 178 -57h37l57 10q25 2 72 25l-22 -177l-72 -20l-76 -8q-154 0 -225 84q-84 96 -84 327z" />
<glyph unicode="|" horiz-adv-x="1026" d="M37 -274q0 57 36 99t95 42l43 -2l49 -8q39 0 59 20l13 29l4 53h115l6 -45q0 -59 -39 -93t-123 -34q-68 0 -95.5 -22.5t-27.5 -81.5q0 -41 49 -76q49 -31 115 -31q135 0 208.5 75t73.5 195q0 70 -25.5 123.5t-123.5 171.5q-68 86 -111 221q-6 23 -16 72t-16 88 q-12 86 -13 180v201h170v-317q0 -100 37 -212t94 -198q82 -115 118 -200t36 -148q0 -131 -111.5 -226.5t-296.5 -95.5q-152 0 -237.5 59.5t-85.5 160.5zM664 -489q0 76 45 128t116 52q78 0 130.5 -56.5t52.5 -130.5q0 -76 -41 -125q-51 -57 -140 -57q-74 0 -118.5 51.5 t-44.5 137.5zM711 -489q0 -49 28 -84q33 -33 80 -33q43 0 76 36t33 81t-30 86t-79 41t-78.5 -38t-29.5 -89z" />
<glyph unicode="}" horiz-adv-x="1001" d="M37 -274q0 57 36 99t95 42l43 -2l49 -8q39 0 59 20l13 29l4 53h115l6 -45q0 -59 -39 -93t-123 -34q-68 0 -95.5 -22.5t-27.5 -81.5q0 -41 49 -76q49 -31 115 -31q135 0 208.5 75t73.5 195q0 70 -25.5 123.5t-123.5 171.5q-68 86 -111 221q-6 23 -16 72t-16 88 q-12 86 -13 180v201h170v-317q0 -100 37 -212t94 -198q82 -115 118 -200t36 -148q0 -131 -111.5 -226.5t-296.5 -95.5q-152 0 -237.5 59.5t-85.5 160.5zM649 -500q0 74 47.5 125t110.5 51q74 0 127 -55q18 -23 32.5 -56.5t14.5 -74.5q0 -72 -46 -122t-124 -50q-70 0 -116 52 t-46 130zM696 -494q0 -49 29 -84q33 -33 74 -32q43 0 71 35q31 30 31 83q-51 -51 -106 -51q-27 0 -47 11q-18 6 -52 38zM702 -455q43 -49 93 -49q57 0 98 53q-35 68 -94 68q-29 0 -55.5 -18.5t-41.5 -53.5z" />
<glyph unicode="&#xa0;" />
<glyph unicode="&#xa1;" horiz-adv-x="2189" d="M154 274q0 113 70.5 180.5t207.5 67.5h139q0 164 77 280t212 116q127 0 219 -111q80 -104 99 -285h116q37 186 147.5 291t260.5 105q203 0 346 -150q133 -144 133 -324q0 -129 -56.5 -242.5t-199.5 -234.5l-100 45q88 76 135 183q23 49 37 106t14 109q0 166 -105.5 280.5 t-238.5 114.5q-98 0 -186 -80t-119 -203h111q154 0 225 -71q72 -68 71 -207q0 -119 -66.5 -191.5t-170.5 -72.5q-94 0 -175 108.5t-81 276.5l4 86h-96q0 -236 -103 -363q-86 -109 -211 -108q-80 0 -140 33.5t-107 129.5q-31 -72 -88 -120q-55 -43 -113 -43q-90 0 -174 67 q-94 82 -94 227zM301 287q0 -80 40 -143.5t101 -63.5q59 0 94 56t35 140v175h-69q-98 0 -149.5 -45.5t-51.5 -118.5zM635 395q0 -156 59 -239q53 -76 133 -76q100 0 154.5 97.5t54.5 273.5h-399zM637 522h399q0 115 -59 199q-55 84 -146 84q-74 0 -133 -68q-61 -78 -61 -215 zM1341 348q0 -102 41 -178q45 -76 105 -76q68 0 110 58q37 49 37 106q0 82 -43 137.5t-114 55.5h-127l-7 -52z" />
<glyph unicode="&#xa2;" horiz-adv-x="1599" d="M154 274q0 113 70.5 180.5t207.5 67.5h139q0 164 77 280t212 116q127 0 219 -111q80 -104 99 -285h135q119 0 190 -65q86 -74 86 -215q0 -106 -68.5 -184t-168.5 -78q-18 0 -62.5 11t-66.5 27l-11 97q2 -6 31 -23l51 -10q55 0 101.5 46t46.5 138q0 184 -176 185h-82 q0 -236 -103 -363q-86 -109 -211 -108q-80 0 -140 33.5t-107 129.5q-31 -72 -88 -120q-55 -43 -113 -43q-90 0 -174 67q-94 82 -94 227zM301 287q0 -80 40 -143.5t101 -63.5q59 0 94 56t35 140v175h-69q-98 0 -149.5 -45.5t-51.5 -118.5zM508 -401q0 145 111.5 253.5 t273.5 108.5q135 0 217 -82q37 -37 57.5 -97.5t20.5 -131.5q0 -106 37 -160.5t106 -54.5q66 0 121 56t55 138q0 90 -37.5 165t-119.5 130l47 37q84 -61 136 -149t52 -174q0 -121 -81 -212.5t-208 -91.5q-104 0 -168 82q-59 82 -59 222q0 254 -203 253q-74 0 -126 -21.5 t-105 -82.5l4 -4l35 12l41 4q92 0 155.5 -69.5t63.5 -180.5q0 -109 -68 -176q-53 -49 -116 -49q-92 0 -164 72q-78 82 -78 203zM573 -399q0 -80 43 -140q45 -51 123 -51q35 0 69 37t34 82q0 74 -45 116t-119 42q-41 0 -57 -4l-39 -21zM635 395q0 -156 59 -239 q53 -76 133 -76q100 0 154.5 97.5t54.5 273.5h-399zM637 522h399q0 115 -59 199q-55 84 -146 84q-74 0 -133 -68q-61 -78 -61 -215z" />
<glyph unicode="&#xa3;" horiz-adv-x="2672" d="M154 274q0 113 70.5 180.5t207.5 67.5h139q0 164 77 280t212 116q127 0 219 -111q80 -104 99 -285h135q119 0 190 -65q86 -74 86 -215q0 -57 -19.5 -99.5t-51.5 -72.5h393v295q-131 0 -228.5 91t-97.5 216q0 98 74 172t186 74q115 0 175.5 -81t60.5 -210v-187 q141 37 307 187.5t205 275.5h65v-903h-1384v14q63 25 110 90q29 41 43.5 80t14.5 82q0 184 -176 185h-82q0 -236 -103 -363q-86 -109 -211 -108q-80 0 -140 33.5t-107 129.5q-31 -72 -88 -120q-55 -43 -113 -43q-90 0 -174 67q-94 82 -94 227zM301 287q0 -80 40 -143.5 t101 -63.5q59 0 94 56t35 140v175h-69q-98 0 -149.5 -45.5t-51.5 -118.5zM635 395q0 -156 59 -239q53 -76 133 -76q100 0 154.5 97.5t54.5 273.5h-399zM637 522h399q0 115 -59 199q-55 84 -146 84q-74 0 -133 -68q-61 -78 -61 -215zM1690 657q0 -80 60.5 -145.5t160.5 -77.5 v244q0 61 -33 94t-80 33q-37 0 -78 -43q-31 -41 -30 -105zM2081 70h405v569q-66 -84 -189.5 -161t-215.5 -101v-307z" />
<glyph unicode="&#xa4;" horiz-adv-x="1419" d="M158 424q0 141 79.5 276.5t213.5 217.5l45 -52q-248 -180 -248 -430q0 -135 80 -232.5t196 -97.5q80 0 129 70q29 41 43 98q6 29 10.5 63t4.5 77v147q0 160 104 264q96 92 229 93q154 0 260.5 -125.5t106.5 -311.5q0 -145 -81 -286.5t-202 -214.5l-53 51q117 74 180 182 q31 55 47.5 114.5t16.5 127.5q0 156 -96 252q-80 86 -174 86q-84 0 -140 -82q-49 -80 -49 -236v-125q0 -162 -96 -266t-223 -104q-160 0 -271.5 136t-111.5 308zM449 -360q0 20 2 42.5t9 52t36 83.5q45 84 143 151l47 -49q-76 -47 -119 -123q-39 -78 -39 -143 q0 -86 59.5 -151.5t139.5 -65.5q53 0 90 50t37 167q0 84 12.5 143.5t40.5 98.5q55 74 187 73q115 0 205 -93t90 -226q0 -43 -10.5 -80t-37.5 -82q-43 -86 -122 -160l-48 41q139 135 140 281q0 102 -58.5 166.5t-130.5 64.5q-63 0 -108 -69q-39 -78 -39 -222q0 -119 -72 -184 q-70 -70 -160 -70q-104 0 -196 86q-98 92 -98 218z" />
<glyph unicode="&#xa5;" horiz-adv-x="1419" d="M158 424q0 141 79.5 276.5t213.5 217.5l45 -52q-248 -180 -248 -430q0 -135 80 -232.5t196 -97.5q80 0 129 70q29 41 43 98q6 29 10.5 63t4.5 77v147q0 160 104 264q96 92 229 93q154 0 260.5 -125.5t106.5 -311.5q0 -145 -81 -286.5t-202 -214.5l-53 51q117 74 180 182 q31 55 47.5 114.5t16.5 127.5q0 156 -96 252q-80 86 -174 86q-84 0 -140 -82q-49 -80 -49 -236v-125q0 -162 -96 -266t-223 -104q-160 0 -271.5 136t-111.5 308zM332 -401q0 145 111.5 253.5t271.5 108.5q137 0 219 -82q37 -37 57.5 -97.5t20.5 -131.5q0 -104 36.5 -159.5 t104.5 -55.5t123 56t55 138q0 90 -38 165t-119 130l45 37q86 -61 138 -149t52 -174q0 -121 -81 -212.5t-210 -91.5q-104 0 -168 82q-57 82 -57 222q0 254 -203 253q-74 0 -126 -21.5t-105 -82.5l4 -4l35 12l41 4q92 0 155.5 -69.5t63.5 -180.5q0 -109 -68 -176 q-53 -49 -117 -49q-92 0 -163 72q-78 82 -78 203zM397 -399q0 -80 43 -140q45 -51 123 -51q37 0 70 36t33 83q0 74 -45.5 116t-118.5 42q-41 0 -58 -4l-38 -21z" />
<glyph unicode="&#xa6;" horiz-adv-x="1607" d="M158 678q0 84 80.5 162t189.5 78q70 0 119 -41q47 -33 84 -123q31 74 94 118l66 33q37 12 77 13q133 0 214 -105.5t104 -290.5h135q119 0 192 -65q86 -74 86 -215q0 -106 -68.5 -184t-168.5 -78q-18 0 -62.5 11t-66.5 27l-12 97l49 -29l33 -4q55 0 101 46t46 138 q0 184 -176 185h-80q0 -236 -102 -363q-86 -109 -213 -108q-84 0 -139.5 33.5t-108.5 129.5q-31 -72 -88 -120q-55 -43 -113 -43q-90 0 -174 67q-94 82 -94 227q0 78 31.5 134.5t103.5 89.5q-55 18 -94 63q-45 51 -45 117zM305 672q0 -61 58.5 -105.5t142.5 -44.5h74v80 q0 111 -33 157t-96 46q-53 0 -99.5 -40t-46.5 -93zM309 287q0 -80 40 -143.5t102 -63.5q59 0 94 56t35 140v175h-70q-98 0 -149.5 -45.5t-51.5 -118.5zM643 395q0 -156 59 -239q53 -76 134 -76q100 0 154 97.5t54 273.5h-399zM645 522h399q0 115 -59 199q-55 84 -145 84 q-74 0 -133 -68q-61 -78 -62 -215z" />
<glyph unicode="&#xa7;" horiz-adv-x="2381" d="M158 358q0 250 143 396q160 164 471 164q55 0 72 -5l82 -12q90 -12 149 -37q45 25 125 41q74 12 154 13q41 0 82 -10.5t92 -37.5q92 -39 139 -110q39 68 121 113t197 45q137 0 235 -76t98 -160q0 -66 -34.5 -123t-98.5 -94q88 -18 135 -78q54 -57 54 -125 q0 -111 -95 -192q-102 -90 -260 -90l-100 6q-37 0 -68 14l-26 119q35 -23 78 -37t75 -14q84 0 155 50t71 128q0 76 -56.5 126t-162.5 50h-127v70h65q39 6 70.5 10t74.5 30q80 41 80 119q0 59 -57 115q-57 51 -143 51q-92 0 -160 -37q-82 -45 -82 -123v-657h-170v559 q0 104 -83 181t-175 77l-66 -2l27 -20l39 -35q68 -72 68 -144q0 -74 -35 -120q-20 -31 -88 -72q80 -25 118.5 -71t38.5 -115q0 -88 -65 -166q-78 -92 -203 -92q-133 0 -227 116.5t-94 286.5q0 131 44 230.5t146 181.5l-115 24q-61 12 -118 12q-231 0 -373 -126 q-127 -113 -152 -310l6 -6q45 72 88 109q51 39 127 39q94 0 168 -93.5t74 -199.5q0 -119 -66.5 -191.5t-170.5 -72.5q-141 0 -222 118q-70 111 -69 260zM258 270q0 -55 43 -120q43 -55 105 -56q59 0 108 58q37 49 37 106q0 72 -38 125t-103 53q-61 0 -109 -47 q-43 -47 -43 -119zM854 383q0 -109 62.5 -199t148.5 -90q59 0 102 41t43 96q0 51 -48 94.5t-122 43.5h-53v69h51q63 0 112.5 47t49.5 105q0 41 -41 94t-106 84q-82 -41 -135 -139q-63 -117 -64 -246z" />
<glyph unicode="&#xa8;" horiz-adv-x="1558" d="M147 0v70h416q29 10 51 28q12 8 25.5 22.5t28.5 33.5q59 76 59 155q0 68 -44 120t-110 52q-63 0 -114 -51q-45 -51 -45 -125q0 -29 4 -39l14 -30h-88l-14 49l-6 63q0 117 71.5 188.5t196.5 71.5q129 0 225 -92q80 -84 80 -199q0 -133 -102 -247h581v833h170v-1397h-1163 v13l991 477zM702 -414v-10h678v342z" />
<glyph unicode="&#xa9;" horiz-adv-x="2523" d="M158 358q0 231 141 395.5t379 164.5q215 0 311 -158q18 53 83 105.5t145 52.5q59 0 118 -21q39 -12 78 -39q37 25 86 43l49 12l58 5q160 0 270 -123q53 -59 81 -135t28 -164q0 -61 -10.5 -113.5t-37.5 -110.5q-47 -106 -137 -202h541v833h170v-903h-1378v70h507 q76 63 131.5 171.5t55.5 213.5q0 156 -68.5 259t-183.5 103l-51 -2q-25 0 -39 -8q76 -76 118 -163t42 -206q0 -127 -81 -217t-192 -90q-98 0 -164.5 81t-66.5 198q0 111 35.5 188.5t148.5 183.5q-59 35 -115 35q-59 0 -114 -37q-66 -49 -66 -147v-633h-170v614q0 72 -74 134 q-37 29 -79 43q-23 6 -46.5 10t-54.5 4q-166 0 -265 -111.5t-118 -298.5l6 -6q45 72 88 109q51 39 127 39q94 0 168 -93.5t74 -199.5q0 -119 -66.5 -191.5t-170.5 -72.5q-141 0 -222 118q-70 111 -69 260zM258 270q0 -55 43 -120q43 -55 105 -56q59 0 108 58q37 49 37 106 q0 72 -38 125t-103 53q-61 0 -109 -47q-43 -47 -43 -119zM1206 461q0 -82 43 -142.5t103 -60.5q68 0 112.5 60.5t44.5 150.5q0 78 -35.5 154.5t-95.5 124.5q-49 -20 -114 -117q-29 -47 -43.5 -89t-14.5 -81z" />
<glyph unicode="&#xaa;" horiz-adv-x="3319" d="M158 358q0 231 141 395.5t379 164.5q102 0 186 -42t125 -116q37 68 115 112q37 20 79 33t83 13q74 0 139 -19q33 -6 45 -16l43 -25q57 27 125 45l61 10l68 5q104 0 185 -46.5t141 -138.5q31 76 115.5 130.5t181.5 54.5q72 0 116 -15q57 -12 99 -45q35 18 104.5 39 t132.5 21q221 0 365 -156q133 -143 133 -340q0 -102 -65.5 -221t-186.5 -221l-100 34q84 86 129 172q53 102 53 209q0 182 -122 309t-269 127q-43 0 -69 -6t-38 -16q111 -92 174 -225q51 -119 51 -215q0 -154 -79 -265q-90 -125 -234 -124q-106 0 -196.5 111.5t-90.5 266.5 q0 113 61.5 232t151.5 190q-23 14 -61 21l-59 4q-113 0 -179 -53q-78 -61 -77 -185v-567h-170v543q0 117 -73 195.5t-188 78.5q-88 0 -116 -14q106 -88 170 -219q49 -104 49 -215q0 -154 -87 -271.5t-212 -117.5q-115 0 -207 124q-78 115 -78 246q0 49 2 72.5t13.5 76 t50.5 117.5q43 86 133 164q-25 12 -62 19l-73 6q-92 0 -164 -53q-72 -49 -72 -138v-614h-170v614q0 72 -74 134q-37 29 -79 43q-23 6 -46.5 10t-54.5 4q-166 0 -265 -111.5t-118 -298.5l6 -6q45 72 88 109q51 39 127 39q94 0 168 -93.5t74 -199.5q0 -119 -66.5 -191.5 t-170.5 -72.5q-141 0 -222 118q-70 111 -69 260zM258 270q0 -55 43 -120q43 -55 105 -56q59 0 108 58q37 49 37 106q0 72 -38 125t-103 53q-61 0 -109 -47q-43 -47 -43 -119zM1268 356q0 -90 55 -174q57 -76 123 -76q70 0 131 77t61 188q0 100 -34 188q-43 117 -146 189 q-86 -53 -145 -181l-33 -104q-12 -53 -12 -107zM2343 356q0 -115 65 -186q57 -63 129 -64q80 0 135.5 77t55.5 188q0 61 -8 105t-33 97q-39 92 -137 175q-98 -80 -152.5 -186.5t-54.5 -205.5z" />
<glyph unicode="&#xab;" horiz-adv-x="1013" d="M172 -190l227 -68q92 -25 162 -25q100 0 168 41q78 47 78 127q0 57 -41 86t-141 29h-449v70h455q80 0 150.5 58t70.5 144q0 57 -42 82t-169 25l-117 -6l-86 -4q-113 0 -189.5 62.5t-76.5 164.5q0 137 115.5 229.5t296.5 92.5q109 0 226.5 -44.5t176.5 -101.5l-53 -55 q-57 47 -151.5 80.5t-178.5 33.5q-131 0 -214 -63t-83 -145q0 -43 41 -72q43 -25 107 -25l108 4l99 5q170 0 254.5 -62.5t84.5 -173.5q0 -96 -44 -171t-136 -122q72 -18 114 -71.5t42 -114.5q0 -88 -98.5 -152.5t-245.5 -64.5q-86 0 -211 26q-66 12 -122 27.5t-128 40.5v113 z" />
<glyph unicode="&#xac;" horiz-adv-x="2338" d="M158 358q0 231 141 395.5t379 164.5q104 0 183 -40t132 -118q41 68 117 113t160 45q119 0 197.5 -38t115.5 -114q39 61 115 106.5t160 45.5q80 0 133 -13l41 -12q27 -8 51 -23l20 48l8 57q0 57 -40 104q-51 57 -132 58q-45 0 -90 -26t-82 -62l-51 30q39 76 116 130.5 t169 54.5q96 0 155.5 -62.5t59.5 -165.5q0 -100 -78 -202q80 -61 135.5 -185.5t55.5 -249.5q0 -178 -91.5 -298.5t-212.5 -120.5q-98 0 -177 87t-79 209q0 137 62.5 263.5t173.5 224.5q-10 16 -72.5 34.5t-117.5 18.5q-45 0 -75 -7t-63 -34q-55 -41 -55 -117v-659h-170v567 q0 104 -68.5 172t-164.5 68q-80 0 -134.5 -42t-54.5 -106v-659h-170v614q0 72 -74 134q-37 29 -79 43q-23 6 -46.5 10t-54.5 4q-166 0 -265 -111.5t-118 -298.5l6 -6q45 72 88 109q51 39 127 39q94 0 168 -93.5t74 -199.5q0 -119 -66.5 -191.5t-170.5 -72.5q-141 0 -222 118 q-70 111 -69 260zM258 270q0 -55 43 -120q43 -55 105 -56q59 0 108 58q37 49 37 106q0 72 -38 125t-103 53q-61 0 -109 -47q-43 -47 -43 -119zM1847 317q0 -86 43 -151q43 -59 109 -60q72 0 125 80q49 80 49 203q0 213 -115 334q-84 -68 -147 -186q-14 -27 -25.5 -54.5 t-21 -57.5t-13.5 -53.5t-4 -54.5z" />
<glyph unicode="&#xad;" horiz-adv-x="2390" d="M158 358q0 231 141 395.5t379 164.5q104 0 183 -40t132 -118q41 68 117 113t160 45q106 0 205 -62q72 -47 112 -123q61 88 168 136.5t230 48.5q162 0 272 -84q115 -80 115 -197q0 -57 -44 -106.5t-118 -49.5q-49 0 -80 8l-102 21q-49 0 -88 -26.5t-39 -69.5 q0 -78 153 -78h25q16 0 24 4l33 2h49q80 0 133 -35q64 -45 64 -129q0 -86 -80 -151q-78 -59 -219 -60l-88 2h-53q-25 6 -37 8h-33q-16 0 -41 5l-90 20l-21 107l146 -33l145 -8q201 0 201 104q0 43 -41 63.5t-133 20.5q-147 0 -227 37t-80 117t50 130t136 50l94 -6l109 -13 q31 0 56.5 26t25.5 60q0 61 -69 110.5t-173 49.5q-139 0 -225 -47q-55 -31 -84 -65.5t-29 -77.5v-627h-170v565q0 104 -68.5 172t-164.5 68q-80 0 -134.5 -42t-54.5 -106v-657h-170v614q0 72 -74 134q-37 29 -79 43q-23 6 -46.5 10t-54.5 4q-166 0 -265 -111.5t-118 -298.5 l6 -6q45 72 88 109q51 39 127 39q94 0 168 -93.5t74 -199.5q0 -119 -66.5 -191.5t-170.5 -72.5q-141 0 -222 118q-70 111 -69 260zM258 270q0 -55 43 -120q43 -55 105 -56q59 0 108 58q37 49 37 106q0 72 -38 125t-103 53q-61 0 -109 -47q-43 -47 -43 -119z" />
<glyph unicode="&#xae;" horiz-adv-x="2263" d="M158 358q0 231 141 395.5t379 164.5q104 0 183 -40t132 -118q41 68 117 113t160 45q111 0 191.5 -35t121.5 -113q33 61 113 109q39 18 79 28.5t83 10.5q160 0 276.5 -135t116.5 -332q0 -111 -51 -207q-70 -131 -244 -264l-88 43q109 111 161 217t52 206q0 180 -96 285 q-78 86 -170 86q-78 0 -135.5 -45t-57.5 -121v-651h-170v565q0 104 -68.5 173t-164.5 69q-80 0 -134.5 -42t-54.5 -106v-659h-170v614q0 72 -74 134q-37 29 -79 43q-23 6 -46.5 10t-54.5 4q-166 0 -265 -111.5t-118 -298.5l6 -6q45 72 88 109q51 39 127 39q94 0 168 -93.5 t74 -199.5q0 -119 -66.5 -191.5t-170.5 -72.5q-141 0 -222 118q-70 111 -69 260zM258 270q0 -55 43 -120q43 -55 105 -56q59 0 108 58q37 49 37 106q0 72 -38 125t-103 53q-61 0 -109 -47q-43 -47 -43 -119zM803 -391q0 152 99 254t231 102q80 0 147 -35q63 -29 98 -71 q88 106 221 106q68 0 123 -31q37 -25 72 -71q27 43 82 78q49 25 102 24q106 0 191.5 -83t85.5 -214q0 -43 -10.5 -80t-17.5 -51t-25 -43q-51 -88 -140 -153l-61 30q74 68 111.5 135.5t37.5 147.5q0 102 -56 166.5t-138 64.5q-61 0 -92 -30.5t-31 -75.5v-420h-150v399 q0 49 -36 90l-39 25l-52 8q-66 0 -106 -31q-35 -31 -35 -90v-401h-147v385q0 49 -51.5 91t-108.5 42q-92 0 -166 -67.5t-74 -153.5l6 -4q16 27 47 44t74 17q72 0 121 -56t49 -138q0 -84 -43 -133.5t-116 -49.5q-80 0 -146 80q-57 82 -57 193zM885 -469q0 -47 31.5 -76.5 t70.5 -29.5q37 0 61.5 25.5t24.5 72.5q0 45 -27.5 78.5t-70.5 33.5t-66.5 -27.5t-23.5 -76.5z" />
<glyph unicode="&#xaf;" horiz-adv-x="2684" d="M158 461q0 182 122.5 319.5t319.5 137.5q66 0 121 -13.5t115 -46.5l61 27l70 20q49 12 120 13q104 0 185.5 -46.5t140.5 -138.5q31 76 116 130.5t181 54.5q70 0 119 -13.5t96 -46.5q57 27 125 45l61 10l68 5q221 0 369 -166q129 -148 129 -330q0 -102 -65.5 -221 t-186.5 -221l-101 34q84 86 130 172q53 102 53 209q0 182 -118 309t-273 127q-72 0 -84 -4q-14 0 -39 -18q111 -92 174 -225q51 -119 51 -215q0 -147 -80 -265q-88 -125 -231 -124q-106 0 -197.5 111.5t-91.5 266.5q0 117 60.5 232t154.5 190q-29 16 -64 21l-59 4 q-113 0 -178 -53q-78 -61 -78 -185v-567h-170v543q0 119 -71.5 196.5t-186.5 77.5q-84 0 -119 -14q106 -88 170 -219q51 -119 51 -215q0 -154 -79 -265q-90 -125 -234 -124q-106 0 -196.5 111.5t-90.5 266.5q0 113 61.5 232t151.5 190q-25 12 -65 19l-76 6 q-129 0 -240.5 -111.5t-111.5 -261.5q0 -131 50 -238.5t144 -179.5l-67 -34q-92 74 -154.5 204.5t-62.5 276.5zM594 356q0 -115 65 -186q57 -63 127 -64q80 0 136.5 77t56.5 188q0 61 -8 105t-33 97q-39 92 -137 175q-98 -80 -152.5 -186.5t-54.5 -205.5zM1683 356 q0 -106 68 -186q57 -63 127 -64q82 0 137.5 79.5t55.5 185.5q0 111 -43 202q-39 92 -138 175q-98 -80 -152.5 -186.5t-54.5 -205.5z" />
<glyph unicode="&#xb0;" horiz-adv-x="2551" d="M158 461q0 182 122.5 319.5t319.5 137.5q66 0 121 -13.5t115 -46.5q106 59 251 60q203 0 338 -148q123 -135 123 -315l-6 -105q-2 -20 -8 -42.5t-14 -45.5q-25 -78 -107 -192h295v462q0 172 110.5 279t305.5 107q188 0 302 -119t114 -318v-481h-1319v27q68 41 119 147.5 t51 235.5q0 172 -113 296.5t-252 124.5l-74 -6q-31 -4 -49 -16q111 -92 174 -225q51 -119 51 -215q0 -154 -79 -265q-90 -125 -234 -124q-106 0 -196.5 111.5t-90.5 266.5q0 113 61.5 232t151.5 190q-25 12 -65 19l-76 6q-129 0 -240.5 -111.5t-111.5 -261.5 q0 -131 50 -238.5t144 -179.5l-67 -34q-92 74 -154.5 204.5t-62.5 276.5zM594 356q0 -115 65 -186q57 -63 127 -64q80 0 136.5 77t56.5 188q0 61 -8 105t-33 97q-39 92 -137 175q-98 -80 -152.5 -186.5t-54.5 -205.5zM1878 70h596v327q0 408 -311 408q-135 0 -210 -81 t-75 -230v-424z" />
<glyph unicode="&#xb1;" horiz-adv-x="989" d="M158 369q0 270 131 415q121 133 311 134q125 0 226.5 -75t101.5 -161q0 -66 -35 -123t-98 -94q84 -18 135 -75.5t51 -127.5q0 -197 -164 -260q74 -18 119 -63q20 -23 32.5 -51.5t12.5 -63.5q0 -98 -93 -159.5t-218 -61.5l-62 2q-20 0 -67 12q-43 6 -74 18 q-10 2 -22.5 5.5t-43.5 17.5l-30 129q25 -16 107.5 -43t139.5 -27q76 0 134.5 35t58.5 90q0 68 -53 115q-53 43 -158 43h-164v70h158q98 0 157.5 46t59.5 130q0 74 -55 127q-55 49 -162 49h-127v70q137 0 214 40.5t77 124.5q0 61 -56.5 110.5t-152.5 49.5q-143 0 -232 -125 q-41 -63 -61 -145q-8 -35 -14 -86t-6 -103q0 -104 18 -202q6 -47 39 -156l-78 -20l-37 180q-20 147 -20 209z" />
<glyph unicode="&#xb2;" horiz-adv-x="1855" d="M158 369q0 264 143 415q129 133 330 134q127 0 209 -70q74 -61 73 -143q0 -63 -31.5 -115.5t-97.5 -81.5l-4 -4q63 -12 113.5 -64.5t50.5 -115.5q0 -53 -49 -97q-49 -39 -115 -39q-92 0 -115.5 -11t-23.5 -46q0 -37 55 -59q31 -8 61.5 -12.5t76.5 -4.5q123 0 199.5 52.5 t76.5 132.5v663h170v-569q0 -106 47 -167t125 -61q117 0 210 105.5t93 249.5q0 106 -70.5 225t-177.5 184l56 48q137 -106 209 -244q35 -66 55 -134t20 -134q0 -156 -108 -283q-125 -143 -307 -143q-98 0 -172 36.5t-111 116.5q-55 -80 -155.5 -129t-215.5 -49 q-145 0 -229 49q-78 49 -78 131q0 111 133 123q80 0 125 27.5t45 70.5q0 37 -38 74t-103 37h-133v70h102q72 0 106.5 40.5t34.5 106.5q0 53 -46 93t-122 40q-154 0 -246.5 -124t-92.5 -335q0 -104 18 -202l12 -62q6 -29 9.5 -41t19.5 -53l-82 -20l-37 190q-18 111 -18 199z " />
<glyph unicode="&#xb3;" horiz-adv-x="1599" d="M158 451q0 213 135 352q119 115 262 115q109 0 179.5 -38t109.5 -114q39 61 114.5 106.5t159.5 45.5q80 0 133 -13l41 -12q27 -8 51 -23l21 48l8 57q0 57 -41 104q-51 57 -131 58q-45 0 -90 -26t-82 -62l-51 30q39 76 115.5 130.5t169.5 54.5q96 0 155.5 -62.5 t59.5 -165.5q0 -100 -78 -202q80 -61 135 -185.5t55 -249.5q0 -178 -91 -298.5t-212 -120.5q-98 0 -177 87t-79 209q0 137 62.5 263.5t173.5 224.5q-10 16 -73 34.5t-118 18.5q-45 0 -74.5 -7t-62.5 -34q-55 -41 -55 -117v-659h-170v565q0 104 -48.5 166t-113.5 62 q-111 0 -203 -95q-100 -106 -100 -266q0 -104 53 -196q63 -113 188 -203l-57 -53q-119 94 -196.5 220t-77.5 251zM1108 317q0 -84 43 -151q43 -59 106 -60q74 0 125 78q52 86 52 205q0 213 -115 334q-84 -68 -148 -186q-14 -27 -25 -54.5t-20.5 -57.5t-13.5 -53.5t-4 -54.5z " />
<glyph unicode="&#xb4;" horiz-adv-x="2138" d="M158 451q0 213 135 352q119 115 262 115q109 0 179.5 -38t109.5 -110q49 74 130 111t169 37q45 0 65 -5q29 -2 68 -18l90 -37l57 27l66 20q59 12 129 13q219 0 364.5 -142.5t145.5 -353.5q0 -113 -62.5 -227.5t-187.5 -214.5l-100 34q86 86 129 172q23 47 37 102.5 t14 106.5q0 182 -118 309t-286 127q-82 0 -120 -22q111 -92 174 -225q49 -109 49 -215q0 -147 -80 -265q-88 -125 -231 -124q-106 0 -196.5 111.5t-90.5 266.5q0 123 57.5 236t155.5 186l-68 29l-90 8q-100 0 -166 -47q-66 -43 -65 -119v-651h-170v565q0 104 -48.5 166 t-113.5 62q-111 0 -203 -95q-100 -106 -100 -266q0 -104 53 -196q63 -113 188 -203l-57 -53q-119 94 -196.5 220t-77.5 251zM1122 356q0 -106 68 -186q57 -63 127 -64q80 0 136 77t56 188q0 63 -8 108t-33 94q-37 92 -137 175q-96 -76 -152.5 -183.5t-56.5 -208.5z" />
<glyph unicode="&#xb5;" horiz-adv-x="1558" d="M158 451q0 213 135 352q119 115 262 115q109 0 179.5 -38t109.5 -110q104 147 319 148q137 0 235.5 -76t98.5 -160q0 -66 -35 -123t-98 -94q84 -18 135 -75.5t51 -127.5q0 -111 -94 -192q-102 -90 -258 -90l-100 6q-37 0 -68 14l-26 119q92 -51 151 -51q84 0 154.5 50 t70.5 128q0 74 -55 127q-55 49 -162 49h-127v70q74 0 120 8t91 32q78 41 78 119q0 68 -55.5 117t-143.5 49q-94 0 -168.5 -39t-74.5 -121v-657h-170v565q0 104 -48.5 166t-113.5 62q-111 0 -203 -95q-100 -106 -100 -266q0 -104 53 -196q63 -113 188 -203l-57 -53 q-119 94 -196.5 220t-77.5 251z" />
<glyph unicode="&#xb6;" horiz-adv-x="2113" d="M158 451q0 213 135 352q119 115 262 115q111 0 178 -41q70 -37 113 -117q43 68 119.5 113t156.5 45q113 0 187.5 -32t128.5 -116q37 63 111.5 105.5t162.5 42.5q160 0 276.5 -135t116.5 -332q0 -111 -51 -207q-70 -131 -244 -264l-90 43q111 111 163 217t52 206 q0 180 -96 285q-78 86 -170 86q-78 0 -135 -45t-57 -121v-651h-170v565q0 104 -69 172t-165 68q-74 0 -127 -33q-63 -41 -63 -121v-651h-170v565q0 104 -48.5 166t-113.5 62q-111 0 -203 -95q-100 -106 -100 -266q0 -104 53 -196q63 -113 188 -203l-57 -53 q-119 94 -196.5 220t-77.5 251z" />
<glyph unicode="&#xb7;" horiz-adv-x="1685" d="M158 451q0 213 135 352q119 115 262 115q221 0 289 -170h10q55 90 154.5 130t214.5 40q223 0 331 -121q119 -131 119 -424v-373h-960v565q0 104 -48.5 166t-113.5 62q-111 0 -203 -95q-100 -106 -100 -266q0 -104 53 -196q63 -113 188 -203l-57 -53q-119 94 -196.5 220 t-77.5 251zM862 70q195 141 289 295q82 139 82 258q0 82 -46 132t-110 50q-94 0 -154.5 -99.5t-60.5 -289.5v-346zM1055 70h514v307q0 248 -84 359.5t-248 111.5q143 -102 143 -258q0 -127 -53 -215q-63 -115 -272 -305z" />
<glyph unicode="&#xb8;" horiz-adv-x="1509" d="M158 293q0 127 88 215q100 100 270 100q152 0 248 -100t96 -234q0 -31 -4 -54t-18 -56q-18 -59 -52 -94h549v833h166v-1542h-852v27q55 37 88 90l25 53l8 53q0 63 -47 112.5t-123 49.5q-72 0 -127 -49q-51 -51 -51 -125q0 -49 18.5 -86t61.5 -86l-41 -39 q-104 121 -105 242q0 100 71 171.5t204 71.5q113 0 186.5 -74.5t73.5 -181.5l-2 -41q0 -14 -15 -45q-16 -51 -38 -73h501v569h-794v14q76 47 111.5 115t35.5 139q0 84 -53 146q-59 68 -154 67q-96 0 -165.5 -66.5t-69.5 -160.5q0 -61 24.5 -113.5t81.5 -109.5l-61 -51 q-61 66 -103 151l-24 80z" />
<glyph unicode="&#xb9;" horiz-adv-x="1509" d="M158 293q0 127 88 215q100 100 270 100q152 0 248 -100t96 -234q0 -31 -4 -54t-18 -56q-18 -59 -52 -94h539v833h172v-903h-954v14q76 47 111.5 115t35.5 139q0 84 -53 146q-59 68 -154 67q-96 0 -165.5 -66.5t-69.5 -160.5q0 -61 24.5 -113.5t81.5 -109.5l-61 -51 q-61 66 -103 151l-24 80zM403 -401q0 145 112 253.5t271 108.5q137 0 220 -82q37 -37 57 -97.5t20 -131.5q0 -106 37 -160.5t107 -54.5q66 0 121 56t55 138q0 90 -38 165t-120 130l45 37q86 -61 138.5 -149t52.5 -174q0 -121 -81 -212.5t-210 -91.5q-104 0 -168 82 q-57 82 -57 222q0 254 -203 253q-74 0 -126 -21.5t-106 -82.5l5 -4l34 12l41 4q92 0 155.5 -69.5t63.5 -180.5q0 -109 -67 -176q-53 -49 -117 -49q-92 0 -164 72q-78 82 -78 203zM469 -399q0 -80 43 -140q45 -51 123 -51q35 0 68.5 37t33.5 82q0 74 -45 116t-119 42 q-41 0 -57 -4l-39 -21z" />
<glyph unicode="&#xba;" horiz-adv-x="2152" d="M158 358q0 231 141 395.5t379 164.5q104 0 184 -40t131 -120q31 61 101 106q82 53 170 54q160 0 279.5 -137.5t119.5 -313.5q0 -88 -56.5 -197.5t-144.5 -191.5l4 -8h504v833h170v-1397h-1003v13l831 477l-694 4v49q88 76 151 176q33 57 50 109q8 29 12 54.5t4 60.5 q0 156 -78 262t-199 106q-80 0 -132 -41t-52 -119v-657h-170v614q0 72 -74 134q-37 29 -79 43q-23 6 -46.5 10t-54.5 4q-166 0 -265 -111.5t-118 -298.5l6 -6q45 72 88 109q51 39 127 39q94 0 168 -93.5t74 -199.5q0 -119 -66.5 -191.5t-170.5 -72.5q-141 0 -222 118 q-70 111 -69 260zM258 270q0 -55 43 -120q43 -55 105 -56q59 0 108 58q37 49 37 106q0 72 -38 125t-103 53q-61 0 -109 -47q-43 -47 -43 -119zM1384 -414v-10h590v342z" />
<glyph unicode="&#xbb;" horiz-adv-x="2152" d="M158 358q0 231 141 395.5t379 164.5q104 0 184 -40t131 -120q31 61 101 106q82 53 170 54q160 0 279.5 -137.5t119.5 -313.5q0 -88 -56.5 -197.5t-144.5 -191.5l4 -8h504v833h170v-903h-866v49q88 76 151 176q33 57 50 109q8 29 12 54.5t4 60.5q0 156 -78 262t-199 106 q-80 0 -132 -41t-52 -119v-657h-170v614q0 72 -74 134q-37 29 -79 43q-23 6 -46.5 10t-54.5 4q-166 0 -265 -111.5t-118 -298.5l6 -6q45 72 88 109q51 39 127 39q94 0 168 -93.5t74 -199.5q0 -119 -66.5 -191.5t-170.5 -72.5q-141 0 -222 118q-70 111 -69 260zM258 270 q0 -55 43 -120q43 -55 105 -56q59 0 108 58q37 49 37 106q0 72 -38 125t-103 53q-61 0 -109 -47q-43 -47 -43 -119zM1061 -401q0 147 110.5 254.5t272.5 107.5q137 0 219 -82q37 -37 57.5 -97.5t20.5 -131.5q0 -104 37 -159.5t104 -55.5q72 0 124 58t52 136q0 188 -155 295 l45 37q86 -61 138 -149t52 -174q0 -121 -81 -212.5t-210 -91.5q-104 0 -168 82q-59 82 -59 222q0 254 -203 253q-76 0 -124 -19t-107 -85l4 -4l39 12l39 4q90 0 153.5 -69.5t63.5 -180.5q0 -104 -68 -176q-53 -49 -114 -49q-96 0 -166 72q-76 82 -76 203zM1126 -399 q0 -86 41 -140q45 -51 123 -51q45 0 75 35t30 84q0 76 -46 117t-118 41q-41 0 -57 -4l-39 -21z" />
<glyph unicode="&#xbc;" horiz-adv-x="2007" d="M158 451q0 213 135 352q119 115 262 115q109 0 179.5 -38t109.5 -110q33 61 112 109q39 18 79 28.5t83 10.5q160 0 276.5 -135.5t116.5 -331.5q0 -47 -12 -99.5t-41 -103.5q-25 -53 -56.5 -93t-82.5 -85h504v833h170v-903h-850v47q98 92 155 219q43 98 43 180 q0 180 -96 285q-78 86 -170 86q-78 0 -135 -45t-57 -121v-651h-170v565q0 104 -48.5 166t-113.5 62q-111 0 -203 -95q-100 -106 -100 -266q0 -104 53 -196q63 -113 188 -203l-57 -53q-119 94 -196.5 220t-77.5 251z" />
<glyph unicode="&#xbd;" horiz-adv-x="1884" d="M182 0v289q0 252 15.5 330.5t78.5 171.5q43 59 136.5 93t197.5 34q106 0 185 -27q82 -25 123 -76q41 -31 67 -82l35 -92q12 45 43 109q31 49 72 84q41 29 122 57q86 27 164 27q223 0 332 -121q119 -131 119 -424v-373h-1690zM248 70q195 139 289 295q81 141 81 258 q0 80 -45 131t-108 51q-98 0 -157.5 -95.5t-59.5 -277.5v-362zM442 70h512v307q0 248 -84 359.5t-245 111.5q143 -106 143 -258q0 -127 -53 -215q-63 -115 -273 -305zM1061 70q195 141 289 295q82 139 82 258q0 82 -46.5 132t-109.5 50q-98 0 -156.5 -97.5t-58.5 -275.5 v-362zM1253 70h514v307q0 248 -84 359.5t-247 111.5q143 -106 143 -258q0 -127 -53 -215q-63 -115 -273 -305z" />
<glyph unicode="&#xbe;" horiz-adv-x="1118" d="M145 -401q0 150 93.5 258t257.5 108q129 0 197.5 -79t68.5 -236q0 -123 25.5 -169t80.5 -46q78 0 123 58t45 140q0 166 -155 279l37 53q92 -66 144 -159t52 -189q0 -109 -63 -190q-72 -92 -179 -93q-125 0 -180 80q-51 80 -51 228q0 61 -10 105t-37 81q-43 68 -129 68 q-63 0 -105 -21q-68 -31 -110 -104l8 -2l41 12l43 6q88 0 152 -63q57 -63 57 -185q0 -98 -62 -164q-57 -51 -127 -51q-78 0 -143 72q-74 80 -74 203zM182 0v289q0 252 15.5 330.5t78.5 171.5q43 59 136.5 93t197.5 34q223 0 332 -121q119 -131 119 -424v-373h-879zM211 -399 q0 -80 37 -135.5t94 -55.5q45 0 82 30t37 93q0 70 -45 115q-45 39 -101 39q-39 0 -58 -5.5t-36 -19.5l-8 -33zM248 70q195 139 289 295q81 141 81 258q0 80 -45 131t-108 51q-98 0 -157.5 -95.5t-59.5 -277.5v-362zM442 70h512v307q0 248 -84 359.5t-245 111.5 q143 -106 143 -258q0 -127 -53 -215q-63 -115 -273 -305z" />
<glyph unicode="&#xbf;" horiz-adv-x="1624" d="M158 500q0 186 98 309q90 109 223 109q84 0 139 -41q55 -37 105 -136q55 72 129 127q78 49 174 50q125 0 216 -109t91 -248q0 -156 -61 -278q-68 -137 -225 -222q43 -12 69 -12q160 0 291 134t131 319q0 98 -43 196.5t-113 167.5l56 52q104 -129 141 -222.5t37 -197.5 q0 -57 -8.5 -102.5t-32.5 -106.5q-41 -113 -125 -185v-598h-1004v13l824 471v14q-74 -25 -158 -24h-53l-64 10q-35 4 -53 16l-92 -18l-107 -8q-242 0 -413.5 152.5t-171.5 367.5zM223 498q0 -59 7.5 -96t33.5 -87q43 -82 137 -153q57 -45 150 -84q90 -29 174 -29 q64 0 119 12q-78 41 -154 168q-86 145 -86 289q0 129 -50 202t-122 73q-86 0 -147.5 -86t-61.5 -209zM684 -414v-10h594v344zM739 510q0 -127 60.5 -243.5t154.5 -168.5q102 49 162 164t60 238t-61.5 214t-153.5 91q-98 0 -166 -98q-55 -86 -56 -197z" />
<glyph unicode="&#xc0;" horiz-adv-x="1095" d="M158 424q0 207 131 350.5t338 143.5q117 0 207 -58q16 20 30.5 50t14.5 65q0 59 -39 104q-51 57 -133 58q-45 0 -90.5 -26t-81.5 -62l-52 30q39 76 116 130.5t169 54.5q96 0 155.5 -62.5t59.5 -165.5q0 -98 -88 -211q94 -88 142 -195t48 -218q0 -180 -85 -306t-216 -126 q-104 0 -185 95t-81 230q0 137 60.5 253t169.5 202q-6 6 -58 22l-72 11q-145 0 -257.5 -122t-112.5 -274q0 -121 57 -223q45 -82 141 -162l-45 -45q-125 90 -190 238q-53 119 -53 219zM598 340q0 -92 51 -163t111 -71q68 0 119 78q51 84 51 199q0 104 -38 200.5t-85 131.5 q-90 -74 -149.5 -175.5t-59.5 -199.5z" />
<glyph unicode="&#xc1;" horiz-adv-x="2054" d="M158 430q0 190 112 330q129 158 361 158q174 0 296 -133.5t122 -319.5q0 -137 -74 -258t-238 -227l-57 83q199 137 199 340q0 145 -83 245t-223 100q-133 0 -229 -91.5t-96 -242.5q0 -119 54 -212t169 -167l-35 -55q-127 78 -202.5 201.5t-75.5 248.5zM1137 430 q0 190 112 330q129 158 361 158q174 0 296 -133.5t122 -319.5q0 -137 -74 -258t-238 -227l-57 83q199 137 199 340q0 145 -83 245t-223 100q-139 0 -231 -90.5t-92 -243.5q0 -233 221 -379l-35 -55q-127 78 -202.5 201.5t-75.5 248.5z" />
<glyph unicode="&#xc2;" horiz-adv-x="1775" d="M158 461q0 182 122.5 319.5t319.5 137.5l64 -3q20 0 65 -14q45 -10 109 -47q43 25 149 47l86 12l84 5q100 0 193 -27q96 -25 159 -76q27 35 45 82l13 43l4 35q0 57 -41 104q-51 57 -131 58q-45 0 -90 -26t-82 -62l-51 30q37 80 113.5 132.5t168.5 52.5q104 0 160.5 -62.5 t56.5 -165.5l-6 -53l-27 -65q-16 -39 -35.5 -73t-47.5 -71q88 -70 148 -194t60 -230q0 -139 -85 -254.5t-195 -115.5q-131 0 -213 100q-61 80 -62 190q0 131 58 248q49 100 160 211q-53 55 -132 86l-81 25l-95 8l-61 -2h-37q-18 -6 -54 -10.5t-71 -24.5q117 -98 178 -227 q23 -51 37 -107q6 -31 10 -55.5t4 -52.5q0 -154 -79 -265q-90 -125 -234 -124q-106 0 -196.5 111.5t-90.5 266.5q0 113 61.5 232t151.5 190q-25 12 -65 19l-76 6q-129 0 -240.5 -111.5t-111.5 -261.5q0 -131 50 -238.5t144 -179.5l-67 -34q-92 74 -154.5 204.5t-62.5 276.5z M594 356q0 -115 65 -186q57 -63 127 -64q80 0 136.5 77t56.5 188q0 61 -8 105t-33 97q-39 92 -137 175q-98 -80 -152.5 -186.5t-54.5 -205.5zM1290 313q0 -86 43 -146.5t107 -60.5q63 0 116.5 69t53.5 167q0 90 -40 191.5t-100 146.5q-68 -55 -124 -167t-56 -200z" />
<glyph unicode="&#xc3;" horiz-adv-x="1497" d="M182 0v399q0 152 24.5 246t94.5 164q51 51 127 80t158 29q125 0 205 -29q86 -25 155 -121q59 -74 80 -203q12 -78 12 -235h-684v-260h959v833h170v-903h-1301zM354 399h607q0 236 -78 328q-39 49 -101 76q-57 29 -131 28q-141 0 -219 -90t-78 -231v-111zM391 -401 q0 147 110.5 254.5t272.5 107.5q137 0 219 -82q37 -37 57.5 -97.5t20.5 -131.5q0 -104 37 -159.5t104 -55.5q72 0 124.5 58t52.5 136q0 188 -156 295l45 37q86 -61 138 -149t52 -174q0 -121 -80.5 -212.5t-209.5 -91.5q-104 0 -168 82q-59 82 -60 222q0 254 -202 253 q-76 0 -124.5 -19t-107.5 -85l6 -4l35 12l41 4q90 0 153.5 -69.5t63.5 -180.5q0 -104 -67 -176q-53 -49 -115 -49q-96 0 -166 72q-76 82 -76 203zM457 -399q0 -86 41 -140q45 -51 125 -51q37 0 69.5 36t32.5 83q0 76 -46 117t-118 41q-41 0 -57 -4l-39 -21z" />
<glyph unicode="&#xc4;" horiz-adv-x="1609" d="M158 424q0 141 79.5 276.5t213.5 217.5l45 -52q-248 -180 -248 -430q0 -135 80 -232.5t196 -97.5q80 0 129 70q29 41 43 98q6 29 10.5 63t4.5 77v147q0 162 105.5 259.5t258.5 97.5q84 0 143.5 -13.5t131.5 -56.5q39 59 39 127q0 59 -39 104q-51 57 -133 58 q-45 0 -90.5 -26t-82.5 -62l-49 30q37 76 114 130.5t169 54.5q96 0 155.5 -62.5t59.5 -165.5q0 -94 -84 -221q80 -49 135 -168q29 -61 43.5 -117.5t14.5 -117.5q0 -180 -85 -306t-217 -126q-104 0 -185 95t-81 230q0 123 60.5 245t185.5 222q-70 59 -178 59q-111 0 -178 -92 q-63 -96 -64 -258v-131q0 -162 -96 -266t-223 -104q-160 0 -271.5 136t-111.5 308zM1112 340q0 -90 52.5 -162t109.5 -72q68 0 119 78q51 84 51 199q0 225 -111 342q-113 -88 -167 -187.5t-54 -197.5z" />
<glyph unicode="&#xc5;" horiz-adv-x="2351" d="M158 494q0 195 136 309.5t355 114.5q221 0 352 -76q113 -66 113 -160q0 -147 -133 -217q86 -18 137 -82t51 -152q0 -231 -335 -231h-410q-66 0 -103.5 -27.5t-37.5 -76.5q0 -31 29.5 -52.5t66.5 -21.5h975l-2 47q0 201 223 201h323q147 0 211 45t64 131q0 78 -56.5 127 t-177.5 49v70q49 0 109 38q70 51 70 121q0 66 -68 115q-86 51 -238 51q-156 0 -245 -45q-117 -55 -150 -186l8 -6q78 115 195 114q92 0 164 -80q14 -18 24.5 -37.5t20.5 -45t14 -46t4 -51.5q0 -113 -71.5 -191.5t-169.5 -78.5q-117 0 -196 93t-79 237q0 195 136.5 309.5 t355.5 114.5q221 0 352 -76q113 -66 113 -160q0 -147 -134 -217q84 -18 136.5 -82t52.5 -152q0 -231 -336 -231h-410q-66 0 -103.5 -27.5t-37.5 -76.5q0 -31 30 -52.5t66 -21.5h772v-150h-1925q-221 0 -221 197q0 201 223 201h324q147 0 210.5 45t63.5 131q0 78 -56 127 t-177 49v70q49 0 108 38q70 51 70 121q0 66 -67 115q-86 51 -238 51q-156 0 -246 -45q-117 -55 -149 -186l10 -6q74 115 192 114q98 0 168 -82q59 -76 60 -178q0 -113 -72 -191.5t-170 -78.5q-117 0 -195.5 93t-78.5 237zM293 442q0 -82 34.5 -130t90.5 -48q43 0 84 49 q37 49 37 127q0 68 -37 117t-90 49q-51 0 -85 -46t-34 -118zM1466 442q0 -82 35 -130t90 -48q43 0 84 49q37 49 37 127q0 68 -37 117t-90 49q-51 0 -85 -46t-34 -118z" />
<glyph unicode="&#xc6;" horiz-adv-x="1519" d="M158 430q0 188 135 338t338 150q174 0 296 -133.5t122 -319.5q0 -104 -44 -203.5t-126 -191.5h454v833h170v-1397h-1005v13l833 477l-672 4v41q92 68 156 167t64 195q0 145 -83 245t-223 100q-133 0 -229 -91.5t-96 -242.5q0 -119 54 -212t169 -167l-35 -55 q-127 78 -202.5 201.5t-75.5 248.5zM743 -424h594v342l-589 -332z" />
<glyph unicode="&#xc7;" horiz-adv-x="1609" d="M158 424q0 141 79.5 276.5t213.5 217.5l45 -52q-248 -180 -248 -430q0 -135 80 -232.5t196 -97.5q80 0 129 70q29 41 43 98q6 29 10.5 63t4.5 77v147q0 162 105.5 259.5t258.5 97.5q246 0 398 -160q129 -141 129 -346q0 -180 -85 -306t-217 -126q-104 0 -185 95t-81 230 q0 123 60.5 245t185.5 222q-70 59 -178 59q-111 0 -178 -92q-63 -96 -64 -258v-131q0 -162 -96 -266t-223 -104q-160 0 -271.5 136t-111.5 308zM506 -401q0 145 111.5 253.5t273.5 108.5q135 0 217 -82q37 -37 57.5 -97.5t20.5 -131.5q0 -106 37 -160.5t106 -54.5 q66 0 121 56t55 138q0 90 -37.5 165t-119.5 130l47 37q84 -61 136 -149t52 -174q0 -121 -81 -212.5t-208 -91.5q-104 0 -168 82q-59 82 -59 222q0 254 -203 253q-74 0 -126 -21.5t-105 -82.5l4 -4l35 12l41 4q92 0 155.5 -69.5t63.5 -180.5q0 -109 -68 -176 q-53 -49 -116 -49q-92 0 -164 72q-78 82 -78 203zM571 -399q0 -80 43 -140q45 -51 123 -51q35 0 69 37t34 82q0 74 -45 116t-119 42q-41 0 -58 -4l-38 -21zM1112 340q0 -90 52.5 -162t109.5 -72q68 0 119 78q51 84 51 199q0 225 -111 342q-113 -88 -167 -187.5t-54 -197.5z " />
<glyph unicode="&#xc8;" horiz-adv-x="1609" d="M158 424q0 141 79.5 276.5t213.5 217.5l45 -52q-248 -180 -248 -430q0 -135 80 -232.5t196 -97.5q80 0 129 70q29 41 43 98q6 29 10.5 63t4.5 77v147q0 162 105.5 259.5t258.5 97.5q246 0 398 -160q129 -141 129 -346q0 -180 -85 -306t-217 -126q-104 0 -185 95t-81 230 q0 123 60.5 245t185.5 222q-70 59 -178 59q-111 0 -178 -92q-63 -96 -64 -258v-131q0 -162 -96 -266t-223 -104q-160 0 -271.5 136t-111.5 308zM516 -362q0 86 52.5 173t138.5 150l45 -37q-74 -49 -117 -129q-39 -84 -39 -166q0 -78 52 -136t124 -58q61 0 101 52t40 163 q0 147 78 229t219 82q162 0 271.5 -111.5t109.5 -275.5q0 -111 -68.5 -185.5t-160.5 -74.5q-86 0 -142.5 63.5t-56.5 151.5q0 90 41 170q16 33 56 78l83 76l-47 28q-27 10 -59 10q-203 0 -203 -253q0 -143 -59.5 -223.5t-167.5 -80.5q-121 0 -206 93.5t-85 210.5zM1112 340 q0 -90 52.5 -162t109.5 -72q68 0 119 78q51 84 51 199q0 225 -111 342q-113 -88 -167 -187.5t-54 -197.5zM1229 -469q0 -53 37 -92t75 -39q45 0 88.5 54t43.5 122q0 145 -87 231q-74 -51 -120 -124q-37 -68 -37 -152z" />
<glyph unicode="&#xc9;" horiz-adv-x="2039" d="M158 451q0 213 135 352q119 115 262 115q109 0 179.5 -38t109.5 -110q33 61 112 109q39 18 79 28.5t83 10.5q125 0 230 -87q117 -102 116 -288v-187q0 -104 43 -182q43 -68 113 -68q117 0 210 105.5t93 249.5q0 106 -70.5 225t-177.5 184l56 48q137 -106 208 -244 q35 -66 55.5 -134t20.5 -134q0 -156 -108 -283q-125 -143 -308 -143q-119 0 -196 90q-88 100 -88 266v188q0 152 -68 230q-59 63 -172 63q-78 0 -135 -45t-57 -121v-651h-170v565q0 104 -48.5 166t-113.5 62q-111 0 -203 -95q-100 -106 -100 -266q0 -104 53 -196 q63 -113 188 -203l-57 -53q-119 94 -196.5 220t-77.5 251zM946 -401q0 145 111.5 253.5t273.5 108.5q135 0 217 -82q37 -37 57.5 -97.5t20.5 -131.5q0 -106 37 -160.5t106 -54.5q66 0 121.5 56t55.5 138q0 90 -38 165t-120 130l47 37q84 -61 136 -149t52 -174 q0 -121 -80.5 -212.5t-207.5 -91.5q-104 0 -168 82q-59 82 -60 222q0 254 -202 253q-74 0 -126.5 -21.5t-105.5 -82.5l4 -4l39 12l37 4q92 0 155.5 -69.5t63.5 -180.5q0 -109 -67 -176q-53 -49 -117 -49q-92 0 -164 72q-78 82 -78 203zM1012 -399q0 -80 43 -140 q45 -51 123 -51q35 0 68.5 37t33.5 82q0 74 -45 116t-119 42q-41 0 -57 -4l-39 -21z" />
<glyph unicode="&#xca;" horiz-adv-x="2023" d="M158 451q0 213 135 352q119 115 262 115q109 0 179.5 -38t109.5 -110q33 61 112 109q39 18 79 28.5t83 10.5q125 0 230 -87q117 -102 116 -288v-187q0 -104 43 -182q43 -68 113 -68q117 0 210 105.5t93 249.5q0 106 -70.5 225t-177.5 184l56 48q137 -106 208 -244 q35 -66 55.5 -134t20.5 -134q0 -156 -108 -283q-125 -143 -308 -143q-119 0 -196 90q-88 100 -88 266v188q0 152 -68 230q-59 63 -172 63q-78 0 -135 -45t-57 -121v-651h-170v565q0 104 -48.5 166t-113.5 62q-111 0 -203 -95q-100 -106 -100 -266q0 -104 53 -196 q63 -113 188 -203l-57 -53q-119 94 -196.5 220t-77.5 251zM682 -340q0 129 90 217t203 88q66 0 118 -24.5t83 -73.5q20 35 79.5 68.5t126.5 33.5q106 0 174 -73.5t68 -202.5q0 -164 35 -219q29 -45 100 -45q68 0 123 66.5t55 150.5q0 80 -38.5 150.5t-114.5 123.5l35 39 q86 -49 141 -142.5t55 -183.5q0 -109 -78.5 -200.5t-197.5 -91.5q-233 0 -234 280v100q0 84 -47 131.5t-108 47.5q-49 0 -90 -31q-16 -16 -25 -35l-8 -47v-432h-150v383q0 49 -31.5 94t-91.5 45q-84 0 -138 -68.5t-54 -146.5q0 -96 41 -160q35 -63 123 -133l-47 -45 q-86 66 -141.5 157t-55.5 179z" />
<glyph unicode="&#xcb;" horiz-adv-x="2021" d="M158 293q0 127 88 215q100 100 270 100q152 0 248 -100t96 -234q0 -31 -4 -54t-18 -56q-18 -59 -52 -94h500q-61 61 -112 163q-45 109 -46 203q0 188 121 330q129 152 326 152q184 0 311 -132.5t127 -320.5q0 -137 -73.5 -258t-237.5 -227l-57 83q199 137 198 340 q0 150 -84 247.5t-221 97.5q-139 0 -229 -90.5t-90 -243.5q0 -133 76.5 -245t193.5 -155v-14h-946v14q76 47 111.5 115t35.5 139q0 84 -53 146q-59 68 -154 67q-96 0 -165.5 -66.5t-69.5 -160.5q0 -61 24.5 -113.5t81.5 -109.5l-61 -51q-61 66 -103 151l-24 80zM915 -401 q0 145 112 253.5t273 108.5q137 0 220 -82q37 -37 57 -97.5t20 -131.5q0 -104 37 -159.5t105 -55.5q72 0 124 58t52 136q0 90 -38 165t-120 130l47 37q84 -61 136.5 -149t52.5 -174q0 -121 -81 -212.5t-208 -91.5q-104 0 -168 82q-59 82 -59 222q0 254 -203 253 q-74 0 -126 -21.5t-106 -82.5l5 -4l36 12l39 4q92 0 155.5 -69.5t63.5 -180.5q0 -109 -67 -176q-53 -49 -117 -49q-92 0 -164 72q-78 82 -78 203zM981 -399q0 -80 43 -140q45 -51 123 -51q35 0 68.5 37t33.5 82q0 74 -45 116t-119 42q-41 0 -57 -4l-39 -21z" />
<glyph unicode="&#xcc;" horiz-adv-x="2029" d="M158 451q0 213 135 352q119 115 262 115q109 0 179.5 -38t109.5 -110q33 61 112 109q39 18 79 28.5t83 10.5q125 0 230 -87q117 -102 116 -288v-187q0 -104 43 -182q43 -68 113 -68q117 0 210 105.5t93 249.5q0 106 -70.5 225t-177.5 184l56 48q137 -106 208 -244 q35 -66 55.5 -134t20.5 -134q0 -156 -108 -283q-125 -143 -308 -143q-119 0 -196 90q-88 100 -88 266v188q0 152 -68 230q-59 63 -172 63q-78 0 -135 -45t-57 -121v-651h-170v565q0 104 -48.5 166t-113.5 62q-111 0 -203 -95q-100 -106 -100 -266q0 -104 53 -196 q63 -113 188 -203l-57 -53q-119 94 -196.5 220t-77.5 251zM465 -360q0 119 65 204q90 121 273 121q127 0 221 -77t94 -224q0 -98 -59 -188q-51 -76 -139 -135l-48 63q61 55 94 109.5t33 109.5q0 96 -73 170q-66 59 -148 60q-106 0 -172 -60q-63 -63 -63 -149 q0 -154 143 -258l-29 -50q-88 55 -141 138q-23 39 -37 82q-6 25 -10 43t-4 41zM1274 -360q0 119 65 204q90 121 273 121q127 0 221 -77t94 -224q0 -98 -59 -188q-49 -76 -137 -135l-50 63q61 55 94 109.5t33 109.5q0 96 -73 170q-66 59 -148 60q-106 0 -172 -60 q-63 -63 -63 -149q0 -152 145 -258l-31 -50q-88 55 -141 138q-23 39 -37 82q-6 25 -10 43t-4 41z" />
<glyph unicode="&#xcd;" horiz-adv-x="2037" d="M158 451q0 203 107.5 335t273.5 132q129 0 218 -94.5t89 -260.5v-188q0 -158 69 -230q61 -66 183 -65q68 0 133 43q57 45 57 117v663h170v-565q0 -102 44 -167t118 -65q113 0 203 97q100 106 100 268q0 104 -53 197q-61 111 -187 198l58 52q123 -92 198.5 -219t75.5 -248 q0 -213 -135 -355q-117 -117 -262 -116q-59 0 -99 8t-81 32q-66 39 -109 113q-43 -68 -116.5 -110.5t-159.5 -42.5q-133 0 -238 86q-117 102 -117 290v187q0 115 -47 182.5t-123 67.5q-109 0 -190 -95q-90 -106 -90 -266q0 -119 57 -220t172 -183l-45 -49q-117 68 -190 186 q-84 133 -84 285zM508 -362q0 141 86 232t225 91q109 0 181.5 -61.5t72.5 -186.5v-127q0 -111 55 -159q49 -43 150 -43q35 0 61.5 6t51.5 22q45 29 45 80v459h137v-391q0 -160 133 -160q90 0 169 68.5t79 183.5q0 68 -45 137.5t-152 134.5l47 37q100 -66 162 -152.5 t62 -170.5q0 -141 -111 -244q-92 -80 -213 -80q-88 0 -145 29q-59 25 -93 75q-37 -49 -95 -76.5t-130 -27.5q-111 0 -194 57q-96 68 -97 201v129q0 80 -39 126t-100 46q-86 0 -160 -68q-70 -70 -69 -180q0 -72 49 -151q49 -70 139 -127l-37 -33q-98 43 -158 127 q-68 90 -67 197z" />
<glyph unicode="&#xce;" horiz-adv-x="1599" d="M154 274q0 113 70.5 180.5t207.5 67.5h139q0 164 77 280t212 116q127 0 219 -111q80 -104 99 -285h135q119 0 190 -65q86 -74 86 -215q0 -106 -68.5 -184t-168.5 -78q-18 0 -62.5 11t-66.5 27l-11 97q2 -6 31 -23l51 -10q55 0 101.5 46t46.5 138q0 184 -176 185h-82 q0 -236 -103 -363q-86 -109 -211 -108q-80 0 -140 33.5t-107 129.5q-31 -72 -88 -120q-55 -43 -113 -43q-90 0 -174 67q-94 82 -94 227zM301 287q0 -80 40 -143.5t101 -63.5q59 0 94 56t35 140v175h-69q-98 0 -149.5 -45.5t-51.5 -118.5zM635 395q0 -156 59 -239 q53 -76 133 -76q100 0 154.5 97.5t54.5 273.5h-399zM637 522h399q0 115 -59 199q-55 84 -146 84q-74 0 -133 -68q-61 -78 -61 -215zM1010 -250q0 90 79.5 160t213.5 70q74 0 155.5 -31t130.5 -74l-39 -39q-31 31 -100.5 56.5t-132.5 25.5q-92 0 -151.5 -46t-59.5 -103 q0 -31 30.5 -49.5t73.5 -18.5l146 4q115 0 179 -44t64 -124q0 -96 -91 -159.5t-203 -63.5q-139 0 -279 88l2 72l62 -33l73 -33q72 -25 125 -24q92 0 148.5 44t56.5 93q0 37 -31 59q-29 16 -116 17l-72 -5l-74 -4q-84 0 -137 44t-53 118z" />
<glyph unicode="&#xcf;" horiz-adv-x="2152" d="M158 358q0 231 141 395.5t379 164.5q104 0 184 -40t131 -120q31 61 101 106q82 53 170 54q160 0 279.5 -137.5t119.5 -313.5q0 -88 -56.5 -197.5t-144.5 -191.5l4 -8h504v833h170v-903h-866v49q88 76 151 176q33 57 50 109q8 29 12 54.5t4 60.5q0 156 -78 262t-199 106 q-80 0 -132 -41t-52 -119v-657h-170v614q0 72 -74 134q-37 29 -79 43q-23 6 -46.5 10t-54.5 4q-166 0 -265 -111.5t-118 -298.5l6 -6q45 72 88 109q51 39 127 39q94 0 168 -93.5t74 -199.5q0 -119 -66.5 -191.5t-170.5 -72.5q-141 0 -222 118q-70 111 -69 260zM258 270 q0 -55 43 -120q43 -55 105 -56q59 0 108 58q37 49 37 106q0 72 -38 125t-103 53q-61 0 -109 -47q-43 -47 -43 -119zM1014 -360q0 92 52 166.5t191 170.5l76 -30q-178 -158 -178 -305q0 -119 80 -199q66 -61 141 -61q61 0 110.5 29.5t49.5 82.5v473h141v-403q0 -72 38 -118 t95 -46q92 0 168 70q84 78 84 190q0 68 -45 139q-53 80 -155 142l49 36q96 -63 161.5 -153t65.5 -180q0 -150 -113 -250q-100 -84 -217 -84q-86 0 -146 29.5t-93 78.5q-31 -43 -95.5 -75.5t-134.5 -32.5q-135 0 -230 95t-95 235z" />
<glyph unicode="&#xd0;" horiz-adv-x="2152" d="M158 358q0 231 141 395.5t379 164.5q104 0 184 -40t131 -120q31 61 101 106q82 53 170 54q160 0 279.5 -137.5t119.5 -313.5q0 -88 -56.5 -197.5t-144.5 -191.5l4 -8h504v833h170v-903h-866v49q88 76 151 176q33 57 50 109q8 29 12 54.5t4 60.5q0 156 -78 262t-199 106 q-80 0 -132 -41t-52 -119v-657h-170v614q0 72 -74 134q-37 29 -79 43q-23 6 -46.5 10t-54.5 4q-166 0 -265 -111.5t-118 -298.5l6 -6q45 72 88 109q51 39 127 39q94 0 168 -93.5t74 -199.5q0 -119 -66.5 -191.5t-170.5 -72.5q-141 0 -222 118q-70 111 -69 260zM258 270 q0 -55 43 -120q43 -55 105 -56q59 0 108 58q37 49 37 106q0 72 -38 125t-103 53q-61 0 -109 -47q-43 -47 -43 -119zM1485 -410q0 188 112 295q100 94 252 95q100 0 174 -52.5t74 -115.5q0 -49 -25.5 -87t-76.5 -65q70 -16 107.5 -54t37.5 -89q0 -74 -74.5 -136.5 t-195.5 -62.5h-37l-55 2q-27 0 -37 8l-23 86q72 -37 119 -37q61 0 116.5 37t55.5 90q0 123 -168 123h-96v49q96 0 159.5 30t63.5 89q0 43 -45 80q-45 33 -115 33q-117 0 -189.5 -88t-72.5 -236l6 -106q6 -53 39 -148l-61 -12l-31 133l-10 72z" />
<glyph unicode="&#xd1;" horiz-adv-x="1558" d="M147 0v70h416q29 10 51 28q12 8 25.5 22.5t28.5 33.5q59 76 59 155q0 68 -44 120t-110 52q-63 0 -114 -51q-45 -51 -45 -125q0 -29 4 -39l14 -30h-88l-14 49l-6 63q0 117 71.5 188.5t196.5 71.5q129 0 225 -92q80 -84 80 -199q0 -133 -102 -247h581v833h170v-903h-1399z M156 -633h301q37 12 77.5 64.5t40.5 109.5q0 49 -32.5 88t-77.5 39q-43 0 -84 -37q-33 -39 -33 -92l2 -26l12 -23h-63q-16 27 -16 80q0 80 51 137q53 53 143 53q100 0 161.5 -66.5t61.5 -144.5q0 -92 -75 -182h340q-14 20 -30.5 52t-35.5 73l-16 59q-10 45 -11 80 q0 150 95.5 252.5t244.5 102.5q137 0 235.5 -111t98.5 -256q0 -127 -62.5 -222t-154.5 -95q-74 0 -137 69q-57 70 -57 168q0 96 43 180t125 150q-12 12 -41 18l-54 7q-111 0 -190.5 -86.5t-79.5 -202.5q0 -80 43 -160t104 -117l-2 -10h-927v49zM1194 -434q0 -66 38 -118 t77 -52q49 0 87 58.5t38 142.5q0 76 -29 145q-20 61 -62 96q-59 -47 -108 -127q-41 -76 -41 -145z" />
<glyph unicode="&#xd2;" horiz-adv-x="2009" d="M158 293q0 127 88 215q100 100 270 100q152 0 248 -100t96 -234q0 -31 -4 -54t-18 -56q-18 -59 -52 -94h334v219q0 252 15.5 330.5t78.5 171.5q43 59 136.5 93t197.5 34q223 0 332 -121q119 -131 119 -424v-373h-1456v14q76 47 111.5 115t35.5 139q0 84 -53 146 q-59 68 -154 67q-96 0 -165.5 -66.5t-69.5 -160.5q0 -61 24.5 -113.5t81.5 -109.5l-61 -51q-61 66 -103 151l-24 80zM1186 70q195 139 289 295q81 141 81 258q0 80 -45 131t-108 51q-98 0 -157.5 -95.5t-59.5 -277.5v-362zM1380 70h512v307q0 248 -84 359.5t-245 111.5 q143 -106 143 -258q0 -127 -53 -215q-63 -115 -273 -305z" />
<glyph unicode="&#xd3;" horiz-adv-x="2385" d="M158 293q0 127 88 215q100 100 270 100q152 0 248 -100t96 -234q0 -31 -4 -54t-18 -56q-18 -59 -52 -94h422q-76 84 -127 185t-51 196q0 213 135 352q119 115 260 115q109 0 180.5 -38t110.5 -110q33 61 113 109q39 18 79 28.5t83 10.5q160 0 276.5 -135t116.5 -332 q0 -111 -51 -207q-70 -131 -244 -264l-88 43q109 111 161 217t52 206q0 180 -96 285q-78 86 -170 86q-78 0 -135.5 -45t-57.5 -121v-651h-170v565q0 104 -48 166t-114 62q-111 0 -202 -95q-100 -106 -101 -266q0 -96 52.5 -200.5t179.5 -194.5l-41 -37h-768v14 q76 47 111.5 115t35.5 139q0 84 -53 146q-59 68 -154 67q-96 0 -165.5 -66.5t-69.5 -160.5q0 -61 24.5 -113.5t81.5 -109.5l-61 -51q-61 66 -103 151l-24 80z" />
<glyph unicode="&#xd4;" horiz-adv-x="2609" d="M158 451q0 213 135 352q119 115 262 115q109 0 179.5 -38t109.5 -110q37 68 114.5 108t167.5 40q117 0 227.5 -104.5t110.5 -250.5l2 -174q0 -145 55.5 -227t155.5 -82q72 0 132.5 43t60.5 117v663h170v-565q0 -102 44 -167t118 -65q113 0 202 97q100 106 101 268 q0 104 -54 197q-61 111 -188 198l57 52q123 -92 199 -219t76 -248q0 -213 -135 -355q-117 -117 -262 -116q-59 0 -99.5 8t-81.5 32q-66 39 -108 113q-43 -68 -117 -110.5t-158 -42.5q-127 0 -225 106q-92 109 -92 270l-2 187q0 125 -66 196q-61 78 -168 78q-74 0 -136 -44 t-62 -122v-651h-170v565q0 104 -48.5 166t-113.5 62q-111 0 -203 -95q-100 -106 -100 -266q0 -104 53 -196q63 -113 188 -203l-57 -53q-119 94 -196.5 220t-77.5 251z" />
<glyph unicode="&#xd5;" horiz-adv-x="2607" d="M158 461q0 182 122.5 319.5t319.5 137.5q66 0 121 -13.5t115 -46.5l61 27l70 20q49 12 120 13q104 0 185.5 -46.5t140.5 -138.5q31 76 116 130.5t181 54.5q123 -1 225 -87q117 -104 117 -288v-187q0 -109 44 -179.5t114 -70.5q119 0 211 110t92 245q0 106 -67.5 221 t-182.5 188l55 48q135 -104 211 -244q35 -66 55.5 -134.5t20.5 -133.5q0 -156 -108 -283q-125 -143 -310 -143q-119 0 -196 90q-86 98 -86 266v188q0 139 -80 224q-33 33 -60 43q-29 14 -61 14q-109 0 -179.5 -63.5t-70.5 -174.5v-567h-170v543q0 119 -71.5 196.5 t-186.5 77.5q-84 0 -119 -14q106 -88 170 -219q51 -119 51 -215q0 -154 -79 -265q-90 -125 -234 -124q-106 0 -196.5 111.5t-90.5 266.5q0 113 61.5 232t151.5 190q-25 12 -65 19l-76 6q-129 0 -240.5 -111.5t-111.5 -261.5q0 -131 50 -238.5t144 -179.5l-67 -34 q-92 74 -154.5 204.5t-62.5 276.5zM594 356q0 -115 65 -186q57 -63 127 -64q80 0 136.5 77t56.5 188q0 61 -8 105t-33 97q-39 92 -137 175q-98 -80 -152.5 -186.5t-54.5 -205.5z" />
<glyph unicode="&#xd6;" horiz-adv-x="2832" d="M158 637q0 113 111.5 205t260.5 92q129 0 211 -35q76 -29 117 -78q18 33 90 68l90 33q49 12 99 12q111 0 213 -81t102 -191q0 -135 -100 -216q-115 -92 -334 -92h-356q-147 0 -223.5 -37.5t-76.5 -109.5q0 -55 74 -92q109 -55 338 -56q143 0 246.5 25t189.5 61 q152 68 267 234q39 59 79 151q-25 49 -24 107q0 113 111.5 205t261.5 92q129 0 211 -35q68 -25 114 -78q23 31 92 68l91 33q49 12 98 12q111 0 213 -80.5t102 -191.5q0 -135 -100 -216q-115 -92 -334 -92h-356q-147 0 -223 -37.5t-76 -109.5q0 -39 32 -72q33 -29 105 -29 q53 0 139 26t154 56q180 80 266 111q119 41 178 41q86 0 145.5 -50t59.5 -128q0 -80 -59 -133q-59 -49 -142 -49q-84 0 -140 46t-56 115q0 53 26 88l-4 4l-49 -18q-16 -4 -38.5 -14.5t-41.5 -20.5l-88 -43l-86 -47q-86 -47 -174 -82q-86 -29 -156 -28q-104 0 -172.5 58 t-68.5 128q0 266 424 266h370q113 0 204 61.5t91 151.5q0 96 -55 148.5t-152 52.5q-80 0 -132 -46t-52 -132v-154h-170v131q0 98 -67.5 153.5t-165.5 55.5q-39 0 -98.5 -17.5t-94.5 -58.5l4 -6l27 12q16 6 43 7q57 0 106 -48q53 -43 54 -116q0 -88 -54 -142 q-49 -53 -112 -53q-84 0 -144 53q-18 -88 -96 -186q-100 -135 -254 -213q-109 -53 -260 -80q-143 -20 -215 -20q-324 0 -465 55q-86 37 -110 113l-9 30l-2 31q0 94 123 155.5t311 61.5h371q113 0 204 61.5t91 151.5q0 96 -55.5 148.5t-151.5 52.5q-78 0 -130 -46t-52 -132 v-154h-170v131q0 98 -67.5 153.5t-166.5 55.5q-39 0 -98 -16.5t-96 -59.5l4 -6l27 12q16 6 43 7q57 0 106 -48q53 -43 53 -116q0 -88 -53 -142q-49 -53 -113 -53q-90 0 -147 57.5t-57 147.5zM236 614q0 -43 24.5 -73.5t61.5 -30.5q39 0 62.5 29.5t23.5 74.5q0 43 -24 74 t-62 31q-37 0 -61.5 -31t-24.5 -74zM1610 614q0 -43 24.5 -73.5t59.5 -30.5q39 0 61 29q6 8 16.5 27t10.5 48q0 43 -23.5 74t-64.5 31q-29 0 -60 -31q-25 -31 -24 -74zM2497 174q0 -41 30.5 -67.5t71.5 -26.5q37 0 66.5 24.5t29.5 69.5q0 43 -26.5 69.5t-69.5 26.5 q-45 0 -73.5 -25.5t-28.5 -70.5z" />
<glyph unicode="&#xd7;" horiz-adv-x="2416" d="M158 358q0 231 141 395.5t379 164.5q100 0 186 -48.5t129 -126.5q31 68 90 113q76 57 154 57q84 0 145 -26q31 -12 80 -49q35 -27 69 -92.5t34 -104.5q0 45 30.5 96t71.5 87t122 65t167 29q223 0 332 -121q119 -131 118 -424v-373h-917v377q0 236 -74 346q-66 94 -196 94 q-70 0 -132 -61q-27 -31 -42 -68t-15 -76v-612h-170v614q0 72 -74 134q-37 29 -79 43q-23 6 -46.5 10t-54.5 4q-166 0 -265 -111.5t-118 -298.5l6 -6q45 72 88 109q51 39 127 39q94 0 168 -93.5t74 -199.5q0 -119 -66.5 -191.5t-170.5 -72.5q-141 0 -222 118 q-70 111 -69 260zM258 270q0 -55 43 -120q43 -55 105 -56q59 0 108 58q37 49 37 106q0 72 -38 125t-103 53q-61 0 -109 -47q-43 -47 -43 -119zM1593 70q190 135 289 295q84 137 84 258q0 82 -46 132t-110 50q-98 0 -157.5 -95.5t-59.5 -277.5v-362zM1788 70h514v307 q0 248 -84 359.5t-248 111.5q143 -106 144 -258q0 -127 -54 -215q-63 -115 -272 -305z" />
<glyph unicode="&#xd8;" horiz-adv-x="3135" d="M158 451q0 213 135 352q119 115 262 115q109 0 179.5 -38t109.5 -110q33 61 112 109q39 18 79 28.5t83 10.5q125 0 230 -87q117 -102 116 -288v-187q0 -104 43 -182q43 -68 113 -68q117 0 210 105.5t93 249.5q0 106 -70.5 225t-177.5 184l56 48q137 -106 208 -244 q35 -66 55.5 -134.5t20.5 -133.5q0 -88 -42 -179.5t-122 -156.5h445v462q0 172 110.5 279t307.5 107q180 0 296.5 -118t116.5 -319v-481h-1403l-59 -14l-66 -6q-119 0 -196 90q-88 100 -88 266v188q0 152 -68 230q-59 63 -172 63q-78 0 -135 -45t-57 -121v-651h-170v565 q0 104 -48.5 166t-113.5 62q-111 0 -203 -95q-100 -106 -100 -266q0 -104 53 -196q63 -113 188 -203l-57 -53q-119 94 -196.5 220t-77.5 251zM2466 70h596v327q0 408 -309 408q-287 0 -287 -311v-424z" />
<glyph unicode="&#xd9;" horiz-adv-x="2607" d="M158 451q0 213 135 352q119 115 262 115q109 0 179.5 -38t109.5 -110q33 61 112 109q39 18 79 28.5t83 10.5q160 0 276.5 -135.5t116.5 -331.5q0 -47 -12 -99.5t-41 -103.5q-25 -53 -56.5 -93t-82.5 -85h446v462q0 172 111 279t305 107q180 0 297 -118t117 -319v-481 h-1452v47q98 92 155 219q43 98 43 180q0 180 -96 285q-78 86 -170 86q-78 0 -135 -45t-57 -121v-651h-170v565q0 104 -48.5 166t-113.5 62q-111 0 -203 -95q-100 -106 -100 -266q0 -104 53 -196q63 -113 188 -203l-57 -53q-119 94 -196.5 220t-77.5 251zM1935 70h594v327 q0 408 -309 408q-135 0 -210 -81t-75 -230v-424z" />
<glyph unicode="&#xda;" horiz-adv-x="3723" d="M176 637q0 113 113.5 205t259.5 92q125 0 213 -35q68 -25 115 -78q23 35 90 68l90 33q49 12 98 12q111 0 214.5 -80t103.5 -192q0 -135 -101 -216q-115 -92 -334 -92h-358q-147 0 -223 -37.5t-76 -109.5q0 -55 74 -92q109 -55 340 -56l118 7q25 2 53.5 8t57.5 14l184 66 q127 45 234 151q90 86 153 182l56 91q55 154 183 247t304 93q100 0 181 -41t130 -117q31 68 113 112q37 20 79 33t83 13l63 -3q20 0 66 -14q45 -8 106 -43q57 27 125 45l62 10l67 5q219 0 364.5 -142.5t145.5 -353.5q0 -102 -65.5 -221t-186.5 -221l-100 34q84 86 129 172 q53 102 53 209q0 182 -117.5 309t-285.5 127l-72 -6q-20 -2 -27.5 -4t-23.5 -12q111 -92 174 -225q51 -119 51 -215q0 -147 -80 -265q-88 -125 -231 -124q-106 0 -197.5 111.5t-91.5 266.5q0 113 61.5 232t151.5 190l-57 17l-84 8q-88 0 -162 -50t-74 -141v-614h-170v614 q0 74 -71 134q-35 29 -78 43q-23 6 -46.5 10t-56.5 4q-166 0 -263 -109.5t-122 -300.5l7 -6q45 74 92 111t125 37q94 0 167.5 -93.5t73.5 -199.5q0 -119 -66.5 -191.5t-170.5 -72.5q-141 0 -223 118q-70 111 -70 260l6 74q-45 -82 -115 -156q-104 -111 -258 -190 q-92 -45 -207.5 -72.5t-255.5 -27.5q-324 0 -464 55q-86 35 -111 113l-10 59q0 98 124 158.5t312 60.5h371q113 0 204 64.5t91 148.5q0 96 -55.5 148.5t-151.5 52.5q-80 0 -132.5 -46t-52.5 -132v-154h-170v131q0 98 -67.5 153.5t-165.5 55.5q-33 0 -49.5 -3t-60.5 -15.5 t-85 -57.5l4 -6l33 14l39 5q57 0 107.5 -46.5t50.5 -117.5q0 -88 -53 -142q-49 -53 -113 -53q-84 0 -144.5 55.5t-60.5 149.5zM256 614q0 -43 24.5 -73.5t59.5 -30.5q39 0 61 29q6 8 16.5 27t10.5 48q0 43 -23.5 74t-64.5 31q-29 0 -59 -31q-25 -31 -25 -74zM1716 270 q0 -55 43 -120q43 -55 107 -56q59 0 108 58q37 49 37 106q0 72 -38 125t-103 53q-68 0 -113 -47q-41 -47 -41 -119zM2718 356q0 -115 65 -186q57 -63 129 -64q80 0 135.5 77t55.5 188q0 61 -8.5 105t-32.5 97q-39 92 -137 175q-98 -80 -152.5 -186.5t-54.5 -205.5z" />
<glyph unicode="&#xdb;" horiz-adv-x="2326" d="M188 461q0 182 123 319.5t320 137.5l63 -3q20 0 66 -14q45 -10 108 -47q55 31 122 49.5t138 18.5h29l31 -4q135 -12 231 -70q78 -47 113 -115q61 86 168.5 135.5t226.5 49.5q160 0 273.5 -81t113.5 -200q0 -57 -44 -106.5t-118 -49.5q-43 0 -120 19l-60 10q-57 0 -92 -29 q-37 -25 -37 -67q0 -78 156 -78h24q16 0 25 4l31 2h49q80 0 133 -35q63 -45 63 -129q0 -86 -79 -151q-78 -59 -220 -60l-86 2h-53q-25 6 -37 8h-32q-18 0 -43 5l-91 20l-18 107l145 -33l144 -8q201 0 200 104q0 43 -40.5 63.5t-133.5 20.5q-147 0 -227 37t-80 117t50.5 130 t136.5 50l96 -6l106 -13q31 0 56.5 26t25.5 60q0 61 -68.5 110.5t-170.5 49.5q-139 0 -226 -47q-55 -31 -83.5 -65.5t-28.5 -77.5v-627h-170v565q0 106 -66.5 184t-177.5 93l-29 2h-22q-106 0 -172 -33q106 -90 176 -227q51 -119 51 -215q0 -147 -80 -265 q-88 -125 -231 -124q-106 0 -196.5 111.5t-90.5 266.5q0 113 61.5 232t151.5 190q-25 12 -65 19l-76 6q-129 0 -240.5 -111.5t-111.5 -261.5q0 -131 50 -238.5t144 -179.5l-67 -34q-92 74 -155 204.5t-63 276.5zM625 356q0 -115 65 -186q57 -63 127 -64q80 0 136.5 77 t56.5 188q0 61 -8.5 105t-32.5 97q-39 92 -138 175q-98 -80 -152 -186.5t-54 -205.5z" />
<glyph unicode="&#xdc;" horiz-adv-x="2088" d="M158 424q0 141 79.5 276.5t213.5 217.5l45 -52q-248 -180 -248 -430q0 -135 80 -232.5t196 -97.5q80 0 129 70q29 41 43 98q6 29 10.5 63t4.5 77v147q0 160 104 264q96 92 229 93q86 0 157 -38t122 -110l29 35q14 16 34.5 30.5t36.5 24.5q47 25 111 43l59 10l74 5 q180 0 297 -118t117 -319v-481h-920l-33 -20l-49 55q109 74 174.5 182.5t65.5 237.5q0 156 -96 252q-80 86 -174 86q-84 0 -140 -82q-49 -80 -49 -236v-125q0 -162 -96 -266t-223 -104q-160 0 -271.5 136t-111.5 308zM1241 70h82q195 139 289 295q82 141 82 258l-6 61 q-6 29 -23 51q-25 43 -76 62q-45 -12 -104 -58q-31 -25 -62 -86l-22 -57l8 -55l2 -60q0 -111 -44 -219t-126 -192zM1518 70h497v327q0 375 -276 406q104 -80 104 -213q0 -127 -53 -215q-63 -115 -272 -305z" />
<glyph unicode="&#xdd;" horiz-adv-x="2357" d="M100 424q0 143 83 278.5t212 215.5l43 -52q-125 -88 -188 -194q-29 -51 -43 -109q-6 -31 -10 -59.5t-4 -67.5q0 -127 80.5 -228.5t193.5 -101.5q80 0 129 70q29 41 43 98q6 29 10 63t4 77v147q0 156 109.5 254t259.5 98q113 0 199 -61l55 31q74 31 162 30 q160 0 269.5 -121.5t109.5 -295.5q0 -115 -59.5 -241t-141.5 -185h557v833h170v-903h-1401v70h506q88 55 149.5 165.5t61.5 219.5q0 156 -68.5 253t-183.5 117l-33 2q-27 0 -59 -8l-39 -8q49 -39 98 -139.5t49 -194.5q0 -125 -65.5 -193.5t-163.5 -68.5q-84 0 -143 61 q-53 63 -54 156q0 109 35 193q43 113 133 184l-37 18q-68 20 -116 21q-88 0 -148.5 -105.5t-60.5 -248.5v-144q0 -162 -96.5 -266t-223.5 -104q-160 0 -271.5 136t-111.5 308zM1061 436q0 -63 34.5 -98t78.5 -35q45 0 88 50t43 126q0 84 -25 168q-18 80 -66 121 q-72 -47 -112.5 -145.5t-40.5 -186.5z" />
<glyph unicode="&#xde;" horiz-adv-x="3315" d="M158 358q0 231 141 395.5t379 164.5q104 0 183 -40t132 -118q41 68 117 113t160 45q221 0 317 -152q74 152 250 152q129 0 218 -94.5t89 -260.5v-188q0 -154 70 -230q61 -66 180 -65q72 0 132.5 43t60.5 117v663h170v-565q0 -102 44 -167t117 -65q113 0 203 97 q100 106 101 268q0 104 -54 197q-61 111 -186 198l55 52q123 -92 200 -217t77 -250q0 -213 -136 -355q-117 -117 -262 -116q-109 0 -177 39.5t-113 113.5q-43 -68 -117 -110.5t-158 -42.5q-141 0 -240 86q-117 102 -116 290v187q0 109 -50.5 179.5t-127.5 70.5 q-195 0 -195 -189v-604h-170v565q0 104 -68.5 172t-164.5 68q-72 0 -130.5 -44t-58.5 -102v-659h-170v614q0 72 -74 134q-37 29 -79 43q-23 6 -46.5 10t-54.5 4q-166 0 -265 -111.5t-118 -298.5l6 -6q45 72 88 109q51 39 127 39q94 0 168 -93.5t74 -199.5 q0 -119 -66.5 -191.5t-170.5 -72.5q-141 0 -222 118q-70 111 -69 260zM258 270q0 -55 43 -120q43 -55 105 -56q59 0 108 58q37 49 37 106q0 72 -38 125t-103 53q-61 0 -109 -47q-43 -47 -43 -119z" />
<glyph unicode="&#xdf;" horiz-adv-x="2326" d="M141 461q0 184 124 320.5t319 136.5q72 0 121 -13.5t116 -50.5q59 31 139 49.5t152 18.5q74 0 158 -31q57 -18 92 -51q41 -31 73.5 -95.5t32.5 -103.5q0 43 30 93t74 89t124 67t164 28q223 0 331 -121q119 -131 119 -424v-373h-915v377q0 244 -75 359.5t-216 115.5l-39 2 q-59 0 -98 -10t-84 -33q117 -98 178 -227q23 -51 37 -107q6 -31 10 -55.5t4 -52.5q0 -147 -80 -265q-88 -125 -231 -124q-106 0 -197.5 111.5t-91.5 266.5q0 117 60.5 232t154.5 190q-29 12 -65 19l-78 6q-129 0 -240 -111.5t-111 -261.5q0 -131 50.5 -238.5t144.5 -179.5 l-68 -34q-98 80 -158.5 204.5t-60.5 276.5zM578 356q0 -106 67 -186q57 -63 127 -64q82 0 137.5 79.5t55.5 185.5q0 111 -43 202q-39 92 -138 175q-98 -80 -152 -186.5t-54 -205.5zM1499 70q195 141 289 295q82 139 82 258q0 82 -46 132t-110 50q-98 0 -156.5 -97.5 t-58.5 -275.5v-362zM1692 70h514v307q0 248 -84 359.5t-248 111.5q143 -102 143 -258q0 -127 -53 -215q-63 -115 -272 -305z" />
<glyph unicode="&#xe0;" horiz-adv-x="2742" d="M154 274q0 113 70.5 180.5t207.5 67.5h139q0 164 77 280t212 116q127 0 219 -111q80 -104 99 -285l59 -4q25 0 41 -8l20 -10q18 168 138 288q127 129 301 130q66 0 121 -13.5t114 -46.5l62 27l69 20q49 12 121 13q219 0 364.5 -142.5t145.5 -353.5q0 -113 -62.5 -227.5 t-187.5 -214.5l-100 34q86 86 129 172q23 47 37 102.5t14 106.5q0 182 -117.5 309t-285.5 127q-82 0 -121 -22q111 -92 174 -225q49 -109 49 -215q0 -147 -80 -265q-88 -125 -231 -124q-106 0 -196.5 111.5t-90.5 266.5q0 123 57.5 236t155.5 186q-25 12 -66 19l-75 6 q-129 0 -241 -111.5t-112 -261.5q0 -131 50.5 -238.5t144.5 -179.5l-68 -34q-100 78 -153 188q-61 121 -62 260l-16 8l-41 15l-31 2h-16l-8 -2q0 -236 -103 -363q-86 -109 -211 -108q-80 0 -140 33.5t-107 129.5q-31 -72 -88 -120q-55 -43 -113 -43q-90 0 -174 67 q-94 82 -94 227zM301 287q0 -80 40 -143.5t101 -63.5q59 0 94 56t35 140v175h-69q-98 0 -149.5 -45.5t-51.5 -118.5zM635 395q0 -156 59 -239q53 -76 133 -76q100 0 154.5 97.5t54.5 273.5h-399zM637 522h399q0 115 -59 199q-55 84 -146 84q-74 0 -133 -68q-61 -78 -61 -215 zM1731 356q0 -115 65 -186q57 -63 127 -64q80 0 136.5 77t56.5 188q0 63 -8.5 108t-32.5 94q-37 92 -138 175q-100 -76 -155 -185q-23 -49 -37 -103t-14 -104z" />
<glyph unicode="&#xe1;" horiz-adv-x="2023" d="M158 446q0 154 82 285q74 117 192 187l45 -48q-106 -74 -167.5 -181t-61.5 -222q0 -162 88 -264q80 -96 192 -97q72 0 121 68t49 182v187q0 184 117 288q98 86 238 87q78 0 155 -44q74 -37 121 -108q33 66 106.5 109t182.5 43q76 0 136.5 -26t123.5 -89 q137 -138 137 -357q0 -125 -74.5 -245.5t-199.5 -220.5l-58 53q119 82 187 196q53 96 53 199q0 158 -100 266q-90 98 -203 99q-70 0 -117 -62q-20 -29 -32.5 -71t-12.5 -99v-565h-170v663q0 68 -55 115q-55 43 -135 43q-117 0 -183 -63q-70 -76 -69 -230v-188 q0 -170 -87 -263t-220 -93q-162 0 -271.5 130t-109.5 336z" />
<glyph unicode="&#xe2;" horiz-adv-x="1599" d="M158 451q0 213 135 352q119 115 262 115q109 0 179.5 -38t109.5 -114q39 61 114.5 106.5t159.5 45.5q80 0 133 -13l41 -12q27 -8 51 -23l21 48l8 57q0 57 -41 104q-51 57 -131 58q-45 0 -90 -26t-82 -62l-51 30q39 76 115.5 130.5t169.5 54.5q96 0 155.5 -62.5 t59.5 -165.5q0 -100 -78 -202q80 -61 135 -185.5t55 -249.5q0 -178 -91 -298.5t-212 -120.5q-98 0 -177 87t-79 209q0 137 62.5 263.5t173.5 224.5q-10 16 -73 34.5t-118 18.5q-45 0 -74.5 -7t-62.5 -34q-55 -41 -55 -117v-659h-170v565q0 104 -48.5 166t-113.5 62 q-111 0 -203 -95q-100 -106 -100 -266q0 -104 53 -196q63 -113 188 -203l-57 -53q-119 94 -196.5 220t-77.5 251zM926 -360q0 119 65 204q90 121 273 121q123 0 215 -74q100 -84 100 -227q0 -98 -59 -188q-51 -76 -140 -135l-47 63q63 57 94 108.5t31 110.5q0 104 -68.5 167 t-150.5 63q-106 0 -172 -60q-63 -63 -63 -149q0 -154 143 -258l-31 -50q-80 51 -139 138q-23 39 -37 82q-6 25 -10 43t-4 41zM1108 317q0 -84 43 -151q43 -59 106 -60q74 0 125 78q52 86 52 205q0 213 -115 334q-84 -68 -148 -186q-14 -27 -25 -54.5t-20.5 -57.5 t-13.5 -53.5t-4 -54.5z" />
<glyph unicode="&#xe3;" horiz-adv-x="1941" d="M158 293q0 127 88 215q100 100 270 100q152 0 248 -100t96 -234q0 -31 -4 -54t-18 -56q-18 -59 -52 -94h394v295q-131 0 -228.5 91t-97.5 216q0 98 73.5 172t186.5 74q115 0 175.5 -81t60.5 -210v-187q139 37 307 184.5t211 278.5h59v-903h-1384v14q76 47 111.5 115 t35.5 139q0 84 -53 146q-59 68 -154 67q-96 0 -165.5 -66.5t-69.5 -160.5q0 -61 24.5 -113.5t81.5 -109.5l-61 -51q-61 66 -103 151l-24 80zM961 657q0 -82 58.5 -146.5t160.5 -76.5v244q0 61 -33 94t-80 33q-43 0 -74.5 -41t-31.5 -107zM1337 -250q0 90 80 160t213 70 l80 -7q14 -2 38 -8t42 -14q76 -31 127 -76l-39 -39q-31 31 -104 60q-72 23 -129 22q-92 0 -151.5 -46t-59.5 -103q0 -31 30.5 -49.5t73.5 -18.5l145 4q115 0 178.5 -43t63.5 -125q0 -94 -92 -158.5t-201 -64.5q-135 0 -280 88l2 72q31 -18 61 -33q12 -6 76 -33 q68 -25 125 -24q92 0 148.5 44t56.5 93q0 35 -31 59q-33 16 -117 17l-71 -5l-76 -4q-82 0 -135.5 44t-53.5 118zM1350 70h405v569q-61 -78 -192 -164q-123 -80 -213 -98v-307z" />
<glyph unicode="&#xe4;" horiz-adv-x="1058" d="M158 430q0 190 112 330q129 158 361 158q174 0 296 -133.5t122 -319.5q0 -137 -74 -258t-238 -227l-57 83q199 137 199 340q0 145 -83 245t-223 100q-133 0 -229 -91.5t-96 -242.5q0 -119 54 -212t169 -167l-35 -55q-127 78 -202.5 201.5t-75.5 248.5zM260 -360 q0 119 66 204q90 121 272 121q123 0 215 -74q100 -84 100 -227q0 -98 -59 -188q-51 -76 -139 -135l-47 63q61 55 94 109.5t33 109.5q0 96 -74 170q-66 59 -148 60q-106 0 -172 -60q-63 -63 -63 -149q0 -154 143 -258l-30 -50q-80 51 -140 138q-23 39 -37 82q-6 25 -10 43 t-4 41z" />
<glyph unicode="&#xe5;" horiz-adv-x="1519" d="M182 0v399q0 152 24.5 246t94.5 164q51 51 127 80t158 29q125 0 205 -29q86 -25 155 -121q59 -74 80 -203q12 -78 12 -235h-684v-260h959v833h170v-1585h-854v25q119 82 119 196q0 66 -47.5 115t-122.5 49q-72 0 -127 -49q-51 -51 -52 -125q0 -51 23 -94q12 -29 57 -78 l-41 -39q-104 121 -104 242q0 98 67 166q78 78 207 77q111 0 185.5 -77.5t74.5 -180.5l-2 -39q0 -14 -16 -53q-12 -41 -37 -65h500v612h-1131zM354 399h607q0 236 -78 328q-39 49 -101 76q-57 29 -131 28q-141 0 -219 -90t-78 -231v-111z" />
<glyph unicode="&#xe6;" horiz-adv-x="1607" d="M154 274q0 113 70.5 180.5t207.5 67.5h139q0 164 77 280t212 116q127 0 219 -111q80 -104 99 -285h71q156 0 207 -14q106 -29 107 -125q0 -43 -37 -78q-12 -12 -72 -33q47 -12 84 -43t37 -82q0 -68 -65.5 -114.5t-161.5 -46.5q-74 0 -105 16l-14 68q57 -27 92 -27 q47 0 84 24.5t37 71.5q0 100 -113 101h-78v61q86 0 124 12.5t38 63.5t-86 69l-90 5h-53q0 -236 -103 -363q-86 -109 -211 -108q-80 0 -140 33.5t-107 129.5q-31 -72 -88 -120q-55 -43 -113 -43q-90 0 -174 67q-94 82 -94 227zM301 287q0 -80 40 -143.5t101 -63.5q59 0 94 56 t35 140v175h-69q-98 0 -149.5 -45.5t-51.5 -118.5zM635 395q0 -156 59 -239q53 -76 133 -76q100 0 154.5 97.5t54.5 273.5h-399zM637 522h399q0 115 -59 199q-55 84 -146 84q-74 0 -133 -68q-61 -78 -61 -215z" />
<glyph unicode="&#xe7;" horiz-adv-x="2342" d="M154 274q0 113 70.5 180.5t207.5 67.5h139q0 164 77 280t212 116q127 0 219 -111q80 -104 99 -285h118q43 180 186.5 290t332.5 110q236 0 356 -97q98 -73 98 -161q0 -86 -55 -142l-94 -57q88 -18 135 -78q53 -57 53 -125q0 -115 -72 -192q-84 -90 -235 -90h-29 q-23 0 -35 4q-20 0 -69 20l-29 105q37 -18 70 -32t51 -14q80 0 129 50.5t49 132.5q0 78 -48 127t-153 49h-59v70q96 0 150.5 36.5t54.5 118.5q0 74 -66 133q-35 29 -77 43.5t-105 14.5q-207 0 -334 -101q-100 -78 -137 -215h109q154 0 225 -71q72 -68 71 -207 q0 -119 -66.5 -191.5t-170.5 -72.5q-94 0 -174 107.5t-80 277.5l4 86h-98q0 -236 -103 -363q-86 -109 -211 -108q-80 0 -140 33.5t-107 129.5q-31 -72 -88 -120q-55 -43 -113 -43q-90 0 -174 67q-94 82 -94 227zM301 287q0 -80 40 -143.5t101 -63.5q59 0 94 56t35 140v175 h-69q-98 0 -149.5 -45.5t-51.5 -118.5zM635 395q0 -156 59 -239q53 -76 133 -76q100 0 154.5 97.5t54.5 273.5h-399zM637 522h399q0 115 -59 199q-55 84 -146 84q-74 0 -133 -68q-61 -78 -61 -215zM1341 348q0 -102 41 -178q45 -76 105 -76q68 0 110 58q37 49 37 106 q0 82 -43 137.5t-114 55.5h-127l-7 -52z" />
<glyph unicode="&#xe8;" horiz-adv-x="1607" d="M158 678q0 84 80.5 162t189.5 78q70 0 119 -41q47 -33 84 -123q31 74 94 118l66 33q37 12 77 13q133 0 214 -106t104 -290h71q156 0 207 -14q106 -29 107 -125q0 -43 -37 -78l-70 -33q47 -12 83 -43.5t36 -81.5q0 -68 -65.5 -114.5t-161.5 -46.5q-74 0 -105 16l-14 68 q8 -4 40 -15.5t54 -11.5q45 0 82 24.5t37 71.5q0 100 -113 101h-75v61q80 0 119.5 12.5t39.5 63.5t-86 69l-90 5h-51q0 -236 -102 -363q-86 -109 -213 -108q-84 0 -139.5 33.5t-108.5 129.5q-31 -72 -88 -120q-55 -43 -113 -43q-90 0 -174 67q-94 82 -94 227 q0 78 31.5 134.5t103.5 89.5q-55 18 -94 63q-45 51 -45 117zM305 672q0 -61 58.5 -105.5t142.5 -44.5h74v80q0 111 -33 157t-96 46q-53 0 -99.5 -40t-46.5 -93zM309 287q0 -80 40 -143.5t102 -63.5q59 0 94 56t35 140v175h-70q-98 0 -149.5 -45.5t-51.5 -118.5zM643 395 q0 -156 59 -239q53 -76 134 -76q100 0 154 97.5t54 273.5h-399zM645 522h399q0 115 -59 199q-55 84 -145 84q-74 0 -133 -68q-61 -78 -62 -215z" />
<glyph unicode="&#xe9;" horiz-adv-x="2445" d="M166 358q0 233 143.5 396.5t376.5 163.5q104 0 183 -40t132 -118q39 66 117 112t160 46q123 0 192 -35q71 -31 134 -113q49 70 131 106.5t172 36.5q94 0 156.5 -19.5t131.5 -72.5q121 -86 179 -227q43 -104 43 -225q0 -147 -80 -265q-88 -125 -232 -124 q-106 0 -197 111.5t-91 266.5q0 117 64.5 235t158.5 191q-16 12 -70 29l-96 8q-100 0 -172 -47q-72 -43 -72 -117l2 -657h-170v565q0 104 -68.5 172t-164.5 68q-80 0 -135.5 -43t-55.5 -103v-659h-170v614q0 72 -73 134q-37 29 -80 43t-101 14q-160 0 -259 -109.5 t-124 -300.5l7 -6q45 74 92 111t125 37q94 0 167.5 -93.5t73.5 -199.5q0 -119 -66.5 -191.5t-170.5 -72.5q-141 0 -223 118q-70 111 -70 260zM266 270q0 -55 43 -120q43 -55 105 -56q68 0 110 58q37 49 37 106q0 70 -41 123q-37 55 -102 55q-61 0 -109 -47q-43 -47 -43 -119 zM1886 350q0 -111 64 -182q55 -61 127 -62q82 0 137 79.5t55 185.5q0 119 -39 209q-37 94 -133 172q-96 -76 -153.5 -188.5t-57.5 -213.5z" />
<glyph unicode="&#xea;" horiz-adv-x="1624" d="M158 461q0 182 122.5 319.5t319.5 137.5q23 0 49.5 -1.5t67.5 -15.5q51 -14 121 -55l137 53q80 19 199 19q162 0 284 -80q109 -74 109 -170q0 -90 -54 -144l-92 -59q86 -18 137.5 -75.5t51.5 -127.5q0 -115 -72 -192q-84 -90 -235 -90h-29q-23 0 -35 4q-20 0 -70 20 l-28 105q86 -45 123 -46q80 0 128 50.5t48 132.5q0 78 -48.5 127t-152.5 49h-59v70q205 0 204 165q0 74 -62 129.5t-169 55.5q-45 0 -80 -2t-59 -9q-45 -6 -107 -30q115 -92 172 -221q49 -104 49 -211q0 -154 -79 -265q-90 -125 -234 -124q-106 0 -196.5 111.5t-90.5 266.5 q0 119 59.5 226.5t155.5 187.5q-29 16 -69 25l-74 8q-129 0 -240.5 -111.5t-111.5 -261.5q0 -131 50 -238.5t144 -179.5l-67 -34q-92 74 -154.5 204.5t-62.5 276.5zM594 356q0 -115 65 -186q57 -63 127 -64q80 0 136.5 77t56.5 188q0 119 -41 200q-33 76 -135 170 q-98 -78 -153.5 -181t-55.5 -204z" />
<glyph unicode="&#xeb;" horiz-adv-x="1691" d="M170 451q0 215 137 352q119 115 262 115q104 0 172 -38t117 -110q53 78 138 111.5t182 33.5q170 0 313 -124q180 -158 180 -422q0 -154 -80 -265q-90 -125 -233 -124q-106 0 -196.5 111.5t-90.5 266.5q0 117 61.5 234t155.5 192q-23 14 -67.5 25.5t-92.5 11.5 q-98 0 -164.5 -48t-66.5 -122v-651h-170v565q0 104 -49 166t-115 62q-115 0 -203 -95q-98 -104 -98 -266q0 -102 51 -196q61 -113 187 -203l-56 -53q-117 92 -195.5 219t-78.5 252zM1137 356q0 -115 65 -186q57 -63 129 -64q80 0 135.5 77t55.5 188v57q-6 35 -9.5 54.5 t-5.5 29.5q-8 25 -26 61q-37 86 -133 170q-98 -78 -154.5 -182t-56.5 -205z" />
<glyph unicode="&#xec;" horiz-adv-x="2285" d="M158 451q0 213 135 352q119 115 262 115q111 0 178 -41q70 -37 113 -117q43 68 119.5 113t156.5 45q119 0 191 -35q71 -31 139 -113q45 70 129 106.5t174 36.5q88 0 150.5 -18t140.5 -74q115 -80 176 -227q43 -109 43 -225q0 -147 -80 -265q-88 -125 -231 -124 q-106 0 -196.5 111.5t-90.5 266.5q0 113 68 242q61 115 153 184q-16 12 -69 29l-97 8q-92 0 -168.5 -59.5t-76.5 -118.5v-643h-170v565q0 104 -69 172t-165 68q-74 0 -127 -33q-63 -41 -63 -121v-651h-170v565q0 104 -48.5 166t-113.5 62q-111 0 -203 -95 q-100 -106 -100 -266q0 -104 53 -196q63 -113 188 -203l-57 -53q-119 94 -196.5 220t-77.5 251zM1737 350q0 -111 63 -182q55 -61 125 -62q80 0 136.5 77t56.5 188q0 119 -39 209q-37 94 -131 172q-96 -76 -153.5 -188.5t-57.5 -213.5z" />
<glyph unicode="&#xed;" horiz-adv-x="1624" d="M158 500q0 186 98 309q90 109 223 109q84 0 139 -41q55 -37 105 -136q55 72 129 127q78 49 174 50q125 0 216 -109t91 -248q0 -156 -61 -278q-68 -137 -225 -222q43 -12 69 -12q160 0 291 134t131 319q0 98 -43 196.5t-113 167.5l56 52q104 -129 141 -222.5t37 -197.5 q0 -190 -117 -342q-141 -176 -389 -176h-51l-64 10q-35 4 -53 16l-92 -18l-107 -8q-242 0 -413.5 152.5t-171.5 367.5zM186 -475q0 76 50 125q51 45 145 45h98q0 113 54.5 192.5t148.5 79.5q92 0 152 -71q55 -72 71 -201h80q31 131 110 201.5t179 70.5q141 0 239 -100 q41 -45 72 -105q25 -54 25 -120q0 -94 -40 -171t-138 -157l-70 29q59 51 93 127.5t34 148.5q0 115 -73 193.5t-169 78.5q-66 0 -133 -55q-61 -55 -80 -141h78q111 0 159 -48t48 -145q0 -84 -47 -131q-43 -49 -119 -49q-68 0 -123 75t-55 189l2 60h-68q0 -29 -1 -64t-15 -78 q-14 -57 -55 -106q-63 -76 -148 -76q-51 0 -95 23.5t-81 89.5q-18 -51 -61 -82q-37 -31 -80 -31q-68 0 -121 45q-66 55 -66 158zM223 498q0 -59 7.5 -96t33.5 -87q43 -82 137 -153q57 -45 150 -84q90 -29 174 -29q64 0 119 12q-78 41 -154 168q-86 145 -86 289 q0 129 -50 202t-122 73q-86 0 -147.5 -86t-61.5 -209zM291 -469q0 -49 27.5 -94t72.5 -45q35 0 61.5 36t26.5 99v119h-49q-68 0 -103.5 -31t-35.5 -84zM524 -393q0 -104 37 -159.5t98 -55.5q63 0 104.5 68.5t41.5 185.5h-279zM526 -305h279q0 80 -41 139q-18 27 -43 43 q-29 14 -59 14q-57 0 -93 -47q-43 -55 -43 -149zM739 510q0 -127 60.5 -243.5t154.5 -168.5q102 49 162 164t60 238t-61.5 214t-153.5 91q-98 0 -166 -98q-55 -86 -56 -197zM1020 -426l6 -63q2 -12 8 -29t15 -29q31 -53 73 -53q43 0 74 36t31 75q0 61 -31 98t-82 37h-86 l-6 -37z" />
<glyph unicode="&#xee;" horiz-adv-x="1636" d="M158 451q0 213 135 352q119 115 262 115q109 0 179.5 -38t109.5 -110q33 61 112 109q39 18 79 28.5t83 10.5q147 0 266 -125q102 -109 134 -275h112v-69h-106q0 -209 -75 -339t-198 -130q-90 0 -161.5 87t-71.5 191q0 125 57 184q70 76 234 76l49 -2q-16 119 -100 210 t-183 91q-78 0 -135 -45t-57 -121v-651h-170v565q0 104 -48.5 166t-113.5 62q-111 0 -203 -95q-100 -106 -100 -266q0 -104 53 -196q63 -113 188 -203l-57 -53q-119 94 -196.5 220t-77.5 251zM1098 270q0 -70 35.5 -117t97.5 -47q59 0 98 75t39 214v54l-53 2 q-119 0 -168 -41t-49 -140z" />
<glyph unicode="&#xef;" horiz-adv-x="2390" d="M158 358q0 231 141 395.5t379 164.5q104 0 183 -40t132 -118q41 68 117 113t160 45q106 0 205 -62q72 -47 112 -123q61 88 168 136.5t230 48.5q162 0 272 -84q115 -80 115 -197q0 -57 -44 -106.5t-118 -49.5q-49 0 -80 8l-102 21q-49 0 -88 -26.5t-39 -69.5 q0 -78 153 -78h25q16 0 24 4l33 2h49q80 0 133 -35q64 -45 64 -129q0 -86 -80 -151q-78 -59 -219 -60l-88 2h-53q-25 6 -37 8h-33q-16 0 -41 5l-90 20l-21 107l146 -33l145 -8q201 0 201 104q0 43 -41 63.5t-133 20.5q-147 0 -227 37t-80 117t50 130t136 50l94 -6l109 -13 q31 0 56.5 26t25.5 60q0 61 -69 110.5t-173 49.5q-139 0 -225 -47q-55 -31 -84 -65.5t-29 -77.5v-627h-170v565q0 104 -68.5 172t-164.5 68q-80 0 -134.5 -42t-54.5 -106v-657h-170v614q0 72 -74 134q-37 29 -79 43q-23 6 -46.5 10t-54.5 4q-166 0 -265 -111.5t-118 -298.5 l6 -6q45 72 88 109q51 39 127 39q94 0 168 -93.5t74 -199.5q0 -119 -66.5 -191.5t-170.5 -72.5q-141 0 -222 118q-70 111 -69 260zM258 270q0 -55 43 -120q43 -55 105 -56q59 0 108 58q37 49 37 106q0 72 -38 125t-103 53q-61 0 -109 -47q-43 -47 -43 -119z" />
<glyph unicode="&#xfe;" horiz-adv-x="942" d="M166 379v123h745v-123h-745z" />
<glyph unicode="&#x2000;" horiz-adv-x="692" />
<glyph unicode="&#x2001;" horiz-adv-x="1384" />
<glyph unicode="&#x2002;" horiz-adv-x="692" />
<glyph unicode="&#x2003;" horiz-adv-x="1384" />
<glyph unicode="&#x2004;" horiz-adv-x="461" />
<glyph unicode="&#x2005;" horiz-adv-x="346" />
<glyph unicode="&#x2006;" horiz-adv-x="230" />
<glyph unicode="&#x2007;" horiz-adv-x="230" />
<glyph unicode="&#x2008;" horiz-adv-x="173" />
<glyph unicode="&#x2009;" horiz-adv-x="276" />
<glyph unicode="&#x200a;" horiz-adv-x="76" />
<glyph unicode="&#x202f;" horiz-adv-x="276" />
<glyph unicode="&#x205f;" horiz-adv-x="346" />
<glyph unicode="&#xe000;" horiz-adv-x="921" d="M0 0v922h922v-922h-922z" />
</font>
</defs>
</svg>
