<?xml version="1.0" standalone="no"?>
<!DOCTYPE svg PUBLIC "-//W3C//DTD SVG 1.1//EN" "http://www.w3.org/Graphics/SVG/1.1/DTD/svg11.dtd" >
<svg xmlns="http://www.w3.org/2000/svg">
<metadata></metadata>
<defs>
<font id="av-web-kan1regular" horiz-adv-x="1032" >
<font-face units-per-em="2048" ascent="1638" descent="-410" />
<missing-glyph horiz-adv-x="524" />
<glyph horiz-adv-x="0" />
<glyph unicode="&#xd;" horiz-adv-x="524" />
<glyph unicode="&#xfe;" horiz-adv-x="835" />
<glyph horiz-adv-x="835" />
<glyph unicode=" "  horiz-adv-x="524" />
<glyph unicode="&#x09;" horiz-adv-x="524" />
<glyph unicode="&#xa0;" horiz-adv-x="524" />
<glyph unicode="!" horiz-adv-x="622" d="M266 68q0 37 31 67.5t68 30.5t67.5 -29.5t30.5 -68.5q0 -43 -25.5 -72t-72.5 -29q-41 0 -70 29t-29 72zM289 889q0 68 12 104.5t64 36.5q41 0 58 -39t17 -98l-2 -43l-63 -578h-25l-59 578z" />
<glyph unicode="&#x22;" horiz-adv-x="380" d="M78 866q0 86 63 162q43 45 150 115l16 -35l-76 -68l-63 -73q-23 -33 -23 -70l2 -25q23 14 62 15q100 -1 100 -101q0 -37 -33 -63l-34 -16q-18 -6 -47 -7q-49 0 -84 41q-33 45 -33 125z" />
<glyph unicode="#" horiz-adv-x="788" d="M82 231l53 11q6 -57 28.5 -94t67.5 -74l-32 -39q-98 78 -117 196zM82 319q12 59 36.5 110.5t80.5 88.5l34 -39q-39 -27 -67 -71q-20 -37 -33 -99zM272 -12l21 51q47 -20 94 -21q55 0 102 21l23 -51q-68 -20 -117 -21q-61 0 -123 21zM272 563q63 23 123 23q41 0 61.5 -3.5 t55.5 -19.5l-23 -51q-20 8 -46.5 14t-53.5 6q-53 0 -96 -22zM547 72q37 27 71 75q20 37 33 95l51 -11q-12 -111 -116 -200zM547 479l39 39q104 -74 116 -199l-51 -12q-12 109 -104 172z" />
<glyph unicode="$" horiz-adv-x="6" d="M-1100 -348q0 76 49 149q63 88 174 88q104 0 168 -75q53 -70 54 -170l-4 -50q12 -27 50 -57.5t81 -30.5q55 0 94 45q35 45 35 109q0 51 -44 103.5t-118 52.5q-68 0 -68 41q0 33 58 32q80 0 143 -75q59 -78 59 -170l-2 -39q12 -31 52 -65t86 -34q55 0 94 45q35 45 35 109 q0 53 -43 109q-43 47 -119 47q-68 0 -68 41q0 33 60 32q82 0 141 -77.5t59 -167.5q0 -100 -42 -165t-117 -65q-47 0 -86 47q-41 43 -56 109q-12 -68 -55 -112t-98 -44q-51 0 -87 41t-55 107q-18 -63 -77.5 -105.5t-129.5 -42.5q-96 0 -159.5 70t-63.5 168zM-1057 -319 q0 -80 53.5 -127.5t126.5 -47.5q63 0 123 50q29 27 43.5 54t14.5 64q0 78 -55.5 129.5t-125.5 51.5q-74 0 -127 -52.5t-53 -121.5zM-438 -698l2 16l43 154l47 -154l2 -18q0 -47 -45 -48q-49 0 -49 50z" />
<glyph unicode="%" horiz-adv-x="872" d="M78 176q0 80 51 125q23 20 104 51q-76 39 -120 92q-35 51 -35 117q0 82 59.5 130t138.5 48h498v-102h-498q-59 0 -96 -37q-31 -37 -30 -90q0 -47 35.5 -79t74.5 -32l211 -2v-92h-227q-45 0 -80 -29q-35 -25 -35 -83q0 -55 35 -82l31 -19l49 -8h211v-86l-211 -2 q-76 0 -125 55q-41 57 -41 125z" />
<glyph unicode="&#x26;" horiz-adv-x="901" d="M70 111q0 41 18 79.5t64 51.5q-41 23 -58 47l-12 26l-4 37q0 43 24.5 67.5t79.5 43.5q-109 35 -108 127q0 76 43 112.5t125 36.5h598v-102h-598q-98 0 -99 -76q0 -25 27 -45q16 -10 55 -16h195v-86h-209q-43 0 -62.5 -19.5t-13.5 -58.5q0 -16 12.5 -30.5t47.5 -14.5h225 v-84l-209 -2q-35 0 -63.5 -13.5t-28.5 -48.5q0 -59 92 -59h209v-86l-225 -2q-41 0 -80 30.5t-45 84.5z" />
<glyph unicode="'" horiz-adv-x="393" d="M80 758q31 18 76 63l71 80q14 33 15 86l-27 -8l-37 -2q-98 0 -98 98q0 35 30.5 59.5t84.5 24.5q57 0 86 -41q32 -39 32 -123q0 -90 -63 -161q-51 -57 -152 -117z" />
<glyph unicode="(" horiz-adv-x="616" d="M78 416q0 240 104.5 429t335.5 347l19 -37q-160 -141 -244 -358q-14 -39 -25.5 -85t-21.5 -108q-16 -104 -17 -221q0 -279 72 -460t236 -343l-19 -18q-229 147 -342 372q-98 203 -98 482z" />
<glyph unicode=")" horiz-adv-x="616" d="M84 1155l16 37q221 -150 329 -345t108 -431q0 -145 -22.5 -262t-74.5 -220q-100 -213 -338 -372l-16 18q156 156 228.5 341t72.5 462q0 236 -61 414q-68 203 -242 358z" />
<glyph unicode="*" horiz-adv-x="1949" d="M78 289q0 90 30.5 172t100.5 133l2 -53q-33 -33 -66 -99q-23 -57 -22 -123q0 -240 172 -399.5t430 -159.5q233 0 412.5 148.5t179.5 363.5q0 211 -117 346q-86 92 -248 154q16 -66 17 -113q178 -115 178 -340q0 -139 -124 -234t-296 -95q-131 0 -221 59q-104 68 -105 191 q0 68 62.5 100.5t148.5 32.5q154 0 238 61q76 63 76 201q-90 49 -201 49q-80 0 -134 -29.5t-54 -93.5q0 -43 26 -67q25 -18 55 -23l23 -2l27 6q8 6 14 25l-6 8l-25 -6q-43 0 -43 41q0 43 54 43q25 0 43 -21q18 -16 20 -51q0 -23 -31 -53q-33 -23 -86 -23q-43 0 -80 37 q-33 39 -32 86q0 86 84 131q66 35 145 35q104 0 201 -45l-8 66l-13 40q-172 57 -219 80q-96 49 -96 144q0 33 24.5 57.5t61.5 24.5q74 0 145 -78q74 -70 113 -187l117 -49q133 -66 219 -180q102 -139 102 -328q0 -258 -191.5 -452.5t-455.5 -194.5q-274 0 -460.5 202 t-186.5 462zM471 256q0 -68 76 -106q82 -35 178 -35q133 0 240.5 70.5t107.5 197.5q0 70 -29 125q-24 57 -75 98q0 -109 -52.5 -175t-185.5 -95l-147 -14q-113 0 -113 -66zM664 979q0 -55 94 -92l125 -39q-31 74 -78 127q-43 53 -78 53q-25 0 -44 -13.5t-19 -35.5zM1446 422 q0 152 57 272q72 150 189 150q68 0 107.5 -72t39.5 -176q0 -82 -35 -143q-18 -35 -49 -49.5t-67 -14.5q-18 0 -40 15.5t-39.5 44t-25.5 59.5l-8 70q0 80 35 135q-61 -47 -97 -135q-27 -94 -26 -175q0 -141 86 -270q70 -104 225 -233h-156q-94 100 -151 245l-33 136 q-12 72 -12 141zM1604 610q0 -43 26 -78q23 -23 62 -28q55 0 90 27.5t35 82.5q0 49 -33 81t-76 32q-47 0 -75.5 -35t-28.5 -82z" />
<glyph unicode="+" horiz-adv-x="458" d="M176 111v790l133 -113v-790z" />
<glyph unicode="," horiz-adv-x="393" d="M80 96q0 33 33 60l34 16q18 6 48 6q55 0 86.5 -39t31.5 -123q0 -92 -63 -163q-49 -55 -152 -113l-18 35q27 14 78 67q43 37 69 76l11 37l4 55q-10 -10 -35 -12l-29 -2q-98 0 -98 100z" />
<glyph unicode="-" horiz-adv-x="815" d="M334 442v72h452v-72h-452z" />
<glyph unicode="." horiz-adv-x="352" d="M96 96q0 39 30 69t69 30q35 0 69.5 -30t34.5 -69t-33 -71q-33 -29 -71 -29q-39 0 -69 28.5t-30 71.5z" />
<glyph unicode="/" horiz-adv-x="573" d="M78 111l321 933l97 -120l-320 -932z" />
<glyph unicode="0" horiz-adv-x="806" d="M147 469q0 184 86 326q96 156 246 155q147 0 246 -155q86 -140 86 -326q0 -217 -93 -353t-239 -136q-133 0 -232.5 136t-99.5 353zM317 465q0 -397 162 -397t162 397q0 399 -162 399t-162 -399z" />
<glyph unicode="1" horiz-adv-x="610" d="M233 651v117q37 16 67 29.5t62 33.5q78 43 123 87h117v-918h-170v770l-63 -41l-58 -33z" />
<glyph unicode="2" horiz-adv-x="806" d="M164 0v80q219 203 319 332q119 156 119 260q0 80 -43 129t-115 49q-68 0 -109.5 -57.5t-41.5 -124.5h-105q0 125 77 203.5t204 78.5q143 0 223 -75.5t80 -198.5q0 -76 -67 -174q-100 -141 -394 -402h471v-100h-618z" />
<glyph unicode="3" horiz-adv-x="806" d="M156 246h118q0 -70 48.5 -124t121.5 -54q63 0 112.5 52t49.5 126q0 94 -47 143q-43 53 -129 53h-70v88h76q63 0 112.5 43t49.5 113q0 80 -42 129t-116 49q-59 0 -106 -47t-55 -121h-105q0 125 96 197q82 57 181 57q119 0 211 -72.5t92 -181.5q0 -74 -46 -131t-137 -76 l4 -10q201 -34 201 -243q0 -111 -82 -183.5t-225 -72.5q-133 0 -223 77.5t-90 188.5z" />
<glyph unicode="4" horiz-adv-x="806" d="M127 199v94l424 625h125v-619h141v-100h-141v-199h-170v199h-379zM223 299h283v418l-2 6z" />
<glyph unicode="5" horiz-adv-x="806" d="M174 217h121q0 -68 47 -108.5t117 -40.5q66 0 110.5 60t44.5 165q0 113 -47 174t-125 61q-63 0 -110 -34q-43 -27 -60 -80h-79l38 504h506v-101h-375l-30 -242q88 39 162 39q143 0 216.5 -71.5t73.5 -225.5t-80.5 -245.5t-244.5 -91.5q-135 0 -215 73q-70 66 -70 164z " />
<glyph unicode="6" horiz-adv-x="806" d="M154 446q0 264 110 404q84 100 207 100q104 0 180 -55t101 -164l-119 -12q-31 131 -135 131q-92 0 -140.5 -94t-48.5 -242q31 39 85.5 62.5t111.5 23.5q133 0 215 -79.5t82 -229.5q0 -143 -88 -227t-232 -84q-150 0 -239.5 123.5t-89.5 342.5zM324 291q0 -119 47 -174 q41 -49 112 -49q66 0 114 52t48 171q0 113 -44 167t-118 54q-68 0 -110 -51q-49 -59 -49 -170z" />
<glyph unicode="7" horiz-adv-x="806" d="M182 817v101h596v-101l-356 -817h-189l392 817h-443z" />
<glyph unicode="8" horiz-adv-x="806" d="M174 258q0 100 59 162q49 49 127 74l9 4q-70 12 -123 65t-53 129q0 109 69 178q78 80 217 80t217 -78q72 -72 72 -180q0 -74 -49 -123t-127 -71l4 -4q80 -18 127 -72q61 -62 61 -164q0 -117 -80.5 -197.5t-224.5 -80.5q-135 0 -220 79.5t-85 198.5zM344 262 q0 -88 37 -143q39 -51 98 -51q61 0 98 49t37 145q0 78 -37.5 130t-97.5 52q-61 0 -98 -50t-37 -132zM348 692q0 -72 37 -119q37 -41 94 -41q47 0 89 44t42 116q0 76 -37.5 124t-93.5 48q-55 0 -93 -47t-38 -125z" />
<glyph unicode="9" horiz-adv-x="806" d="M154 641q0 137 84 223t233 86q152 0 242 -117t90 -350q0 -264 -111 -403q-84 -100 -209 -100q-106 0 -180 55t-100 166l121 10q25 -131 135 -131q90 0 138 93t48 243q-29 -39 -86 -64q-61 -20 -110 -20q-129 0 -212 82t-83 227zM309 641q0 -109 43 -166t119 -57 q63 0 112.5 55t49.5 168q0 117 -44 170t-118 53q-70 0 -116 -52t-46 -171z" />
<glyph unicode=":" horiz-adv-x="364" d="M96 96q0 39 30 69t69 30q35 0 69.5 -30t34.5 -69t-33 -71q-33 -29 -71 -29q-39 0 -69 28.5t-30 71.5zM96 641q0 41 29 69.5t70 28.5q45 0 74.5 -28.5t29.5 -69.5q0 -39 -33 -72q-33 -29 -71 -28q-39 0 -70 28q-29 33 -29 72z" />
<glyph unicode=";" horiz-adv-x="380" d="M80 96q0 33 33 60l34 16q18 6 48 6q55 0 86.5 -39t31.5 -123q0 -92 -63 -163q-49 -55 -152 -113l-18 35q27 14 78 67q43 37 69 76l11 37l4 55q-10 -10 -35 -12l-29 -2q-98 0 -98 100zM96 641q0 41 29 69.5t70 28.5q45 0 74.5 -28.5t29.5 -69.5q0 -39 -33 -72 q-33 -29 -71 -28q-39 0 -70 28q-29 33 -29 72z" />
<glyph unicode="&#x3c;" horiz-adv-x="872" d="M78 176q0 80 51 125q23 20 104 51q-76 39 -120 92q-35 51 -35 117q0 82 59.5 130t138.5 48h498v-102h-498q-59 0 -96 -37q-31 -37 -30 -90q0 -47 35.5 -79t74.5 -32l211 -2v-92h-227q-45 0 -80 -29q-35 -25 -35 -83q0 -55 35 -82l31 -19l49 -8h211v-86l-211 -2 q-76 0 -125 55q-41 57 -41 125z" />
<glyph unicode="=" horiz-adv-x="815" d="M162 260v72h633v-72h-633zM162 494v92h633v-92h-633z" />
<glyph unicode="&#x3e;" horiz-adv-x="163" d="M-461 -258q0 63 74 103t160 40q66 0 84 -4l65 -18q63 -25 107 -62q14 20 32 70q14 57 15 86l2 29q0 96 -68 180l8 41q47 -37 81 -113t34 -151q0 -51 -22 -103q-18 -55 -50 -92l17 -39l10 -59q6 -39 37 -64q37 -20 84 -20v-92q-94 0 -129 53q-25 35 -39 145l-12 43 q-43 -47 -103 -75q-74 -37 -153 -37q-78 0 -150 30q-84 37 -84 109zM-387 -244q0 -25 55 -47q53 -18 115 -18h24q12 0 36 3t59 19q51 19 94 56q-55 68 -227 67q-45 0 -100.5 -18.5t-55.5 -61.5z" />
<glyph unicode="?" horiz-adv-x="704" d="M68 811q0 80 63 141q82 76 221 76q160 0 236 -96q49 -61 49 -141t-191 -320q-90 -113 -90 -221h-51q0 123 95.5 284.5t95.5 239.5q0 84 -45 141q-51 63 -136 64q-45 0 -96 -23.5t-51 -66.5q0 -12 12 -31l21 -27l14 -28l4 -37q0 -20 -17.5 -39.5t-47.5 -26.5 q-41 0 -63.5 35t-22.5 76zM233 68q0 37 31 67.5t68 30.5t67.5 -29.5t30.5 -68.5q0 -43 -25.5 -72t-72.5 -29q-41 0 -70 29t-29 72z" />
<glyph unicode="@" horiz-adv-x="999" d="M76 432q0 129 40 219t126 90q55 0 88 -53l24 -57l8 -70q0 -68 -24 -117q-33 -57 -88 -57q-41 0 -74 41q-41 51 -41 141q-20 -55 -20 -125l4 -45q25 -125 122 -201.5t246 -76.5q180 0 276.5 76.5t117.5 230.5l2 35q0 55 -19 92l-57 -160h-369v82l234 2l-41 39l-29 70 q-6 49 19 94q35 59 100 59q98 0 156 -100q43 -80 43 -197q0 -233 -132 -352q-113 -102 -292 -102q-184 0 -302 117.5t-118 324.5zM168 563q0 -53 25.5 -78.5t66.5 -25.5q27 0 49.5 35.5t22.5 70.5q0 88 -74 101q-37 0 -65 -29q-25 -29 -25 -74zM676 569q0 -35 22.5 -63.5 t57.5 -28.5l20 2q25 6 45 47l8 37l2 41q-6 33 -22 51q-23 25 -61 25q-37 0 -58 -35l-10 -37z" />
<glyph unicode="A" horiz-adv-x="1015" d="M78 403q0 145 35 228q43 110 127 110h2q55 0 92 -49q33 -55 33 -135t-25 -123q-33 -51 -94 -51q-55 0 -88 51q-29 53 -29 133q-18 -47 -18 -121v-26l4 -29q12 -102 100 -182q106 -88 281 -88q129 0 219 24q141 41 141 146q0 33 -16 57q-12 25 -35 39q-18 -6 -70 -6h-297 v100h285q-25 23 -47 64q-10 37 -14 73q0 63 42 94t95 31q61 0 101 -64.5t40 -160.5q0 -45 -27.5 -75.5t-70.5 -45.5q14 -8 39 -43q12 -16 22 -51l4 -39q0 -119 -118.5 -197.5t-292.5 -78.5q-166 0 -287 100q-133 115 -133 315zM160 567q0 -43 22 -78q26 -32 73 -32h3 q29 0 57 30q25 31 25 72q0 39 -23.5 69.5t-58.5 37.5q-41 0 -69.5 -29t-28.5 -70zM715 586q0 -33 10 -54l31 -51h45q61 0 90 35q12 16 17 32.5t5 41.5q-10 37 -37.5 53t-60.5 23q-49 0 -78 -27q-16 -18 -22 -53z" />
<glyph unicode="B" horiz-adv-x="1085" d="M78 514q0 102 58.5 166.5t146.5 64.5q74 0 129 -49q55 -43 80 -147q12 94 65 143q49 53 127 53q104 0 174 -88t70 -217q0 -57 -17.5 -122.5t-48.5 -104.5q27 -31 72 -129q18 -49 61 -49q20 0 39 24l15 41l20 2l45 -118l-51 -35l-57 -15q-80 0 -111 76l-57 152l-13 -21 q-49 -74 -96 -106q-72 -45 -164 -45q-121 0 -184 57q-55 49 -55 119l8 45q18 61 102 94q63 23 133 23l29 -2q131 -16 229 -78l39 88l11 43l4 41l-2 26q0 35 -11.5 66t-31.5 55q-43 53 -125 54q-84 0 -140.5 -38t-76.5 -114q-25 74 -84.5 113t-126.5 39q-57 0 -110.5 -36 t-53.5 -106q0 -49 34.5 -77.5t82.5 -28.5l14 -15l8 -22q0 -23 -29 -29q-55 0 -103 57.5t-48 149.5zM401 203q0 -37 41 -60q51 -20 154 -20q61 0 104.5 22.5t90.5 63.5q-33 25 -74 45l-47 14l-54 6l-32 2q-66 0 -124.5 -17t-58.5 -56z" />
<glyph unicode="C" horiz-adv-x="1413" d="M80 324v106h158q29 76 78 125t112 82h-203v102h465q39 0 82 37t43 88q0 41 -10 66.5t-45 52.5h24q35 -18 62 -63l16 -35q6 -16 10 -49q0 -94 -52 -146.5t-120 -52.5h-14q76 -29 124 -78t79 -129h213l-37 64q-6 18 -10 38.5t-4 45.5q0 51 30.5 92t89.5 41 q61 0 104.5 -50.5t43.5 -117.5q0 -147 -102 -199q41 -43 80.5 -102.5t39.5 -108.5l-6 -37q-18 -45 -43 -67q-23 -16 -86 -33l-76 63q43 12 71 32t44 52l10 41q0 35 -37 95l-36 49l-48 -6l-53 2h-176q0 -139 -96 -237.5t-242 -98.5q-147 0 -246 100q-94 106 -94 236h-143z M283 324q25 -96 101.5 -152.5t176.5 -56.5q104 0 173 57.5t102 151.5h-553zM283 430h557q-18 86 -103 145q-80 61 -176 62q-98 0 -178 -61.5t-100 -145.5zM1096 545q0 -35 10 -58l33 -57q80 0 116.5 31t36.5 84q0 37 -26.5 64.5t-75.5 27.5q-43 0 -68.5 -25.5t-25.5 -66.5z " />
<glyph unicode="D" horiz-adv-x="1466" d="M68 487q0 111 36 195q39 76 121 76q68 0 117 -56.5t49 -140.5l2 -33q0 -55 -24 -96q-25 -35 -68 -35q-162 0 -162 197q-35 -51 -35 -148v-34l2 -29q18 -98 74 -176q68 -86 168 -86q109 0 173.5 46t64.5 118l-6 39l-27 104l-6 88q0 92 43 166q55 92 151 92q133 0 193 -110 q37 -74 37 -232l2 -115q23 -196 150 -196h1q92 0 148 43q74 55 74 188q0 117 -64 201q-37 53 -123 98q-65 40 -65 81q0 32 16 41t41 9q16 0 20 -4q94 -49 156 -162.5t62 -242.5q0 -184 -62.5 -283.5t-202.5 -99.5q-125 0 -170 131q-24 81 -24 307v18q0 78 -47 138 q-52 65 -139 65h-3q-49 0 -102 -51q-10 -12 -16.5 -22.5t-18.5 -32.5q-12 -31 -12 -72q0 -45 16 -84l10 -35l13 -45l8 -86q0 -86 -66.5 -158.5t-169.5 -72.5q-147 0 -245 129q-86 115 -86 264zM164 578q0 -37 28.5 -66t65.5 -29q41 0 70.5 25t29.5 70q0 35 -24.5 60.5 t-59.5 29.5l-53 -6q-20 -4 -43 -23q-14 -23 -14 -61z" />
<glyph unicode="E" horiz-adv-x="1966" d="M68 487q0 111 36 195q39 76 121 76q68 0 117 -56.5t49 -140.5l2 -33q0 -55 -24 -96q-25 -35 -68 -35q-162 0 -162 197q-35 -51 -35 -145l7 -66q16 -106 72.5 -176t164.5 -86q109 0 173.5 46t64.5 118l-6 39l-21 79l-10 56l-4 57q0 106 41 176q53 88 159 88q123 0 185 -80 q53 -70 53 -184l-4 -45l-6 -49l-2 -60q0 -51 5.5 -87.5t22.5 -69.5q37 -84 125 -84q92 0 148 43q74 55 74 188v113l-7 47q0 109 55.5 188.5t166.5 79.5q152 0 249 -141q80 -123 80 -287q0 -199 -67 -291q-54 -73 -163 -73h-3q-74 0 -121 59t-47 146q0 45 37 88t98 43 q31 0 57.5 -24t26.5 -60q0 -27 -16.5 -45.5t-53.5 -18.5q-23 0 -45 19q-16 18 -20 45q0 31 14 45h-8q-14 0 -35 -27q-14 -33 -14 -65q0 -39 39 -78q41 -31 88 -31q96 0 143 65.5t47 186.5q0 113 -65 205q-79 110 -207 110h-2l-29 -2q-59 -6 -102 -45q-51 -57 -51 -178 q0 -227 -58 -334q-29 -53 -71 -80q-12 -8 -40 -17t-69 -9l-29 2q-104 0 -155 82q-20 43 -32.5 100t-12.5 129l4 82l4 63l2 31q0 74 -41 121q-47 53 -148 53q-57 0 -98 -39q-53 -49 -53 -137q0 -31 4 -41l14 -47l21 -88l6 -92q0 -90 -66 -154q-29 -29 -73.5 -46t-96.5 -17 q-147 0 -245 131q-86 117 -86 264zM164 578q0 -37 28.5 -66t65.5 -29q41 0 70.5 25t29.5 70q0 35 -24.5 60.5t-59.5 29.5l-53 -6q-20 -4 -43 -23q-14 -23 -14 -61z" />
<glyph unicode="F" horiz-adv-x="1142" d="M86 578q0 76 50 128t134 52q160 0 247 -100.5t87 -307.5q35 -127 66 -166q55 -84 151 -84q74 0 120 65.5t46 153.5q0 96 -69 199q-82 119 -181 119l-65 2v100h170q59 0 95 34t36 91q0 33 -10.5 59.5t-38.5 55.5l24 4q29 -14 56.5 -61.5t27.5 -85.5q0 -98 -50 -148.5 t-124 -50.5h-18q92 -51 164 -162q31 -51 48 -104.5t17 -108.5q0 -113 -47 -184q-55 -90 -170 -90q-104 0 -172 92q-45 63 -80 182q-18 -125 -106 -201.5t-195 -76.5q-102 0 -162 84q-43 61 -43 108q0 63 39 103q34 28 88 28h4q39 0 70 -31.5t31 -82.5q0 -43 -35 -63.5 t-66 -20.5q-33 0 -43 4l-30 14q0 -31 44 -60.5t91 -29.5q94 0 143 86t49 246q0 162 -47 247q-57 100 -166 101q-117 0 -139 -80q26 22 70 22h4q39 0 68.5 -25.5t29.5 -72.5q0 -100 -98 -100q-49 0 -82 32.5t-33 84.5zM123 582q0 -29 18 -52q12 -8 43 -14q60 0 60 45 q0 31 -13 55q-10 14 -30 21q-37 0 -56.5 -13.5t-21.5 -41.5zM152 188q0 -14 18 -38q20 -16 55 -17q29 0 45.5 16.5t16.5 43.5q0 12 -19 40q-18 18 -41 21q-33 0 -54 -19.5t-21 -46.5z" />
<glyph unicode="G" d="M78 242q0 84 43 144t108 60q70 0 106 -40.5t36 -98.5q0 -37 -26 -62.5t-66 -39.5l-21 4l-2 6l43 27q18 18 18 47l-2 18q-6 31 -31.5 43t-54.5 12t-49 -6t-39 -22q-29 -29 -28 -82q0 -61 59 -100q49 -31 119 -31q141 0 223 162q25 -72 70 -121q14 -12 22 -18.5t29.5 -14.5 t54.5 -8q84 0 142.5 62.5t58.5 152.5q0 150 -123 245t-315 95l-82 -4q-23 0 -39 10q-8 8 -15 37q0 53 84 53q217 0 375 -127q176 -142 176 -373q0 -98 -49 -182q-63 -100 -182 -100q-74 0 -135.5 61.5t-73.5 149.5q-25 -98 -81 -154.5t-140 -56.5q-92 0 -152.5 69.5 t-60.5 182.5z" />
<glyph unicode="H" d="M78 242q0 90 42 139t107 49q55 0 94 -39t39 -100q0 -31 -25.5 -56.5t-51.5 -31.5l-7 4l-22 10l-2 8l24 6l21 11q12 6 14 34l-6 29q-6 23 -26.5 33t-53.5 18q-114 0 -114 -96q0 -63 55 -104q57 -35 125 -35q141 0 223 162q25 -72 70 -121q14 -12 22 -18.5t29.5 -14.5 t54.5 -8q90 0 148 63q29 31 43 68q6 18 10 38.5t4 45.5q0 143 -88 252q-104 129 -311 178l16 -66q0 -63 -46 -98t-112 -35q-74 0 -123 58q-45 63 -45 129l-2 51h33v-35q0 -55 39 -91t98 -36q45 0 81 24.5t36 73.5q0 37 -14 66q495 -84 495 -535q0 -104 -49 -184 q-63 -100 -182 -100q-74 0 -135.5 62.5t-73.5 150.5q-25 -96 -81 -154.5t-140 -58.5q-92 0 -152.5 70.5t-60.5 183.5z" />
<glyph unicode="I" d="M78 242q0 86 50 138t118 52q57 0 86 -41l18 -39q6 -18 6 -55q0 -27 -22 -51q-18 -25 -51 -37l-41 2l-2 6l51 29q25 18 24 49q-6 35 -30.5 48t-59.5 19q-119 0 -119 -106q0 -59 54.5 -97t130.5 -38q141 0 223 162q25 -72 70 -121q14 -12 22 -18.5t29.5 -14.5t54.5 -8 q88 0 155.5 68.5t67.5 162.5q0 156 -57 228q-25 35 -70 55t-94 20q-68 0 -125 -51q-66 -59 -65 -151l-27 41q-12 84 -60 123.5t-134 39.5q-57 0 -109.5 -23.5t-52.5 -80.5q0 -20 10 -41l-4 -4l-29 27l-8 24v41q0 63 53.5 110.5t132.5 47.5q98 0 148 -62q27 -35 57 -131 q0 80 62.5 136.5t148.5 56.5q119 0 184 -103q78 -121 78 -383q0 -98 -49 -182q-63 -100 -182 -100q-74 0 -135.5 61.5t-73.5 149.5q-25 -98 -81 -154.5t-140 -56.5q-92 0 -152.5 69.5t-60.5 182.5z" />
<glyph unicode="J" horiz-adv-x="1015" d="M63 592q0 55 43.5 106.5t104.5 51.5q80 0 131 -51.5t51 -137.5t-125 -166t-125 -155q0 -119 148 -119q68 0 133 55q43 43 80 123q18 -74 80 -133q63 -51 141 -51q70 0 118 30.5t48 96.5q0 88 -119 139l2 6h41q51 -12 88 -60.5t37 -105.5q0 -104 -59.5 -167.5 t-139.5 -63.5q-51 0 -87 13t-74 52q-53 49 -78 150q-18 -86 -77.5 -150.5t-150.5 -64.5q-92 0 -149 57q-53 59 -53 158q0 98 123.5 173t123.5 150q0 45 -26.5 76t-67.5 31q-39 0 -72.5 -25.5t-33.5 -64.5q0 -27 13 -47.5t52 -46.5l-2 -7q-55 12 -87 53.5t-32 94.5z" />
<glyph unicode="K" horiz-adv-x="1015" d="M63 592q0 49 37 98q35 39 93 51q-55 16 -87 45t-32 78q0 51 50 81t126 30q-39 -14 -78 -49q-23 -25 -29 -62q0 -80 123 -129q45 -12 76 -67q31 -49 31 -109q0 -102 -115 -183t-115 -149q0 -49 50 -80l45 -16q23 -6 33 -8t36 -2q80 0 131 59q14 18 66 119q25 -80 78 -133 q57 -51 143 -51q68 0 116 36.5t48 104.5q0 86 -107 100l-10 25l2 6q74 0 119 -47q20 -23 32.5 -51.5t12.5 -63.5q0 -104 -59.5 -169.5t-137.5 -65.5q-51 0 -87 13t-74 52q-53 49 -78 150q-18 -86 -77.5 -150.5t-150.5 -64.5q-90 0 -144 49t-54 149t121.5 179t121.5 161 q0 45 -28.5 76t-69.5 31q-43 0 -72.5 -24.5t-29.5 -65.5q0 -27 12 -46.5t49 -47.5l-2 -7q-57 12 -86 53.5t-29 94.5z" />
<glyph unicode="L" horiz-adv-x="1048" d="M66 944v103h612q147 0 224 -88t77 -240q0 -96 -51 -172q-61 -92 -170 -92q-86 0 -135 61q-23 31 -35.5 65.5t-12.5 77.5q0 68 37 117t97 49q43 0 69 -28q29 -25 29 -68q0 -37 -14.5 -57.5t-51.5 -20.5q-31 0 -48 12.5t-17 55.5q0 49 41 67l-25 5q-31 0 -55 -33l-16 -35 q-6 -18 -7 -47q0 -55 39 -94q41 -35 113 -35q82 0 130 62.5t48 138.5q0 84 -59 137q-66 59 -176 59h-342q49 -31 49 -104q0 -43 -32 -74t-81 -31l-223 2v68l211 2q43 0 61.5 14.5t24.5 48.5q0 39 -29 56q-25 18 -53 18h-229zM78 592q0 61 46 105t101 44q72 0 123 -51 t51 -129q0 -92 -100 -174t-100 -139q0 -127 141 -127q86 0 141 55q20 23 72 123q25 -80 78 -133q27 -25 64.5 -38t78.5 -13q131 0 150 110l2 25q0 98 -101 131l2 6l21 8q53 -6 95 -59.5t42 -110.5q0 -104 -59 -170q-54 -65 -133 -65h-2q-92 0 -160 61q-61 61 -80 154 q-18 -88 -76 -148q-65 -67 -149 -67h-2q-96 0 -146.5 60.5t-50.5 158.5q0 82 104.5 159.5t104.5 159.5q0 47 -25.5 76t-68.5 29q-41 0 -74 -23.5t-33 -64.5q0 -27 12.5 -46.5t49.5 -47.5l-2 -7q-55 12 -89 52q-29 41 -28 96z" />
<glyph unicode="M" horiz-adv-x="712" d="M78 336q0 154 70.5 259t205.5 105q133 0 209 -108q70 -100 70 -256q0 -139 -66 -236q-73 -110 -211 -110h-2q-119 0 -204 110q-72 100 -72 236zM115 352q0 -96 61 -170q60 -67 175 -67h3q119 0 180.5 72.5t61.5 164.5q0 102 -69.5 167t-172.5 65q-104 0 -171.5 -62.5 t-67.5 -169.5z" />
<glyph unicode="N" horiz-adv-x="385" d="M78 143q0 72 28.5 118t86.5 46q53 0 83.5 -50.5t30.5 -113.5q0 -49 -31 -102q-33 -45 -83 -45q-45 0 -84 45q-31 47 -31 102zM78 545q0 72 28.5 118t86.5 46q53 0 83.5 -50.5t30.5 -113.5q0 -49 -31 -103q-33 -45 -83 -45q-45 0 -84 45q-31 47 -31 103zM100 143 q0 -35 27 -55t66 -20q41 0 67.5 20t26.5 55q0 45 -29 69t-65 24q-37 0 -65 -23t-28 -70zM100 545q0 -29 25 -58q27 -20 68 -20t67 20q10 8 19 23l8 35q0 45 -29 68.5t-65 23.5q-29 0 -64 -25q-29 -25 -29 -67z" />
<glyph unicode="O" horiz-adv-x="778" d="M80 399v84h276q35 0 55.5 30t20.5 65q0 20 -16 38q-12 18 -29 21l-307 2v98h373l2 -94q16 -6 16 -70l-6 -51q0 -16 -19 -39h250v-84l-198 -2q53 -25 96 -75q39 -51 39 -111q0 -92 -68 -160q-70 -63 -178 -63q-104 0 -165.5 61.5t-61.5 145.5q0 135 125 202zM229 240 q0 -61 47 -101q47 -35 113 -35q61 0 109 27q63 39 63 121q0 66 -45 105.5t-119 39.5q-80 0 -124 -47t-44 -110z" />
<glyph unicode="P" horiz-adv-x="778" d="M80 422v90l258 2q61 6 102 64.5t41 138.5v10q-23 -104 -110 -104q-43 0 -74 43t-31 96q0 78 28 126t87 48q70 0 113 -60.5t43 -140.5q0 -57 -40 -126.5t-89 -94.5l288 -2v-90h-198q45 -23 96 -86q39 -61 39 -119q0 -94 -72 -160q-67 -67 -171 -67h-3q-98 0 -164 65 q-63 70 -63 154q0 137 125 213h-205zM229 252q0 -61 48.5 -99t111.5 -38q70 0 111 28q61 41 61 123q0 57 -48 106.5t-122 49.5q-80 0 -123 -51q-39 -51 -39 -119zM299 768q0 -31 27 -59q18 -18 61 -19q27 0 51.5 18.5t24.5 63.5q0 55 -22.5 76.5t-59.5 21.5 q-43 0 -62.5 -31.5t-19.5 -70.5z" />
<glyph unicode="Q" horiz-adv-x="262" d="M-193 -119l218 2q25 31 45 75t20 95q0 43 -37 86l-49 39l4 41q35 -6 51 -16q18 -6 50 -31q59 -43 59 -102q0 -70 -35 -117q-6 -14 -72 -70l199 -2v-65l-149 -2q55 -31 84 -66q37 -43 36 -104q0 -63 -49 -125q-57 -63 -147 -64q-63 0 -125 49q-29 25 -43 54.5t-14 64.5 q0 72 36 125q18 25 82 66l-164 2v65zM-94 -344q0 -45 38 -77t91 -32q55 0 98 37t43 88q0 72 -41 103.5t-94 31.5t-94 -40.5t-41 -110.5z" />
<glyph unicode="R" horiz-adv-x="1212" d="M88 178q10 80 84 119q57 29 152 29q66 0 131 -27l90 -51q25 31 39 78l12 43l4 51q0 104 -74.5 173t-183.5 69q-49 0 -96 -24t-47 -60q0 -45 24 -76q27 -23 62 -23l-11 23l-2 22q0 18 11.5 31.5t40.5 20.5q29 0 45 -13.5t16 -54.5q0 -29 -28.5 -48.5t-65.5 -19.5 q-53 0 -96 37q-37 37 -37 96q0 80 51 131.5t117 51.5q133 0 219 -84q94 -94 94 -256q0 -63 -14 -113l-33 -94l86 -62q12 -6 47 -16t80 -10q125 0 205 67.5t80 180.5q0 111 -81 194.5t-184 83.5l-71 -4q-37 0 -56 33l-4 24q0 23 21.5 41.5t70.5 18.5q154 0 249 -101.5 t95 -289.5q0 -141 -73 -252q-84 -127 -219 -127q-100 0 -168 53q-31 25 -109 115q-43 -80 -106.5 -124t-161.5 -44q-104 0 -160 57q-23 23 -32 53.5t-11 41t-2 36.5zM143 193q-1 -6 -1 -11q0 -40 40 -67q47 -25 121 -25q61 0 118.5 32t94.5 89q-39 33 -78 49q-31 16 -110 29 q-43 0 -72 -4t-59 -19q-53 -23 -54 -73z" />
<glyph unicode="S" horiz-adv-x="1212" d="M82 182q0 72 74 113q74 37 168 37q74 0 131 -29q27 -10 90 -55q49 68 49 168q0 102 -75 174t-179 72q-51 0 -98 -24t-47 -60q0 -49 24.5 -74t65.5 -25l-11 23l-2 22q0 18 11.5 31.5t40.5 19.5q18 0 31.5 -19t19.5 -48q0 -31 -24.5 -49.5t-59.5 -18.5q-55 0 -96 41 q-37 43 -37 101q0 72 49 123t119 51q131 0 215 -84q92 -92 92 -256q0 -31 -2 -55.5t-8 -45.5l-31 -106l86 -62q12 -6 47 -16t80 -10q125 0 202.5 67.5t77.5 180.5q0 119 -106 200q-96 68 -231 68l-72 2v98h194l2 -96q106 -12 176.5 -86.5t86.5 -185.5l2 -35 q0 -139 -84 -241.5t-215 -102.5q-100 0 -168 53q-31 25 -109 115q-43 -80 -106.5 -124t-161.5 -44q-104 0 -157.5 55t-53.5 137zM135 195q0 -53 48 -79t120 -26q61 0 118.5 32t94.5 89q-35 31 -72 53q-20 12 -52 21.5t-64 9.5q-70 0 -127.5 -22.5t-65.5 -77.5z" />
<glyph unicode="T" horiz-adv-x="1212" d="M82 182q0 78 78 117q68 37 162 37q59 0 131 -31l39 -22l53 -35q49 68 49 168q0 98 -75 172t-179 74q-49 0 -96 -25q-37 -25 -43 -49l-4 -31v-8q0 -29 24 -53q25 -18 47 -19l19 2q-16 16 -23 45q0 25 17.5 36t42.5 11q20 0 35.5 -17t21.5 -46q0 -29 -25.5 -48.5 t-64.5 -19.5q-55 0 -96 41q-37 43 -37 101q0 74 50 124t118 50q127 0 219 -86q43 -43 68.5 -106.5t25.5 -147.5q0 -63 -14 -113l-33 -94l41 -33l51 -31l59 -20l62 -4q115 0 191.5 68.5t76.5 185.5q0 199 -51 325q-68 170 -221 226q25 -35 24 -86l-2 -25q-6 -61 -84 -61 l-37 2l-38 12q-31 16 -66 47l-45 66q-10 33 -14 69q0 43 34.5 72t83.5 29l29 -2q211 -37 342 -273q53 -100 80 -200.5t27 -213.5q0 -150 -85 -259t-227 -109q-96 0 -159 51l-103 113q-43 -80 -106.5 -124t-161.5 -44q-104 0 -157.5 55t-53.5 137zM139 195q0 -53 47 -79 t117 -26q61 0 118.5 32t94.5 89q-20 20 -39.5 34.5t-32.5 20.5q-43 20 -116 33q-70 0 -129.5 -24.5t-59.5 -79.5zM600 899q0 -37 21 -59q41 -43 94 -43q28 0 53 18q18 16 18 51q0 45 -28 74q-37 31 -88 31q-35 0 -54 -21q-10 -14 -16 -51z" />
<glyph unicode="U" horiz-adv-x="6" d="M-717 -512q6 51 51 76q47 20 105 20q45 0 84 -16l57 -35q35 47 35 111q0 68 -47 111.5t-119 43.5q-35 0 -60.5 -13t-31.5 -40q0 -31 12.5 -43t40.5 -18l-4 12l-4 14q0 35 35 35q20 0 30.5 -9t10.5 -36q0 -18 -15.5 -28.5t-46.5 -16.5q-37 0 -62.5 25.5t-25.5 68.5 q0 47 34 81t77 34q88 0 147.5 -58.5t59.5 -164.5q0 -47 -11 -76l-24 -60q10 -10 23.5 -22t29.5 -21l49 -18l39 -4q61 0 109 49q39 51 39 121q0 74 -49.5 129t-104.5 55l-45 -4q-20 0 -39 19l-2 16q0 23 14 35l47 12q84 0 148 -72q29 -35 46 -84t17 -110q0 -86 -49 -164 q-57 -82 -145 -82q-51 0 -86 35l-60 76q-33 -51 -72.5 -81t-103.5 -30q-68 0 -104 39q-12 12 -20.5 34.5t-8.5 53.5zM-680 -504q0 -35 28.5 -52t73.5 -17t79 20t61 61l-51 35q-33 14 -72 15q-47 0 -83 -12.5t-36 -49.5z" />
<glyph unicode="V" horiz-adv-x="819" d="M78 -2v195q0 168 78 292q59 98 159 152l-235 2v98h420v-98l-6 -2q96 -43 165 -154q86 -128 86 -290v-197l-110 2v195q0 203 -68.5 323.5t-163.5 120.5q-86 0 -152.5 -122t-66.5 -322v-195h-106z" />
<glyph unicode="W" horiz-adv-x="819" d="M78 -2v195q0 162 69 282q59 102 152 154l-57 -6q-57 0 -94 23.5t-37 72.5q0 45 10 72.5t42 50t63.5 35t64.5 12.5q190 0 334 -254q118 -221 118 -442l-2 -195h-102v195q0 113 -16 180q-14 78 -56 141q-68 123 -161 123q-90 0 -156 -121t-66 -323l-2 -195h-104zM193 715 q0 -23 18 -45q12 -10 41 -17l33 2q20 0 45 9l59 12q63 0 135 -41.5t142 -147.5q-37 119 -129 218q-101 108 -213 108h-2q-70 0 -99.5 -25.5t-29.5 -72.5z" />
<glyph unicode="X" horiz-adv-x="6" d="M-668 -453q0 113 68 217q84 125 223 125q135 0 225 -122q70 -109 70 -220v-129h-94v129q0 115 -45 203q-55 109 -156 109q-98 0 -153 -107q-20 -43 -32.5 -95t-12.5 -110l-3 -129h-90v129z" />
<glyph unicode="Y" horiz-adv-x="1220" d="M78 227q0 90 47 143.5t121 53.5q49 0 84 -41t35 -92q0 -37 -24 -64.5t-58 -33.5l-9 2l-14 12q31 6 44 25.5t13 48.5q-6 33 -34.5 50t-57.5 17q-47 0 -82 -31q-16 -16 -24 -34.5t-8 -46.5q0 -55 50 -85t113 -30q78 0 137.5 32.5t102.5 112.5q25 -70 71 -105.5t107 -35.5 q102 0 157.5 42t55.5 105q0 57 -47 119l-67 80q-4 4 -11 37q0 18 12.5 36.5t28.5 18.5l21 -18l22 -25l47 -76q45 -57 101 -57q61 0 88 41q18 29 18 82q-4 29 -28 63q-16 27 -62 66l-27 27l-6 32q6 29 41 29q27 -4 49 -35l43 -67q23 -51 23 -123l2 -29q0 -61 -25 -104 q-31 -53 -86 -54q-31 0 -61 19l-59 55l12 -72l4 -104q0 -96 -60.5 -159.5t-152.5 -63.5q-68 0 -129 51t-84 147q-18 -98 -74.5 -148t-146.5 -50t-156 61q-57 63 -57 176zM80 639v98h823v-98h-823zM438.5 551.5q24.5 26.5 57.5 28.5q29 0 56.5 -25.5t27.5 -58.5 q0 -37 -22.5 -59.5t-59.5 -22.5q-31 0 -60 22q-24 24 -24 57q0 32 24.5 58.5zM442 -190l4 26l64 260l70 -258l4 -31q0 -31 -21 -49q-16 -18 -51 -20q-23 0 -47 18q-16 16 -23 54z" />
<glyph unicode="Z" horiz-adv-x="1220" d="M78 227q0 94 49 144.5t123 50.5q45 0 80 -41t35 -90q0 -37 -24 -64.5t-58 -33.5l-9 2l-14 12q31 6 44 25.5t13 48.5q-6 31 -31.5 49t-60.5 18q-47 0 -80.5 -31.5t-33.5 -78.5q0 -55 49 -86t116 -31q76 0 135.5 32.5t102.5 112.5q25 -70 71 -105.5t107 -35.5 q104 0 157.5 42t53.5 107q0 53 -45 111l-67 86q-4 4 -11 37q0 18 12.5 36.5t28.5 18.5l27 -26l16 -21l47 -72q45 -57 101 -57q49 0 76.5 29.5t27.5 64.5v19l-4 10q-16 80 -94 141q-16 12 -29 29l-2 29l6 26q12 29 29 29q14 0 31 -16l16 -21q31 -45 49 -88q31 -71 31 -145 l2 -21q0 -68 -23 -104q-29 -53 -86 -54q-31 0 -61 19l-59 55l12 -72l4 -104q0 -96 -60.5 -159.5t-152.5 -63.5q-68 0 -129 51t-84 147q-18 -98 -74.5 -148t-146.5 -50q-82 0 -147.5 65.5t-65.5 171.5zM295 553l27 2q18 -23 53 -47q35 -18 92 -19q66 0 108.5 44.5t42.5 103.5 q0 51 -11 86t-29 57l6 -24l2 -23q0 -61 -32 -96t-89 -35l-23 -2q-63 0 -106 43q-39 45 -39 105q0 61 49 104t113 43q74 0 137 -63.5t63 -169.5l-2 -44q-12 -80 -59 -139q-54 -67 -131 -67h-2q-49 0 -95 31.5t-75 109.5zM381 739q0 -29 25 -57q27 -23 61 -23q84 1 84 89 q0 83 -82 83h-2q-37 0 -61.5 -25.5t-24.5 -66.5zM442 -190l4 26l64 260l70 -258l4 -31q0 -31 -21 -49q-16 -18 -51 -20q-23 0 -47 18q-16 16 -23 54z" />
<glyph unicode="[" horiz-adv-x="163" d="M-446 -373q0 68 25.5 115t80.5 47q31 0 57 -27q23 -27 23 -65q0 -27 -16.5 -44.5t-36.5 -17.5l-11 3l-4 8q29 6 29 45q-4 25 -18 30l-33 5q-31 0 -47 -29l-13 -27l-4 -37q0 -37 33 -58t74 -21q74 0 127 98q35 -94 117 -94q61 0 90 28q29 25 28 72q0 25 -30 72l-43 55 l-2 8l-5 14q0 12 6.5 22.5t22.5 14.5l6 -6l21 -24l30 -47q27 -27 66 -35q29 0 42 21.5t13 56.5q-6 27 -28 59l-43 53q-18 18 -19 39l4 19q6 10 21 16l12 -8l21 -21l38 -61q27 -60 27 -99q0 -61 -18.5 -91.5t-51.5 -30.5q-14 0 -39 12l-34 29l10 -48l4 -61q0 -57 -36 -98 t-95 -41q-39 0 -78 28.5t-57 87.5q-25 -123 -127 -122q-57 0 -98 44t-41 111zM-225 -625l41 168h8l41 -168v-18q0 -45 -45 -45t-45 47v16z" />
<glyph unicode="\" d="M47 608q0 61 40 105.5t108 44.5q76 0 124 -56q16 -20 26.5 -55t10.5 -72v-12q109 127 185.5 173t138.5 46q106 0 177 -54t71 -150q0 -29 -16.5 -62t-43.5 -55l-12 4q10 20 16 59q0 66 -53 113q-49 49 -127 49l-26 -2q-111 -10 -191 -66q-49 -31 -119 -106 q-6 -16 -143 -170q-49 -53 -49 -104q0 -123 155 -123q86 0 136 57q16 18 65 127q18 -74 80 -133q63 -51 141 -51q76 0 121 29.5t45 84.5l-4 43q-2 29 -49 56q-12 6 -40 16t-62 10l47 35q61 0 114 -49q45 -52 45 -115q0 -98 -61 -170q-61 -66 -139 -65q-51 0 -87 13t-75 52 q-53 49 -78 150q-18 -82 -78.5 -148.5t-146.5 -66.5q-90 0 -150 49q-53 49 -53 141l2 25q0 47 29 93t82 93q104 86 104 156q0 47 -25.5 75.5t-72.5 28.5q-39 0 -73 -25.5t-34 -64.5q0 -27 12.5 -46t49.5 -48l-2 -6q-57 12 -86 53t-29 94zM438 479q0 29 24.5 55.5t57.5 28.5 q29 0 54.5 -24.5t29.5 -59.5q0 -27 -25.5 -54.5t-58.5 -27.5q-37 0 -59.5 22.5t-22.5 59.5z" />
<glyph unicode="]" horiz-adv-x="6" d="M-659 -225q0 39 25.5 69.5t72.5 30.5q51 0 80 -35q27 -43 26 -86q63 70 119 109q53 27 90 26q76 0 119 -35.5t43 -97.5q0 -43 -43 -80l-6 9l10 36q0 43 -39 73t-102 30q-61 0 -117 -37l-76 -74l-92 -112q-31 -35 -31 -66q0 -76 101 -76q55 0 86 37l41 82q14 -55 54 -87 t91 -32t76 17q25 12 25 61q-4 31 -32 48.5t-67 17.5l37 32q43 0 76 -32q29 -33 29 -76q0 -68 -38 -112t-96 -44q-59 0 -100 41q-41 37 -55 96q-12 -51 -49 -94t-97 -43q-63 0 -102 39q-14 12 -23 41l-6 62q0 61 94 143q45 39 46 80q0 68 -64 67q-68 0 -68 -59q0 -14 13 -33 l28 -24l-4 -9q-39 6 -54 32t-21 65zM-406 -307q0 23 16.5 39t41.5 16q20 0 35.5 -14t19.5 -41q0 -23 -13 -36t-42 -19q-25 0 -38 13t-20 42z" />
<glyph unicode="^" horiz-adv-x="999" d="M45 616q0 55 44 99.5t104 44.5q76 0 124 -44t48 -132q0 -78 -62 -150l-151 -168l-2 -24q0 -47 36 -90q37 -37 103 -37q88 0 145 57q33 39 62 127q37 -117 83 -155t115 -38l27 3q63 6 106 50t43 105q0 55 -49 111q-55 61 -139 69h-139v103h182q33 0 49 16l25 31l4 31 q0 27 -8 45l-13 30q25 0 52 -32q20 -27 20 -72q-6 -35 -29 -49h93v-103h-136q70 -35 106 -90t36 -139q0 -111 -76 -174q-63 -51 -139 -51q-100 0 -154 65q-37 43 -59 150q-18 -90 -72 -150q-59 -68 -145 -67q-98 0 -158 59t-60 162q0 84 120 173t120 171q0 45 -26.5 75.5 t-65.5 30.5q-41 0 -75 -25.5t-34 -64.5q0 -27 12.5 -46t49.5 -48l-2 -6q-57 12 -86 53t-29 94zM543 639v98h149v-98h-149z" />
<glyph unicode="_" horiz-adv-x="999" d="M63 608q0 63 41 107.5t109 44.5q76 0 125 -55q43 -55 43 -134q0 -94 -111.5 -179t-117.5 -113l-5 -37v-9q0 -47 43 -81q43 -31 117 -31q88 0 144 55q12 18 32.5 58t32.5 65q37 -115 80 -156q43 -37 115 -37l24 3q68 6 102.5 47t34.5 110q0 49 -49 109q-55 61 -139 69 l-139 2v99l137 2q59 6 102 62.5t43 140.5v20q-18 -119 -110 -119q-43 0 -80 43q-31 43 -31 103l6 73q4 16 9.5 32t13.5 32q33 57 88 57q76 0 117 -64.5t41 -158.5q0 -53 -41 -124t-90 -97l170 -2v-99l-138 -2q59 -31 103 -96q39 -65 39 -143q0 -82 -47 -144 q-53 -72 -140 -71q-96 0 -155 65q-49 55 -68 150q-18 -82 -78.5 -148.5t-144.5 -66.5q-98 0 -155.5 63.5t-57.5 161.5q0 106 120.5 179t120.5 151q0 47 -25.5 76.5t-68.5 29.5q-31 0 -49 -4t-31 -16q-27 -27 -26 -70q0 -43 57 -86l2 -12q-55 12 -88 51q-27 47 -27 94z M639 807q0 -37 27.5 -62.5t62.5 -25.5q29 0 53.5 25.5t24.5 68.5q0 37 -21.5 69.5t-66.5 32.5q-41 0 -64 -34q-16 -33 -16 -74z" />
<glyph unicode="`" horiz-adv-x="114" d="M-461 -213q0 41 37 82q35 29 84 29t82 -39q25 -31 25 -92q0 -41 -43 -89l-105 -100q-4 -33 15.5 -57.5t64.5 -24.5q82 0 133 82l51 -55q10 -8 32 -17.5t50 -9.5q41 0 66 23l18 24l8 33q0 37 -22.5 58.5t-69.5 37.5l-133 2v84h164q18 0 47 25q18 20 20 53q0 25 -7 46.5 t-36 37.5l21 19q23 0 51 -41q23 -33 23 -68q0 -27 -19 -51l-26 -21h41v-84l-84 -2q31 -12 59 -47q10 -16 18.5 -37.5t8.5 -40.5q0 -49 -31 -97t-76 -48q-61 0 -115 43q-25 23 -57 88q-31 -66 -49 -86q-39 -45 -104 -45q-51 0 -87 41q-37 37 -36 94l6 43q0 16 51 60 q98 80 106 96l3 22v9q0 25 -19 47q-18 12 -47 12q-39 0 -56.5 -11.5t-19.5 -37.5q0 -25 8 -41l13 -33q-27 12 -47 33q-6 8 -17 51z" />
<glyph unicode="a" horiz-adv-x="1015" d="M72 397q0 147 58 254t161 107q135 0 135 -189q0 -68 -45 -110q-39 -33 -90 -33q-61 6 -88 57q-8 14 -15 39q-12 43 -12 92q-23 -29 -45 -92q-20 -68 -20 -139q0 -88 49 -168q63 -94 162 -94q129 0 192 180q18 -90 74 -139q53 -41 133 -41q74 0 125 66.5t51 148.5 q0 129 -61.5 215t-151.5 86l-139 2v98h194l2 -78q78 -12 142 -100q71 -101 71 -240q0 -145 -65.5 -237t-167.5 -92q-76 0 -131 53q-49 51 -78 152q-61 -205 -207 -205q-113 0 -182 139q-51 119 -51 268zM207 596q0 -39 23.5 -67.5t64.5 -28.5q45 0 73.5 24.5t28.5 67.5 q0 37 -25.5 64.5t-64.5 27.5t-63 -16q-37 -25 -37 -72zM442 -190l4 28l64 258l70 -258l4 -31q0 -31 -21 -49q-16 -18 -51 -20q-23 0 -47 18q-16 16 -23 54z" />
<glyph unicode="b" d="M57 399q0 147 56.5 253t160.5 106q133 0 134 -197q0 -55 -39 -96q-39 -35 -88 -35q-55 6 -87 58.5t-32 125.5q-20 -27 -45 -94q-8 -33 -12.5 -64.5t-4.5 -72.5q0 -94 47 -166q59 -96 160 -96q78 0 123 45q37 37 68 133q39 -94 92 -145l43 -25l57 -8q98 0 159.5 92 t61.5 203q0 188 -58 333.5t-142 192.5l14 -45l4 -53q0 -55 -31.5 -105.5t-87.5 -50.5q-55 0 -93 58.5t-38 130.5q0 92 44 142t106 50q139 0 234 -217t95 -483q0 -143 -65 -254q-74 -129 -186 -129q-80 0 -138 59q-49 55 -71 148q-31 -104 -76 -155.5t-123 -51.5 q-104 0 -182 147q-59 125 -60 266zM190 594q0 -33 25 -70q24 -28 65 -28h3q39 0 68.5 27.5t29.5 64.5q0 41 -25.5 70.5t-64.5 29.5t-70 -25.5t-31 -68.5zM428 -190l2 28l66 258l69 -258l4 -31q0 -31 -20 -49q-16 -18 -51 -20q-23 0 -47 18q-16 16 -23 54zM518 860l2 -29 q2 -10 22.5 -36.5t61.5 -26.5t65.5 24.5t30.5 67.5q0 47 -18 84t-64 37q-43 0 -73 -37q-8 -12 -15 -26q-12 -29 -12 -58z" />
<glyph unicode="c" horiz-adv-x="163" d="M-406 -362q0 100 41 167.5t111 67.5q90 0 90 -125q0 -45 -26.5 -69.5t-63.5 -24.5q-37 6 -56.5 38t-19.5 83q-18 -29 -30 -62q-10 -41 -11 -86q0 -53 36 -112.5t102 -59.5q47 0 70.5 23.5t49.5 89.5l7 -2q12 -53 46.5 -82t86.5 -29q45 0 81.5 44t36.5 102 q0 82 -30.5 154.5t-106.5 150.5q-8 8 -14 31q0 20 10 31.5t29 11.5l16 -3l19 -6q68 -68 96 -178l10 -82l4 -119q0 -86 -44 -156.5t-107 -70.5q-43 0 -79 35t-59 100q-41 -135 -133 -135q-80 0 -125 96q-37 78 -37 177zM-307 -233q0 -25 11 -39.5t46 -24.5q31 0 45.5 14 t20.5 45q0 31 -27 52l-33 8q-18 0 -37.5 -11.5t-25.5 -43.5zM-156 -745l2 16l41 170l50 -170l2 -19q0 -18 -19 -34l-31 -11q-45 0 -45 48z" />
<glyph unicode="d" d="M61 608q0 59 48 105q23 18 52 32.5t66 14.5q57 0 86 -23q16 -14 49 -57q57 -51 120 -81t136 -30q70 0 134 35q82 45 82 117v51q14 -16 26 -49l6 -45q0 -76 -69 -146q-70 -63 -170 -63q-70 0 -117 27q-16 10 -127 122l6 -43q0 -115 -104.5 -194.5t-116.5 -126.5 q-1 -7 -1 -15q0 -44 32 -81q37 -37 106 -37q86 0 141 55q23 27 72 123q23 -78 85.5 -131t137.5 -53q82 0 126 36.5t44 98.5q1 42 -35 66q-29 20 -56 19q-7 0 -13 -1l29 63q53 -12 86 -63q34 -48 34 -109q0 -109 -60 -172t-140 -63q-51 0 -87 13t-75 52q-53 49 -78 150 q-18 -86 -77.5 -150.5t-149.5 -64.5q-92 0 -152 57q-53 59 -53 162q0 92 125 174q59 37 92 80t33 82q0 45 -29 75.5t-72 30.5t-83 -24q-33 -27 -33 -66q0 -37 65 -84l-6 -16q-57 12 -86 53t-29 94z" />
<glyph unicode="e" d="M61 608q0 55 48.5 100.5t117.5 45.5q53 0 86 -21q20 -12 52 -53q61 -80 112 -119q83 -65 171 -65h3q63 0 105.5 18t44.5 47q0 76 -92 76l-162 2v98h244v-94q29 -4 55 -41t26 -74q0 -55 -56 -86.5t-128 -31.5q-88 0 -153 39q-80 43 -150 161l4 -35q0 -102 -104.5 -190 t-116.5 -127q-1 -9 -1 -17q0 -50 32 -81q37 -37 106 -37q90 0 141 53q27 27 72 123q23 -76 85.5 -129t137.5 -53q82 0 126 36.5t44 96.5q0 41 -26.5 62.5t-61.5 21.5l-16 63q63 -12 106 -60.5t43 -111.5q0 -109 -60 -172t-140 -63q-51 0 -87 13t-75 52q-53 49 -78 150 q-18 -86 -77.5 -150.5t-149.5 -64.5q-92 0 -152 57q-53 59 -53 162q0 92 125 174q59 37 92 80t33 82q0 45 -29 75.5t-72 30.5t-83 -24q-33 -27 -33 -66q0 -27 12 -46t49 -48l-8 -12q-55 12 -84 53q-25 41 -25 100z" />
<glyph unicode="f" d="M53 608q0 59 47 105q23 18 52.5 32.5t66.5 14.5q53 0 84 -23l51 -57q18 -41 78 -74q74 -43 170 -43q104 0 162.5 46t58.5 118q0 70 -34.5 111t-79.5 41l26 -37q12 -23 13 -58q0 -45 -28 -72.5t-69 -27.5q-37 0 -71 25q-18 18 -35 67v39q0 43 36.5 80t77.5 37 q94 0 153.5 -62.5t59.5 -152.5q0 -98 -67 -176q-68 -72 -170 -72q-94 0 -156 41q-49 31 -104 104l4 -39q0 -106 -105 -192q-102 -78 -114 -125q-1 -8 -1 -15q0 -46 31 -83q39 -39 105 -39q84 0 143 55q25 29 70 123q23 -78 85 -131t138 -53q82 0 126 36.5t44 98.5 q0 35 -31 63q-31 25 -67 25l-6 59q63 -12 106 -60.5t43 -111.5q0 -109 -60.5 -172t-140.5 -63q-51 0 -86.5 13t-74.5 52q-53 49 -78 150q-18 -86 -77.5 -150.5t-149.5 -64.5q-92 0 -152 57q-53 59 -53 162q0 92 125 174q59 37 92 80t33 82q0 45 -29 75.5t-70 30.5 q-45 0 -79.5 -23.5t-34.5 -66.5q0 -23 11 -44t46 -50q-59 6 -88 47q-27 47 -27 94zM575 803q0 -31 23 -47q23 -10 53 -15l29 7q31 16 31 55q0 31 -23 51q-14 18 -45 20q-27 0 -51 -24q-10 -14 -17 -47z" />
<glyph unicode="g" horiz-adv-x="6" d="M-651 -211q0 37 32.5 69.5t75.5 32.5q39 0 58 -16l32 -39l74 -76q55 -43 113 -43q43 0 68.5 19.5t27.5 40.5q0 25 -18 53q-8 8 -56 35v10l60 -6l41 -41q6 -10 10 -28.5t6 -26.5q1 -7 1 -13q0 -41 -32 -73q-12 -12 -32 -21l-52 -8q-70 0 -123 41q-37 25 -73 86l2 -18 q0 -68 -66.5 -122.5t-77.5 -86.5q-1 -7 -1 -13q0 -29 22 -49q27 -26 67 -26q55 0 93 36q18 18 45 84q18 -51 57 -86q39 -39 88 -39q41 0 76 25q29 25 29 66q-4 25 -21 45q-12 10 -43 10l10 41q43 -12 70 -39q20 -35 20 -74q0 -72 -36.5 -113.5t-94.5 -41.5q-59 0 -98 36.5 t-57 100.5q-12 -55 -54 -96q-37 -41 -96 -41q-55 0 -94 42t-39 103q0 55 111 135q53 37 53 84q0 23 -19 47q-18 16 -45 21q-71 0 -71 -56q0 -18 6 -30.5t29 -30.5l-2 -6q-39 6 -56 35q-20 27 -20 61z" />
<glyph unicode="h" horiz-adv-x="450" d="M-100 274h20q12 -45 76 -102q63 -51 131 -51q90 0 147.5 73.5t57.5 170.5q0 86 -64 157q-72 76 -190 76q-102 0 -103 68q0 18 22.5 33.5t63.5 15.5q125 0 218.5 -121t93.5 -258q0 -154 -62.5 -250t-183.5 -96q-80 0 -145 80q-59 78 -82 204zM270 -190l4 28l64 258 l70 -258l4 -31q0 -31 -21 -49q-16 -18 -51 -20q-23 0 -47 18q-16 16 -23 54z" />
<glyph unicode="i" horiz-adv-x="311" d="M-717 -348q0 76 49 149q63 88 174 88q104 0 168 -75q53 -70 54 -170l-4 -50q12 -29 53 -57q37 -31 78 -31q51 0 96 45q37 43 37 109q0 63 -41 104q-47 51 -123 52q-70 0 -70 43q2 4 4 9t11 11l47 12q80 0 145 -77q59 -78 59 -170l-2 -50q12 -29 54 -57q37 -31 78 -31 q55 0 94 42t39 112q0 63 -41 104q-47 51 -123 52q-70 0 -70 43q0 12 14 20l48 12q84 0 144 -77.5t60 -169.5q0 -98 -44 -164t-121 -66q-43 0 -84 41q-37 41 -56 101q-18 -57 -57 -103q-45 -39 -98 -39q-43 0 -86 43q-37 43 -56 105q-25 -66 -81 -107t-126 -41 q-88 0 -155.5 68.5t-67.5 169.5zM-676 -319q0 -76 54.5 -125.5t127.5 -49.5q68 0 125.5 51t57.5 117q0 80 -54.5 130.5t-128.5 50.5q-78 0 -130 -52.5t-52 -121.5zM-53 -682l43 170l47 -170l2 -18q0 -47 -45 -48q-47 0 -47 50v16z" />
<glyph unicode="j" horiz-adv-x="1409" d="M76 502q0 51 13 95t46 79q58 69 145 69h3q74 0 129 -49q55 -43 80 -147q12 94 65 143q49 53 127 53q80 0 139.5 -50t85.5 -134q23 88 83.5 136t158.5 48q80 0 141.5 -68.5t61.5 -166.5q0 -88 -47 -141q-43 -55 -115 -56l-23 6q-8 4 -10 23q6 31 25 31q43 0 82 30.5 t39 83.5q0 61 -62 109q-47 31 -108 31q-154 0 -213 -123l4 -47l2 -43q0 -33 -13 -80l-18 -66l-25 -51l27 -37l33 -43l45 -82q15 -30 51 -30h2q31 0 51 34l25 45l59 -88q-16 -35 -41 -55q-22 -24 -54 -24h-3q-45 0 -79 20t-60 68l-35 69q-25 47 -49 70q-49 -78 -107 -117 q-76 -53 -172 -53q-125 0 -190 59q-29 27 -43.5 56.5t-14.5 62.5l5 33q12 51 86.5 82.5t189.5 31.5q61 0 117 -18q55 -12 108 -51q18 27 39 80l10 43l5 45l-3 33q-10 82 -40 118q-41 51 -123 52q-84 0 -140.5 -38t-76.5 -114q-25 74 -84.5 113t-126.5 39q-57 0 -111.5 -36 t-54.5 -106q0 -43 35 -78q38 -28 81 -28h3l14 -15l8 -22q0 -18 -12 -35l-27 -6q-143 16 -143 207zM401 203q0 -37 41 -60q51 -20 154 -20q61 0 104.5 22.5t90.5 63.5l-78 41l-43 12l-54 4q-47 0 -85.5 -2t-69.5 -8q-59 -6 -60 -53z" />
<glyph unicode="k" horiz-adv-x="147" d="M-686 -270q0 68 39 107.5t94 39.5q49 0 86 -24q31 -25 51 -95q6 55 40 87t85 32q49 0 90 -29q37 -31 58 -81q29 110 153 110h2q55 0 94 -45t39 -106q0 -115 -112 -115l-8 6l-5 8q0 12 13 13q35 0 57 22q20 16 21 57q0 39 -33 64q-35 20 -70 20q-104 0 -143 -77l4 -39v-37 q-6 -23 -8 -33q-10 -45 -29 -78q63 -51 84 -127l6 -53q-4 -25 -26 -25q-12 0 -23 11l-10 16v25l-6 38l-15 35l-28 41q-29 -41 -70 -71q-55 -33 -113 -33q-80 0 -117.5 35.5t-37.5 81.5v12l4 10q12 41 67 59l52 9l53 2q80 0 147 -43q35 53 35 106l-4 45q0 23 -24.5 49.5 t-86.5 38.5q-31 0 -45 -3t-39 -19q-37 -25 -51 -84q-18 49 -55 80l-27 14q-25 12 -55 12q-43 0 -72.5 -22.5t-29.5 -69.5q0 -27 19.5 -45t53.5 -24l15 -25q0 -25 -23 -27q-37 0 -65 41q-31 37 -31 103zM-473 -471q0 -27 35 -40t90 -13q35 0 64.5 14t60.5 39q-35 27 -113 39 l-98 -6q-37 -6 -39 -33z" />
<glyph unicode="l" d="M68 307q0 104 36.5 177t104.5 102q-123 55 -123 133q0 51 56.5 88t113.5 37l43 -6v-21q-51 0 -85 -27.5t-34 -70.5q0 -47 17.5 -74t60.5 -51q59 0 87 -41t28 -107q0 -51 -30 -96t-69 -45l-41 6q-14 6 -34 29q-31 37 -31 94v31q0 18 10 45q-29 -27 -51 -74l-10 -41l-4 -43 v-26l4 -29q25 -158 174 -176q92 0 142 39t81 125q18 -70 64 -115q43 -37 112 -49l25 -2h16q84 0 130 46t46 132q-6 63 -57 109q-50 38 -110 38h-3l-65 2v70h82q57 0 79.5 35t22.5 92q0 43 -37 84q-39 33 -106 33q-27 0 -43.5 9t-16.5 34q0 12 11 28q12 12 41 19 q86 0 151 -74q51 -70 51 -145q0 -55 -26 -90l-58 -47q55 -25 92 -80t37 -125q0 -123 -49 -203q-59 -98 -182 -98q-74 0 -135.5 62.5t-73.5 150.5q-25 -96 -81 -154.5t-140 -58.5q-98 0 -160.5 96t-62.5 223zM195 442q0 -31 22.5 -50t52.5 -19q31 0 54.5 17t23.5 50 q0 41 -19.5 64.5t-54.5 23.5t-57 -22.5t-22 -63.5z" />
<glyph unicode="m" d="M61 307q0 106 39 179t109 100q-115 53 -115 133q0 45 49 88q49 37 113 37l43 -6v-21q-51 0 -85 -27.5t-34 -70.5q0 -47 17.5 -74t60.5 -51q59 0 87 -41t28 -107q0 -51 -30 -96t-69 -45l-41 6q-14 6 -34 29q-31 37 -31 94v31q0 18 10 45q-39 -35 -55 -78l-12 -43l-5 -47 l5 -45q12 -78 59 -125q49 -43 121 -51q92 0 142 39t81 125q18 -74 61 -111t115 -53l41 -2q88 0 137.5 49t49.5 129q-6 61 -62 109q-58 38 -116 38h-3l-65 2v70h82q41 0 71.5 24.5t30.5 57.5q0 18 -12.5 36.5t-38.5 27.5l2 6l49 12l29 -25q14 -20 20 -55q0 -23 -13 -44 t-71 -62q59 -27 99.5 -86.5t40.5 -122.5q0 -119 -54 -199q-61 -96 -186 -96q-74 0 -135.5 61.5t-73.5 149.5q-25 -98 -81 -154.5t-140 -56.5q-92 0 -161 96t-69 221zM195 442q0 -31 22.5 -50t52.5 -19q31 0 54.5 17t23.5 50q0 41 -19.5 64.5t-54.5 23.5t-57 -22.5t-22 -63.5 zM512 639v98h211v-98h-211z" />
<glyph unicode="n" d="M61 311q0 106 38 177t110 98l-59 28l-33 25q-33 33 -33 80q0 59 53 92q33 16 58.5 24.5t60.5 8.5l43 -6v-21q-49 0 -86 -25.5t-37 -72.5q0 -49 17.5 -75t64.5 -50q55 0 86 -42t31 -106q0 -59 -29 -100t-70 -41t-77 37q-31 37 -31 92v31q0 18 10 45q-39 -35 -55 -78 l-12 -43l-5 -47l5 -45q12 -80 61 -129q23 -18 52.5 -32.5t66.5 -14.5q94 0 142 38t81 126q23 -76 63.5 -111t112.5 -53l49 -4q80 0 131 51q43 43 43 127q0 66 -56 107.5t-120 41.5l-65 2v68l82 2q66 12 108.5 56t42.5 124q0 31 -16 54q-6 -43 -43 -80q-39 -33 -80 -33 q-53 0 -91 46t-38 105q0 68 43 121q45 45 100 45q68 0 125.5 -58t57.5 -138q0 -92 -37 -157.5t-103 -106.5q59 -31 98.5 -89.5t39.5 -121.5q0 -119 -54 -197q-66 -96 -186 -96q-74 0 -135.5 61.5t-73.5 149.5q-25 -98 -75 -154.5t-142 -56.5q-88 0 -161 99t-73 222zM195 442 q0 -31 22.5 -50t52.5 -19q31 0 54.5 17t23.5 50q0 41 -19.5 64.5t-54.5 23.5t-57 -22.5t-22 -63.5zM672 791q0 -41 24 -72q25 -25 70 -25q41 0 65.5 23.5t32.5 64.5q0 31 -25.5 63t-60.5 40q-43 0 -74.5 -25.5t-31.5 -68.5z" />
<glyph unicode="o" horiz-adv-x="81" d="M-471 -416q0 66 24.5 113t65.5 67q-74 37 -74 86q0 31 33 56.5t74 25.5l31 -4v-14q-31 0 -54.5 -17.5t-23.5 -46.5q0 -39 10 -51q6 -12 39 -26q37 0 56.5 -29t19.5 -70q0 -33 -18.5 -59.5t-45.5 -34.5q-29 0 -50.5 26.5t-21.5 59.5q0 27 9 45q-18 -18 -30.5 -42.5 t-12.5 -55.5l4 -35q18 -119 112 -119q63 0 95 29q31 25 49 84q31 -94 117 -113l24 -2q49 0 82 33q16 16 24.5 34.5t8.5 47.5q0 49 -32 73.5t-79 24.5l-43 2v45l55 2q31 0 48.5 24t17.5 58q-6 66 -92 66q-39 0 -39 35q0 30 31 30h2q63 0 100 -42t37 -93q0 -31 -21 -59 l-38 -33q37 -18 62.5 -51t25.5 -84q0 -78 -35 -131q-43 -66 -121 -66q-51 0 -86 40t-51 95q-31 -135 -142 -135q-55 0 -101 64.5t-46 146.5zM-385 -330q0 -18 13.5 -30.5t33.5 -12.5q49 0 49 43q0 55 -45 56q-51 0 -51 -56z" />
<glyph unicode="p" horiz-adv-x="835" d="M78 336q0 98 55 183t150 118l-203 2v98h436v-94q115 -31 178.5 -113.5t63.5 -193.5q0 -143 -100.5 -244.5t-239.5 -101.5q-145 0 -242.5 105.5t-97.5 240.5zM135 383q0 -123 88 -197q81 -65 192 -65h3q111 0 193.5 77t82.5 183q0 104 -82 179t-194 75q-117 0 -200 -77 t-83 -175zM334 383q0 27 24.5 55.5t59.5 28.5q27 0 54.5 -25.5t27.5 -58.5q0 -29 -23.5 -55.5t-58.5 -26.5t-59.5 22.5t-24.5 59.5z" />
<glyph unicode="q" horiz-adv-x="835" d="M78 336q0 51 7 84t34 74q41 70 114 116q-59 0 -99 26t-40 69q0 74 61.5 116.5t145.5 42.5q209 0 344 -190q115 -162 115 -338q0 -145 -100.5 -245.5t-241.5 -100.5q-147 0 -243.5 105.5t-96.5 240.5zM145 381q0 -123 84 -199q73 -67 186 -67h3q104 0 192 79.5t88 188.5 q0 102 -85 172t-195 70q-115 0 -194 -73t-79 -171zM176 694q10 -53 74 -53q43 0 91 11.5t77 11.5q82 0 133 -23q78 -31 141 -123q-25 100 -125 182q-53 41 -108 62q-25 8 -57.5 14t-63.5 6q-74 0 -123 -24q-39 -23 -39 -64zM334 383q0 27 24.5 55.5t59.5 28.5 q27 0 54.5 -25.5t27.5 -58.5q0 -29 -23.5 -55.5t-58.5 -26.5t-59.5 22.5t-24.5 59.5z" />
<glyph unicode="r" horiz-adv-x="6" d="M-606 -354q0 102 69.5 172.5t171.5 70.5t181 -73q71 -76 71 -176q0 -94 -73.5 -168t-171.5 -74q-111 0 -179.5 69.5t-68.5 178.5zM-559 -315q0 -86 56.5 -141.5t140.5 -55.5q94 0 147 53q55 49 55 133q0 74 -61.5 129.5t-140.5 55.5q-80 0 -138.5 -52.5t-58.5 -121.5z M-422 -319q0 25 18.5 43t41.5 18q16 0 35.5 -17t23.5 -44q0 -25 -17.5 -42.5t-41.5 -17.5q-25 0 -39.5 13.5t-20.5 46.5z" />
<glyph unicode="s" horiz-adv-x="1048" d="M78 256q0 139 84 244q63 82 184 137l-266 2v98h643l2 -100q76 -25 120 -81t44 -142q80 -80 80 -174q0 -109 -63.5 -179.5t-168.5 -70.5q-86 0 -147 61q-41 43 -78 144q-23 -88 -76 -142q-63 -63 -145 -63q-92 0 -158 80q-55 80 -55 186zM147 303q0 -82 29 -125 q39 -57 129 -57q86 0 137 51q35 35 70 129q25 -78 82 -133q57 -47 127 -47q86 0 139 48t53 103q0 35 -7 60.5t-34 54.5q-23 -37 -59 -63q-39 -23 -92 -23q-37 0 -90 25q-55 31 -56 73q0 55 46.5 81t95.5 26q51 0 71 -10q20 -6 58 -37q0 86 -111 139q-98 39 -207 39 q-174 0 -277.5 -99.5t-103.5 -234.5zM629 416q0 -27 28.5 -43.5t63.5 -16.5q41 0 73 20.5t48 55.5q-51 41 -121 41q-20 0 -30.5 -2t-34 -13.5t-27.5 -41.5z" />
<glyph unicode="t" horiz-adv-x="1048" d="M78 256q0 125 65 221q49 74 156 137l-35 4q-55 0 -88 37t-33 82q0 70 62 125q78 61 239 62q209 0 338 -168q106 -137 107 -287q0 -33 -8 -55q35 -27 61.5 -78t26.5 -96q0 -104 -60.5 -177t-171.5 -73q-86 0 -147 61q-41 43 -78 144q-23 -88 -76 -142q-63 -63 -145 -63 q-92 0 -158 80q-55 80 -55 186zM143 301q0 -74 42 -127t120 -53q70 0 125 49t82 131q25 -78 82 -133q57 -47 127 -47q86 0 139 48t53 103q0 35 -7 60.5t-34 54.5q-23 -37 -59 -63q-39 -23 -92 -23q-49 0 -86 23q-51 29 -51 73q0 49 43 78q43 25 94 25q63 0 119 -37 q-12 92 -115 135q-78 31 -197 31q-168 0 -284 -105q-100 -94 -101 -223zM244 721q0 -82 71 -82l33 2l49 12l62 15l47 4h37q196 0 305 -127q-37 123 -139.5 213t-231.5 90q-119 0 -178 -39q-49 -31 -55 -88zM633 410q0 -18 24 -41q25 -12 64 -13q41 0 73 20.5t48 55.5 q-51 39 -119 39q-35 0 -64 -18q-23 -18 -26 -43z" />
<glyph unicode="u" horiz-adv-x="6" d="M-690 -385q0 109 87 191.5t216 82.5q57 0 96 -8t78 -33q68 -43 82 -137q65 -43 65 -125q0 -84 -51 -135t-125 -51q-55 0 -85.5 36t-49.5 107q-25 -63 -50.5 -94t-80.5 -41q-8 -1 -16 -1q-58 0 -103 38q-63 57 -63 170zM-635 -373q0 -51 31 -93t86 -42q88 0 139 119 q25 -45 67 -81t99 -36q41 0 75 32t34 77q0 39 -31 75q-12 -70 -94 -84q-9 -1 -17 -1q-26 -1 -46 13q-26 18 -27 48q0 39 28.5 61.5t75.5 22.5l55 -12q-6 49 -66.5 88t-156.5 39q-98 0 -175 -69t-77 -157zM-276 -328q0 -32 46 -32h3q51 0 65 57l-51 14q-29 0 -43 -6t-20 -33z " />
<glyph unicode="v" horiz-adv-x="1048" d="M78 256q0 133 86 244q68 86 188 137l-272 2v98h643l2 -100q66 -25 115 -81t49 -134q80 -84 80 -182t-62.5 -174t-169.5 -76q-86 0 -147 61q-41 43 -78 144q-23 -88 -76 -142q-63 -63 -145 -63q-104 0 -158.5 81t-54.5 185zM143 303q0 -76 31 -125q39 -57 131 -57 q86 0 137 51q35 35 70 129q25 -78 82 -133q57 -47 127 -47q86 0 139 48t53 103q0 35 -7 60.5t-34 54.5q-23 -37 -59 -63q-39 -23 -92 -23q-43 0 -91 24.5t-48 73.5q0 55 41 83t92 28q41 0 70.5 -13.5t60.5 -37.5q0 82 -111 137q-94 41 -207 41q-172 0 -284 -113 q-100 -100 -101 -221zM440 -190l4 26l66 260l70 -260l4 -26q0 -72 -72 -72q-27 0 -46.5 17.5t-25.5 54.5zM629 416q0 -27 28.5 -43.5t63.5 -16.5q41 0 73 20.5t48 55.5q-51 41 -121 41q-20 0 -30.5 -2t-34 -13.5t-27.5 -41.5z" />
<glyph unicode="w" horiz-adv-x="1048" d="M78 256q0 123 65 219q55 80 156 137l-35 4q-57 0 -93 30t-36 75q0 74 66 131q84 72 243 72q209 0 338 -168q106 -137 107 -287q0 -33 -8 -55q35 -27 61.5 -78t26.5 -96q0 -106 -62.5 -178t-169.5 -72q-86 0 -147 61q-41 43 -78 144q-23 -88 -76 -142q-63 -63 -145 -63 q-92 0 -158 80q-55 80 -55 186zM145 301q0 -74 40 -127t120 -53q70 0 125 49t82 131q25 -78 82 -133q57 -47 127 -47q86 0 139 48t53 103q0 35 -7 60.5t-34 54.5q-23 -37 -59 -63q-39 -23 -92 -23q-41 0 -86 24.5t-45 73.5t49 84q45 20 82 21q43 0 63 -10q25 -6 56 -31 q-12 92 -123 135q-80 31 -189 31q-174 0 -282 -107q-100 -96 -101 -221zM244 705q0 -23 18 -48q18 -18 53 -18l33 2l49 12l62 15l47 4h37q199 0 301 -127q-31 121 -137 213q-53 45 -108.5 67.5t-121.5 22.5q-137 0 -192 -47q-41 -35 -41 -96zM442 -190l4 28l64 258l70 -258 l4 -31q0 -31 -21 -49q-16 -18 -51 -20q-23 0 -47 18q-16 16 -23 54zM633 410q0 -18 24 -41q25 -12 64 -13q41 0 73 20.5t48 55.5q-27 20 -55.5 30.5t-63.5 10.5q-37 0 -60.5 -14.5t-29.5 -48.5z" />
<glyph unicode="x" horiz-adv-x="6" d="M-686 -401l2 45q12 98 93 171.5t200 73.5q104 0 166 -34q84 -43 98 -134q64 -45 64 -127q0 -78 -51.5 -129t-110.5 -51q-63 0 -105.5 38t-56.5 102q-25 -70 -59 -99q-41 -41 -99 -41q-57 0 -99 51.5t-42 133.5zM-635 -350q0 -61 19.5 -99t74.5 -38q106 0 152 108 q33 -61 70 -90q37 -20 86 -20q53 0 88 22q43 29 43 80q0 45 -29 74q-6 -35 -35 -56.5t-67 -21.5q-76 0 -76 67q0 27 24.5 48.5t69.5 21.5q37 0 55 -10q-6 45 -73.5 79.5t-155.5 34.5q-92 0 -169 -58t-77 -142zM-438 -637l49 129l53 -129l4 -22q0 -14 -8 -25q-14 -20 -47 -21 q-25 0 -41 23q-11 11 -11 32q0 6 1 13zM-268 -324l12 -18q4 -2 12 -5t15 -3q31 0 44 13t25 44q-18 12 -51 12q-20 0 -37.5 -11t-19.5 -32z" />
<glyph unicode="y" horiz-adv-x="1130" d="M80 160q0 57 36 107t117 79q-80 25 -120 68q-33 45 -33 121q0 82 67.5 149.5t159.5 67.5q90 0 154 -72q51 -57 69 -150q25 98 91.5 161t162.5 63q119 0 199 -129q66 -113 66 -256q0 -152 -52 -252q-68 -133 -209 -133q-90 0 -153.5 67.5t-63.5 157.5q0 61 43 127 q43 51 111 63q63 0 104 -34.5t41 -98.5q0 -27 -27.5 -58.5t-84.5 -49.5l-2 6q51 23 51 76q0 31 -23.5 54t-60.5 23q-49 0 -85 -29.5t-36 -80.5q0 -68 66 -107q53 -30 119 -30h4q82 0 148.5 80.5t66.5 201.5q0 127 -58 199q-66 80 -194 80q-86 0 -133.5 -38t-92.5 -138 q-18 86 -69 132t-133 46q-78 0 -126 -36t-48 -95q0 -51 35.5 -92t123.5 -56l-75 -41q-63 -41 -64 -112q0 -59 43 -98.5t107 -39.5l38 5q31 4 97 59q-18 -55 -62 -98q-39 -33 -94 -45l-31 -2q-70 0 -131 49q-57 51 -57 108z" />
<glyph unicode="z" horiz-adv-x="933" d="M70 424q0 68 55 117t131 49h18q70 -6 111 -49t57 -113q18 76 66 119q25 23 53.5 35t65.5 12q119 0 186 -105q49 -79 49 -196q0 -119 -47 -199q-59 -104 -172 -104q-55 0 -108 45q-57 53 -58 135q0 66 34 105.5t83 39.5q45 0 81 -24.5t36 -75.5l-4 -25q-16 -65 -87 -65h-2 q16 12 27.5 26.5t18.5 34.5q0 63 -70 64q-41 0 -60.5 -22.5t-25.5 -59.5q0 -49 41 -74.5t94 -25.5q68 0 124 58t56 155q0 88 -49 149q-57 63 -158 64q-55 0 -98 -31t-78 -101q-25 63 -62.5 94t-92.5 31q-61 0 -98 -25.5t-37 -72.5q0 -31 27.5 -62.5t88.5 -43.5l2 -7 q-53 -25 -78 -47q-34 -30 -34 -76q0 -36 30 -73q33 -29 84 -29q29 0 47 6l29 19l27 18q-25 -86 -109 -104l-33 -4q-61 0 -106 41t-45 84q0 63 28.5 99t92.5 60q-55 18 -97 56q-35 39 -34 98zM80 639v98h528v-98h-528z" />
<glyph unicode="{" horiz-adv-x="1130" d="M74 535q0 86 68.5 148t164.5 62q86 0 154 -67q51 -57 69 -148q25 98 86 154q70 63 168 64l31 -5q66 49 66 150v10q-6 -43 -35 -65.5t-72 -22.5q-49 0 -82 33q-29 35 -28 88l6 61q6 29 22 52q29 45 88 45q78 0 118 -51.5t40 -131.5q-6 -43 -30.5 -92t-63.5 -82 q96 -31 150.5 -137t54.5 -231q0 -147 -52 -250q-68 -129 -209 -129q-88 0 -152.5 62.5t-64.5 156.5q0 68 42 126t112 71q61 0 103 -38t42 -102q0 -27 -27.5 -58.5t-84.5 -49.5l-2 6q51 23 51 76q0 31 -23.5 54t-60.5 23q-47 0 -81 -31.5t-34 -78.5q0 -68 64 -107 q53 -31 119 -30q82 0 148.5 80.5t66.5 201.5q0 131 -58 203q-63 82 -194 82q-78 0 -133 -43q-51 -45 -93 -139q-18 88 -68 136t-134 48q-78 0 -126 -36t-48 -99q-6 -49 33.5 -93t125.5 -57l-75 -41q-63 -41 -64 -112q0 -63 36 -100.5t97 -37.5l39 5q31 4 96 59 q-18 -59 -57 -94t-94 -43l-31 -2q-70 0 -123 47q-45 47 -57 106v23q0 57 28 100q31 55 121 82q-80 25 -121 68q-33 45 -32 121zM698 946q0 -31 25 -59q27 -20 65 -21q31 0 53.5 19.5t22.5 60.5q0 78 -84 78q-29 0 -59 -18q-23 -18 -23 -60z" />
<glyph unicode="|" horiz-adv-x="6" d="M-711 -250q0 55 45 100q45 41 111 41q49 0 96 -43q37 -43 49 -96q12 61 57.5 100t106.5 39q80 0 131 -81q43 -72 43 -166q0 -96 -34 -164q-43 -86 -136 -86q-61 0 -102 41t-41 104q0 49 28.5 89t73.5 40l33 -2q12 0 35 -18q27 -27 27 -72q0 -16 -17.5 -35.5t-56.5 -36.5 l-4 9q35 12 35 47q0 18 -15 34q-10 8 -39 15q-76 0 -75 -72q0 -37 36 -65q45 -20 82 -21q55 0 97.5 51.5t42.5 130.5q0 80 -40 131.5t-124 51.5l-49 -6q-20 -6 -42 -26t-57 -91q-12 57 -43.5 91t-87.5 34q-57 0 -87 -22.5t-30 -63.5q0 -31 26 -59.5t87 -37.5l-49 -26 q-37 -25 -45 -76q0 -37 26.5 -62.5t71.5 -25.5l27 4q10 4 20.5 10t38.5 27q-18 -80 -98 -92l-29 -2q-53 0 -88 31.5t-35 78.5q0 45 22.5 76t78.5 49q-55 18 -78 47q-25 25 -25 76z" />
<glyph unicode="}" horiz-adv-x="868" d="M78 264q0 51 20 92l13 -2q0 -125 110 -192q84 -47 211 -47q113 0 201 53q100 59 100 151q0 39 -22 68q-14 25 -52 53q-18 -63 -78.5 -109t-144.5 -46q-61 0 -107 33.5t-46 78.5q0 68 58 106t130 38q47 0 76 -11q27 -6 71 -24q0 43 -12 67q-8 23 -41 43.5t-69 20.5h-418 v100h469l2 -78q43 -12 61 -34q18 -14 41 -52l15 -36l2 -37v-23q57 -39 94 -98l24 -53l9 -54q0 -115 -117 -198.5t-246 -83.5q-152 0 -253 76.5t-101 197.5zM340 428q0 -25 29 -41q29 -10 63 -14q63 0 112.5 24.5t63.5 77.5q-72 33 -116 33q-78 0 -115 -23q-37 -18 -37 -57z " />
<glyph unicode="~" horiz-adv-x="868" d="M80 262q0 43 18 92l13 -2q0 -129 108 -192q84 -47 211 -47q111 0 201 51q100 57 100 147q0 37 -23.5 75t-54.5 60q-18 -70 -75.5 -116.5t-141.5 -46.5q-70 0 -119 24q-57 33 -57 88q0 63 59.5 104.5t141.5 41.5q47 0 74 -9l92 -36l12 47l4 57q0 76 -50 136.5t-114 86.5 l21 -53l10 -57q0 -39 -23 -68l-24 -18l-33 -9q-55 0 -91 22t-60 58l-27 56l-12 39l-2 32q0 51 31.5 80t88.5 29l29 -2q98 0 194.5 -102.5t96.5 -223.5l4 -45l-8 -43l-10 -45q129 -90 129 -203q0 -127 -115 -209q-104 -74 -248 -73q-145 0 -247.5 81t-102.5 193zM281 760 q0 -29 36 -60q31 -23 80 -22q33 6 46.5 25.5t19.5 56.5l-4 31q-6 31 -43 55l-31 12l-37 4q-68 -12 -67 -102zM332 424q0 -23 28 -39q33 -10 70 -14q72 0 115.5 21.5t66.5 76.5q-37 16 -63.5 24.5t-54.5 8.5q-162 0 -162 -78z" />
<glyph unicode="&#xa1;" horiz-adv-x="6" d="M-774 -408h491q-29 23 -45 52.5t-16 70.5q0 68 35 121t100 53q61 0 98 -49q33 -55 33 -123q0 -84 -37 -143q-51 -70 -157 -70h-502v88zM-307 -299q0 -43 26.5 -76t71.5 -33q47 0 75 37t28 84q0 43 -29 72q-33 27 -74 27q-39 0 -68.5 -32t-29.5 -79z" />
<glyph unicode="&#xa2;" d="M78 256q0 139 72.5 238.5t195.5 142.5l-266 2v98h627v-98l-29 -2q123 -43 194 -139q80 -105 80 -242q0 -106 -59 -187t-166 -81q-76 0 -139 63q-41 47 -76 144q-25 -90 -72 -144q-55 -61 -141 -61q-109 0 -165 78.5t-56 187.5zM152 307q0 -70 43 -131q43 -53 120 -53 q135 0 197 143q68 -147 205 -147q92 0 133 59q33 53 33 129q0 129 -95 225q-106 102 -276 103q-170 0 -270 -103q-90 -94 -90 -225zM430 432q0 27 23.5 52.5t58.5 31.5q29 0 56.5 -25.5t27.5 -58.5q0 -35 -22.5 -59.5t-61.5 -24.5q-27 0 -54.5 25.5t-27.5 58.5zM442 -190 l4 28l64 258l70 -258l4 -31q0 -31 -21 -49q-16 -18 -51 -20q-23 0 -47 18q-16 16 -23 54z" />
<glyph unicode="&#xa3;" d="M78 256q0 125 69 221q59 80 160 141h-43q-57 0 -94 35t-37 84q0 84 60 129q70 51 194 52l59 -3q215 -18 367 -225q139 -194 139 -434q0 -104 -56 -185t-159 -81q-80 0 -145 61q-49 53 -80 144q-25 -90 -76 -144q-59 -61 -145 -61q-92 0 -158 80q-55 80 -55 186zM152 299 q0 -76 34 -117q45 -57 129 -57q74 0 117 30.5t80 110.5q68 -145 209 -145q76 0 127 57q37 47 37 123q0 135 -90 225q-100 100 -281 101q-168 0 -274 -107q-88 -94 -88 -221zM240 729q0 -37 26 -63q12 -10 28.5 -16.5t41.5 -6.5l61 6q84 18 103 19l41 -2q88 0 168 -37 q77 -33 151 -109q-25 115 -130 206t-249 105l-53 5q-168 0 -188 -107zM430 432q0 27 23.5 52.5t58.5 31.5q29 0 56.5 -25.5t27.5 -58.5q0 -35 -22.5 -59.5t-61.5 -24.5q-27 0 -54.5 25.5t-27.5 58.5zM442 -190l4 28l64 258l70 -258l4 -31q0 -31 -21 -49q-16 -18 -51 -20 q-23 0 -47 18q-16 16 -23 54z" />
<glyph unicode="&#xa4;" horiz-adv-x="6" d="M-698 -420l2 43q0 55 24.5 98t75.5 91q90 74 207 73q117 0 206 -72.5t105 -189.5l2 -45q0 -92 -47 -139q-39 -33 -102 -33q-43 0 -84 39t-80 106q-25 -57 -72 -100q-20 -20 -42.5 -32.5t-45.5 -12.5q-66 0 -102 35q-47 43 -47 139zM-643 -377q0 -49 19.5 -84t74.5 -35 t95 26t63 85q25 -55 65 -84l39 -16q27 -10 62 -11q57 6 78 39q16 33 16 80q0 98 -74 164q-76 59 -182 59t-181 -61t-75 -162zM-440 -266q0 23 14 36t37 15q51 0 51 -51q0 -49 -51 -49q-16 0 -32.5 12t-18.5 37zM-440 -647l49 151l53 -151q0 -70 -51 -70q-12 0 -31.5 19.5 t-19.5 50.5z" />
<glyph unicode="&#xa5;" d="M78 256q0 139 72.5 238.5t195.5 142.5l-266 2v98h627v-98l-29 -2q123 -43 194 -139q80 -105 80 -242q0 -106 -59 -187t-166 -81q-76 0 -139 63q-41 47 -76 144q-25 -90 -72 -144q-55 -61 -141 -61q-96 0 -162 80q-59 82 -59 186zM154 307q0 -80 41 -133q45 -51 120 -51 q135 0 197 143q68 -147 205 -147q86 0 133 59q33 53 33 125q0 123 -90 219q-106 113 -281 113q-172 0 -270 -105q-88 -94 -88 -223z" />
<glyph unicode="&#xa6;" d="M78 256q0 125 69 221q59 80 160 141h-43q-57 0 -93 35t-36 84q0 72 53 117q70 57 203 57l58 -2q106 0 195 -55t171 -168q137 -192 137 -430q0 -104 -56 -185t-159 -81q-80 0 -145 61q-49 53 -80 144q-25 -90 -77 -147.5t-142 -57.5q-98 0 -160 80q-55 80 -55 186z M145 299q0 -74 40 -126t120 -52q139 0 207 145q68 -145 209 -145q84 0 129 59q39 51 39 127q0 117 -94 211q-109 109 -281 109q-166 0 -272 -107q-96 -96 -97 -221zM240 729q0 -37 26 -63q12 -10 28.5 -16.5t41.5 -6.5l61 6q84 18 103 19l41 -2q88 0 168 -37 q77 -33 151 -109q-25 115 -130 206t-249 105l-53 5q-168 0 -188 -107z" />
<glyph unicode="&#xa7;" horiz-adv-x="6" d="M-698 -420l2 43q0 51 23.5 96t74.5 93q86 74 209 73q117 0 206 -72.5t105 -189.5l2 -45q0 -92 -47 -139q-39 -33 -102 -33q-43 0 -84 39t-80 106q-25 -57 -72 -100q-20 -20 -42.5 -32.5t-45.5 -12.5q-66 0 -102 35q-47 43 -47 139zM-651 -377q0 -45 23.5 -82t78.5 -37 t95 26t63 85q25 -55 65 -84l39 -16q27 -10 62 -11q61 6 84 41l12 31l4 47q0 94 -81 159.5t-183 65.5q-98 0 -180 -61t-82 -164z" />
<glyph unicode="&#xa8;" d="M78 256q0 139 72.5 238.5t195.5 142.5h-266v100h627v-98l-29 -2q123 -43 194 -139q80 -105 80 -242q0 -115 -59 -191.5t-166 -76.5q-76 0 -139 63q-41 47 -76 144q-25 -90 -72 -144q-55 -61 -141 -61q-100 0 -164 76q-57 76 -57 190zM152 313q0 -72 43 -137 q43 -59 120 -59q135 0 197 149q35 -78 84 -116.5t115 -38.5q84 0 127 61t43 135q0 123 -88 217q-106 113 -281 113q-168 0 -272 -105q-88 -94 -88 -219zM442 -190l4 28l64 258l70 -258l4 -31q0 -31 -21 -49q-16 -18 -51 -20q-23 0 -47 18q-16 16 -23 54z" />
<glyph unicode="&#xa9;" d="M78 256q0 121 60.5 219t156.5 143h-31q-57 0 -93 35t-36 84q0 76 79 126t235 50q106 0 195 -55t171 -168q137 -192 137 -434q0 -53 -12 -98t-41 -88q-53 -80 -162 -80q-80 0 -145 61q-49 53 -80 144q-25 -90 -76 -144q-59 -61 -145 -61q-106 0 -159.5 77.5t-53.5 188.5z M139 305q0 -78 35 -125q43 -59 131 -59q139 0 207 145q68 -145 209 -145q82 0 129 59q41 51 41 125q0 127 -90 217q-102 102 -283 103q-176 0 -282 -101q-96 -90 -97 -219zM240 729q0 -31 26 -63q12 -12 31 -19l43 -4l68 14q53 12 92 13l41 -2q172 -1 319 -148 q-25 115 -130 206t-249 105l-53 5q-168 0 -188 -107zM442 -190l4 28l64 258l70 -258l4 -31q0 -31 -21 -49q-16 -18 -51 -20q-23 0 -47 18q-16 16 -23 54z" />
<glyph unicode="&#xaa;" horiz-adv-x="6" d="M-702 -403l4 45q16 121 102 189.5t209 68.5q117 0 204 -67.5t105 -188.5l2 -39q0 -96 -53 -144q-45 -39 -111 -39q-37 0 -76.5 40t-70.5 108q-37 -76 -57 -102q-39 -45 -97 -46q-74 0 -123 58q-39 51 -38 117zM-643 -358q0 -55 22.5 -90t75.5 -35q49 0 89 25.5t69 90.5 q49 -117 158 -116q45 0 77 32q25 31 25 86q0 92 -80 164q-18 14 -39.5 27.5t-44.5 21.5q-45 16 -96 17q-100 0 -178 -61.5t-78 -161.5zM-440 -645l2 16l51 127l51 -127q8 -27 -6 -47q-16 -16 -45 -22q-18 0 -35 16q-18 12 -18 37z" />
<glyph unicode="&#xab;" horiz-adv-x="876" d="M78 223q0 94 53 148.5t119 54.5q109 0 178.5 -153.5t173.5 -153.5q68 0 105 55q31 47 30 123q0 117 -92 221q-106 119 -262 119l-297 2v98h471v-98l-27 -2q121 -49 198 -148.5t77 -218.5q0 -104 -39 -180q-51 -100 -148 -100q-106 0 -170.5 163.5t-162.5 163.5 q-68 0 -113 -38.5t-45 -98.5l2 -22q6 -35 37 -72q29 -29 108 -59q8 -2 17 -23l6 -43q0 -10 -23 -22l-34 -9l-17 2q-63 43 -102 115l-35 113l-6 30z" />
<glyph unicode="&#xac;" horiz-adv-x="876" d="M80 209q0 92 52 156.5t116 64.5q125 0 194.5 -158.5t155.5 -158.5q80 0 121 71q31 55 31 164q0 209 -130.5 393.5t-295.5 206.5l-45 6q45 -25 63 -98l2 -31q0 -45 -13.5 -72.5t-60.5 -41.5l-28 -4q-61 0 -109.5 56t-48.5 124v18q6 66 43 107t121 41q199 0 381 -225.5 t182 -475.5q0 -156 -43 -254q-49 -111 -152 -110q-109 0 -161 151.5t-156 165.5l-35 2q-72 0 -103.5 -41t-31.5 -98q0 -80 147 -139q12 -2 23 -23q12 -16 6 -43l-6 -6q-10 -10 -20 -16l-43 -11l-17 2q-61 43 -98 111q-6 12 -14.5 39t-20.5 70zM121 870l6 -32q6 -25 37 -43 q23 -12 45 -13l31 4q16 2 31.5 23.5t21.5 58.5l-2 21q-18 68 -88 67l-19 -2q-63 -18 -63 -84z" />
<glyph unicode="&#xad;" horiz-adv-x="163" d="M-461 -258q0 63 74 103t160 40q66 0 84 -4l65 -18q63 -25 107 -62q14 20 32 70q14 57 15 86l2 29q0 96 -68 180l8 41q47 -37 81 -113t34 -151q0 -51 -22 -103q-18 -55 -50 -92l17 -39l10 -59q6 -39 37 -64q37 -20 84 -20v-92q-94 0 -129 53q-25 35 -39 145l-12 43 q-43 -47 -103 -75q-74 -37 -153 -37q-78 0 -150 30q-84 37 -84 109zM-387 -244q0 -25 55 -47q53 -18 115 -18h24q12 0 36 3t59 19q51 19 94 56q-55 68 -227 67q-45 0 -100.5 -18.5t-55.5 -61.5z" />
<glyph unicode="&#xae;" horiz-adv-x="1015" d="M76 227q0 84 49 143.5t125 59.5q53 0 90 -45q25 -37 25 -94q0 -37 -24 -64.5t-58 -33.5l-9 2l-14 12q31 6 44 25.5t13 48.5q-6 33 -34.5 50t-57.5 17q-113 0 -112 -106q0 -55 47 -90q55 -33 114 -33q86 0 142.5 33.5t97.5 113.5q25 -68 72 -105.5t106 -37.5 q106 0 156.5 41t50.5 108q0 49 -51 115l-66 80q-10 14 -10 37q0 12 8 28q18 31 41 31l27 -26l16 -21q76 -121 76 -258l-2 -45q0 -94 -66 -164q-55 -59 -147 -59q-68 0 -129 51t-84 147q-18 -98 -74.5 -148t-146.5 -50q-92 0 -156 63q-59 63 -59 174zM80 639v98h612v-98h-612 zM414 496q0 29 25.5 56.5t58.5 27.5q27 0 54.5 -25.5t27.5 -58.5q0 -37 -22.5 -59.5t-59.5 -22.5q-35 0 -59.5 22.5t-24.5 59.5z" />
<glyph unicode="&#xaf;" horiz-adv-x="1015" d="M78 227q0 92 49 147.5t123 55.5q47 0 84 -43q31 -43 31 -96q0 -37 -24 -64.5t-58 -33.5l-9 2l-14 12q31 6 44 25.5t13 48.5q-6 33 -34.5 50t-57.5 17q-111 0 -110 -108q0 -55 48 -87t111 -32q78 0 137.5 32.5t102.5 112.5q25 -70 71 -105.5t107 -35.5q102 0 155.5 42 t53.5 105q0 35 -20 70l-99 125q-12 16 -12 37q0 20 17.5 38.5t33.5 20.5l27 -26l16 -21q76 -121 76 -258l-2 -45q0 -94 -66 -164q-55 -59 -147 -59q-68 0 -129 51t-84 147q-18 -98 -74.5 -148t-146.5 -50t-156 61q-57 63 -57 176zM326 745q0 63 46 106.5t120 43.5t137 -63.5 t63 -169.5l-2 -44q-12 -80 -59 -139q-55 -68 -133 -67q-61 0 -115 51q-37 39 -55 90l26 2q18 -23 54 -47q35 -18 92 -19q66 0 108.5 44.5t42.5 103.5q0 51 -11 86t-30 57l6 -24l2 -23q0 -61 -31.5 -96t-88.5 -35l-23 -2q-70 0 -110 41q-39 45 -39 104zM414 739q0 -29 24 -57 q27 -23 62 -23q84 1 84 89q0 84 -84 83q-37 0 -61.5 -25.5t-24.5 -66.5z" />
<glyph unicode="&#xb0;" horiz-adv-x="163" d="M-414 -360q0 55 31 96q31 35 78 35q31 0 57 -27q23 -29 23 -63q0 -27 -16.5 -45.5t-39.5 -18.5l-16 6l-4 8q25 0 37 21l4 22q0 18 -25 35l-30 8q-68 0 -68 -73q0 -37 29 -54l32 -12l37 -4q53 0 92 19.5t62 72.5q35 -90 119 -90q63 0 98 53q29 45 29 99q0 66 -37 118 l-55 66l-19 29l-8 22q0 23 10 44.5t25 27.5l12 -12l18 -19l23 -43l37 -86q33 -98 33 -162l-2 -41q-12 -74 -50.5 -132t-95.5 -58q-45 0 -82 35q-37 31 -55 94q-29 -129 -143 -129q-59 0 -99.5 45t-40.5 113z" />
<glyph unicode="&#xb1;" horiz-adv-x="1015" d="M78 227q0 86 50 144.5t114 58.5q57 0 96 -45l16 -35q10 -27 11 -59q0 -37 -24 -64.5t-58 -33.5l-9 2l-14 12q31 6 44 25.5t13 48.5q-6 33 -34.5 50t-57.5 17q-111 0 -110 -108q0 -55 48 -87t111 -32q78 0 137.5 32.5t102.5 112.5q25 -70 71 -105.5t107 -35.5 q104 0 157.5 41t53.5 106q0 49 -51 113l-66 80q-12 16 -12 37q0 18 12.5 36.5t34.5 24.5l27 -26l16 -21q76 -121 76 -258l-2 -45q0 -94 -66 -164q-55 -59 -147 -59q-68 0 -129 51t-84 147q-18 -98 -74.5 -148t-146.5 -50t-156 61q-57 63 -57 176zM80 639v98h633v-98h-633z M430 496q0 27 23.5 52t58.5 32q29 0 56.5 -25.5t27.5 -58.5q0 -37 -22.5 -59.5t-61.5 -22.5q-35 0 -59 22q-23 27 -23 60zM442 -190l4 28l64 258l70 -258l4 -31q0 -31 -21 -49q-16 -18 -51 -20q-23 0 -47 18q-16 16 -23 54z" />
<glyph unicode="&#xb2;" horiz-adv-x="1015" d="M78 227q0 86 50 144.5t114 58.5q61 0 92 -42t31 -97q0 -37 -24 -64.5t-58 -33.5l-9 2l-14 12q31 6 44 25.5t13 48.5q-6 33 -34.5 50t-57.5 17q-111 0 -110 -108q0 -55 48 -87t111 -32q78 0 137.5 32.5t102.5 112.5q25 -70 71 -105.5t107 -35.5q104 0 157.5 41t53.5 106 q0 49 -51 115l-64 80q-12 16 -12 37q0 18 11.5 35.5t33.5 23.5l27 -26l16 -21q76 -121 76 -258l-2 -45q0 -94 -66 -164q-55 -59 -147 -59q-68 0 -129 51t-84 147q-18 -98 -74.5 -148t-146.5 -50t-156 61q-57 63 -57 176zM311 553l27 2q18 -23 53 -47q35 -18 92 -19 q66 0 109 44.5t43 103.5q0 51 -11.5 86t-29.5 57l6 -24l2 -23q0 -61 -31.5 -96t-89.5 -35l-22 -2q-63 0 -107 43q-39 45 -39 105q0 61 49.5 104t112.5 43q74 0 137.5 -63.5t63.5 -169.5l-2 -44q-12 -78 -56 -139q-53 -68 -137 -67q-47 0 -88 28q-55 37 -82 113zM397 739 q0 -29 25 -57q27 -23 61 -23q84 1 84 89q0 84 -84 83q-37 0 -61.5 -25.5t-24.5 -66.5zM442 -190l4 28l64 258l70 -258l4 -31q0 -31 -21 -49q-16 -18 -51 -20q-23 0 -47 18q-16 16 -23 54z" />
<glyph unicode="&#xb4;" horiz-adv-x="229" />
<glyph unicode="&#xb5;" horiz-adv-x="163" d="M-414 -360q0 55 33 94t78 39q31 0 57 -27q20 -35 21 -65q0 -27 -16.5 -45.5t-39.5 -18.5l-16 6l-4 8q25 0 37 21l4 22q0 18 -25 35l-30 8q-70 0 -70 -71q0 -31 29.5 -54.5t70.5 -23.5q49 0 87 21.5t67 76.5q37 -96 119 -96q55 0 96 55l16 41q10 27 11 62q0 74 -27 120 l-53 62l-27 35l-10 22q-4 16 8 41t29 27l12 -12l18 -19l23 -43l37 -86q33 -98 33 -162l-2 -41q-12 -74 -50.5 -132t-95.5 -58q-45 0 -82 35q-37 31 -55 94q-29 -129 -143 -129q-59 0 -99.5 45t-40.5 113zM-176 -600l41 137h8l41 -137l2 -18q0 -47 -47 -48q-45 0 -45 50v16z " />
<glyph unicode="&#xb6;" horiz-adv-x="1015" d="M63 592q0 55 43.5 106.5t104.5 51.5q86 0 132 -52.5t46 -138.5q0 -88 -160 -199q-78 -49 -77 -118q0 -121 139 -121q68 0 133 55q43 43 80 123q25 -80 78 -133q57 -51 143 -51q74 0 121 47t61 145l2 43q0 84 -32 152q-43 84 -136 143q-33 18 -45 35.5t-12 36.5 q0 18 14.5 31.5t42.5 19.5l17 -4q84 -37 141 -173t57 -288q0 -156 -77 -240q-63 -70 -154 -69q-92 0 -154 63q-47 51 -69 148q-18 -88 -76 -148q-66 -68 -152 -67q-92 0 -148 52t-56 146q0 104 170 218q80 53 79 122q0 45 -26.5 76t-67.5 31q-39 0 -72.5 -25.5t-33.5 -64.5 q0 -23 15.5 -44.5t49.5 -43.5l-2 -6q-55 12 -90 49q-29 39 -29 92z" />
<glyph unicode="&#xb7;" d="M63 592q0 55 43.5 106.5t104.5 51.5q78 0 130 -50.5t52 -134.5q0 -98 -164 -207q-78 -49 -77 -118q0 -119 139 -119q68 0 133 55q43 43 80 123q25 -80 78 -133q57 -51 143 -51q68 0 106.5 37.5t63.5 140.5l2 24q0 80 -49 160q-68 109 -209 160l-125 2v98h195l2 -94 q63 -12 149 -104q103 -113 103 -236q0 -156 -82 -240q-70 -70 -156 -69q-92 0 -154 63q-47 51 -69 148q-18 -88 -76 -148q-66 -68 -152 -67q-100 0 -154 53t-54 158q0 86 172 202q82 53 81 125q0 45 -26.5 76t-67.5 31q-39 0 -72.5 -25.5t-33.5 -64.5q0 -23 15.5 -44.5 t49.5 -43.5l-2 -6q-55 12 -90 49q-29 39 -29 92z" />
<glyph unicode="&#xb8;" horiz-adv-x="1015" d="M63 592q0 53 43.5 101t104.5 48q74 0 125 -51t51 -131q0 -100 -156 -201q-76 -47 -75 -98q0 -141 145 -141q68 0 127 55q35 39 76 125q25 -80 78 -133q57 -51 143 -51q63 0 113 49q37 43 53 110l8 121q0 70 -10 111q0 33 -10 57l-19 62q-25 78 -83 171t-111 130l20 -68 l8 -72q0 -43 -25.5 -68.5t-72.5 -25.5q-61 0 -117 68q-20 27 -31.5 52.5t-15.5 39.5l-4 61q0 68 34 109t83 41q98 0 217 -150q98 -127 147 -278l23 -82q4 -14 10 -48t12.5 -80t7.5 -70.5t1 -51.5q0 -154 -82 -242q-68 -74 -156 -73q-86 0 -152 61q-49 55 -71 156 q-18 -88 -70 -148q-59 -68 -143 -67q-98 0 -158 57q-55 59 -55 158q0 100 121.5 173t121.5 150q0 45 -26.5 76t-67.5 31q-39 0 -72.5 -25.5t-33.5 -64.5q0 -23 15.5 -44.5t49.5 -43.5l-2 -6q-55 12 -90 49q-29 39 -29 92zM471 889q-6 -37 11.5 -74t62.5 -49l24 -2 q64 0 84 70l2 26q0 39 -22 68q-18 31 -53 39q-37 6 -70 -14.5t-39 -63.5z" />
<glyph unicode="&#xb9;" horiz-adv-x="163" d="M-397 -213q0 33 29.5 67.5t68.5 34.5q49 0 84 -34q31 -35 31 -91q0 -66 -70 -114q-70 -45 -70 -88q0 -74 74 -74q45 0 80 29.5t59 81.5q16 -55 48 -83t94 -28q39 0 75.5 36t36.5 99q0 154 -49 240q-25 49 -108 114q-31 25 -31 54q0 20 19.5 39.5t37.5 13.5 q59 -25 117 -164q31 -72 45 -146.5t14 -170.5q0 -100 -53 -160q-43 -49 -102 -49q-55 0 -93 38t-51 97q-16 -55 -53 -96t-94 -41q-61 0 -96 41q-37 37 -37 104q0 61 80 109.5t80 97.5q0 33 -17.5 51.5t-42.5 18.5q-31 0 -50 -15.5t-19 -42.5q0 -18 7 -28.5t36 -26.5l-2 -8 q-37 6 -57.5 33.5t-20.5 60.5z" />
<glyph unicode="&#xba;" d="M63 592q0 55 43.5 106.5t104.5 51.5q72 0 124 -55.5t52 -135.5q0 -98 -156 -203q-76 -51 -75 -116q0 -125 135 -125q74 0 133 57q45 45 80 127q25 -76 74 -131q63 -59 147 -59q68 0 106.5 39.5t63.5 144.5l2 29q0 66 -41 135q-68 123 -223 180l-119 2v98h195l2 -94 q61 -18 151 -104q105 -111 105 -236q0 -162 -84 -246q-68 -68 -158 -67q-94 0 -154 65q-47 51 -69 150q-18 -88 -76 -148q-66 -68 -152 -67q-92 0 -151 59q-55 59 -55 160q0 104 125.5 173t125.5 146q0 45 -26.5 76t-67.5 31q-39 0 -72.5 -25.5t-33.5 -64.5 q0 -23 15.5 -44.5t49.5 -43.5l-2 -6q-55 12 -90 49q-29 39 -29 92zM446 -193l3 31l63 258h8l64 -258l2 -28q0 -31 -20.5 -51.5t-49.5 -20.5q-23 0 -37 8q-33 20 -33 61z" />
<glyph unicode="&#xbb;" horiz-adv-x="1015" d="M63 592q0 61 42 109.5t106 48.5q86 0 132 -52.5t46 -138.5t-160 -197q-74 -49 -73 -102q0 -141 145 -141q68 0 127 55q35 39 76 125q25 -80 78 -133q57 -51 143 -51q63 0 113 49q37 43 53 110l8 121q0 70 -10 111q0 33 -10 57l-19 62q-23 74 -82 161.5t-112 122.5 q29 -57 28 -121q0 -41 -25.5 -66.5t-74.5 -25.5q-61 0 -117 68q-39 47 -51 92l-6 55q0 55 37 103q39 39 86 39q98 0 217 -146q96 -121 149 -272l23 -82q4 -14 10 -48t12.5 -80t7.5 -70.5t1 -51.5q0 -154 -82 -242q-68 -72 -156 -71q-94 0 -154 65q-47 51 -69 150 q-18 -88 -70 -148q-59 -68 -143 -67q-98 0 -154.5 60.5t-56.5 160.5q0 98 120.5 166.5t120.5 150.5q0 45 -26.5 76t-67.5 31q-39 0 -72.5 -25.5t-33.5 -64.5q0 -29 67 -78l-4 -16q-55 12 -90 49q-29 39 -29 92zM430 -193l4 31l64 242l71 -242l2 -31q0 -31 -18 -48t-51 -21 q-27 0 -49.5 17.5t-22.5 51.5zM469 881q-6 -37 16.5 -70t63.5 -45l37 2q12 0 28 14q31 19 39 58l2 26q0 29 -16 52q-25 37 -68 36l-36 -2q-10 0 -35 -18q-23 -12 -31 -53z" />
<glyph unicode="&#xbc;" horiz-adv-x="163" d="M-414 -213q0 37 29 70.5t70 33.5q55 0 86.5 -33.5t31.5 -88.5q0 -66 -73.5 -115t-73.5 -96q0 -37 19.5 -50.5t58.5 -19.5q45 0 79.5 29.5t59.5 81.5q16 -55 48 -83t93 -28q41 0 80 36t39 97q0 154 -51 244q-27 47 -111 119q-31 25 -30 53q0 25 17 36t38 11 q59 -25 117 -164q31 -72 45 -146.5t14 -170.5q0 -100 -53 -160q-43 -49 -103 -49q-55 0 -93 38t-50 97q-16 -55 -53 -96t-94 -41t-94.5 38t-37.5 107q0 59 107 129q51 33 51 78q0 33 -17.5 51.5t-41.5 18.5q-33 0 -48.5 -13.5t-21.5 -44.5q0 -27 45 -53l-4 -10 q-37 6 -57.5 33.5t-20.5 60.5zM-174 -723q0 18 4 23l41 165l47 -165l4 -21q0 -16 -13 -31.5t-36 -15.5q-18 0 -29.5 9t-17.5 36z" />
<glyph unicode="&#xbd;" horiz-adv-x="262" d="M-225 -330q0 70 47 125q31 37 80 53q6 20 63 80q53 59 60 92q0 37 -17 54l-28 24l-15 25l8 20q6 8 31 15l14 -4l11 -2q31 -12 46 -34t15 -61q0 -25 -27 -63l-32 -51q-6 -12 -35 -35l-41 -35l45 18l55 5q61 0 111.5 -28t50.5 -79q0 -66 -41 -106.5t-102 -40.5l-21 2 q-74 12 -114 59q-12 14 -18.5 22.5t-14.5 30t-8 54.5q-25 -12 -46.5 -46t-21.5 -79q0 -86 84 -131q72 -33 162 -33q111 0 176 71q45 51 63 150l25 -16q-12 -123 -77.5 -205t-186.5 -101l-37 -2q-109 0 -186.5 69t-77.5 183zM-68 -182q0 -29 39 -66q39 -33 82 -33 q47 0 74 18.5t33 51.5q0 31 -35 49.5t-88 18.5t-103 -25z" />
<glyph unicode="&#xbe;" horiz-adv-x="1310" d="M76 354q0 137 109.5 229.5t252.5 92.5q137 0 229.5 -109.5t92.5 -255.5l-6 -53q35 -66 80 -106q57 -45 135 -46q74 0 139 50q76 66 76 196q0 92 -96.5 188.5t-202.5 96.5h-66v100h215v-94h-28q111 -37 181 -120t70 -208q0 -135 -69.5 -230t-188.5 -95q-94 0 -165 69 q-55 55 -95 152q-37 -104 -130 -165.5t-212 -61.5q-139 0 -230 111.5t-91 258.5zM156 389q0 -111 67.5 -189.5t173.5 -78.5t190.5 67.5t84.5 171.5q0 109 -68.5 192t-173.5 83q-111 0 -192.5 -69.5t-81.5 -176.5z" />
<glyph unicode="&#xbf;" horiz-adv-x="1368" d="M76 354q0 137 109.5 229.5t252.5 92.5q137 0 229.5 -110t92.5 -255q0 -137 -108.5 -233t-254.5 -96q-133 0 -227 110.5t-94 261.5zM158 393q0 -113 66.5 -192.5t172.5 -79.5t192.5 67.5t86.5 171.5q0 111 -69.5 193t-176.5 82q-106 0 -189 -68.5t-83 -173.5zM645 891 q0 68 33 113q12 16 37 34q16 10 49 15q23 0 51.5 -6.5t61.5 -20.5q63 -25 131 -84q145 -125 233 -299q25 -49 37 -129l10 -72l4 -63v-41l-2 -23q-12 -139 -92 -233t-199 -94q-111 0 -188 96q-55 68 -92 186l-6 19q0 31 6 53l8 -6q12 -51 31.5 -91t46.5 -71q61 -68 164 -68 q82 0 149 54q84 68 107 196l6 86q0 63 -10 97q-6 41 -33 88q-53 100 -141 188q-68 68 -154 105l12 -48l4 -57v-27q0 -12 -4 -37.5t-27.5 -54t-70.5 -28.5q-68 0 -109 53q-37 55 -49 104zM686 856q0 -39 23 -74q25 -31 59 -39q35 -6 64.5 12.5t37.5 59.5l2 23q0 45 -22 73 q-18 31 -59 43l-15 2h-8q-37 0 -61 -32q-16 -31 -21 -68z" />
<glyph unicode="&#xc0;" horiz-adv-x="221" d="M-225 -231q0 45 31.5 79.5t70.5 34.5q127 0 127 -131q-6 -51 -74 -94q-68 -37 -75 -78q-10 -57 41 -86q39 -23 100 -22q86 0 139 34q55 31 64 97l2 35q0 82 -64 172q-139 199 -139 245q0 55 25.5 93t66.5 38q55 0 86 -55q20 -51 21 -111h-21q0 45 -22 70q-18 29 -58 29 q-27 0 -40 -15.5t-19 -50.5q0 -68 112.5 -196.5t112.5 -231.5l-2 -31q0 -86 -67 -153q-68 -74 -189 -74q-102 0 -162 53q-61 49 -61 125q0 74 89 120t89 85q0 66 -78 66q-25 -2 -39 -14.5t-20 -34.5l2 -46l-21 -14q-29 23 -28 62z" />
<glyph unicode="&#xc1;" horiz-adv-x="835" d="M78 336q0 100 59.5 185t145.5 116h-203v100h434l2 -94q102 -25 172 -109.5t70 -197.5q0 -76 -22.5 -135.5t-73.5 -112.5q-96 -98 -244 -98q-147 0 -243.5 105.5t-96.5 240.5zM137 383q0 -123 88 -197q78 -66 193 -65q109 0 193.5 79t84.5 183q0 100 -86 177t-192 77 q-115 0 -198 -82t-83 -172z" />
<glyph unicode="&#xc2;" horiz-adv-x="835" d="M78 336q0 82 43 153.5t119 120.5q-61 0 -107.5 28t-46.5 67q0 72 68.5 113.5t148.5 41.5q211 0 344 -188q113 -162 113 -336q0 -78 -21.5 -135.5t-74.5 -112.5q-92 -98 -246 -98t-247 102.5t-93 243.5zM145 383q0 -123 82 -195.5t191 -72.5q104 0 189 79.5t85 188.5 q0 104 -82 174t-194 70q-115 0 -193 -72t-78 -172zM180 690q0 -35 49 -47l52 2h22q27 6 39 8l78 11q61 0 127 -25q77 -37 145 -125q-25 104 -126 186t-228 82q-80 0 -117 -22q-41 -18 -41 -70z" />
<glyph unicode="&#xc3;" horiz-adv-x="163" d="M-659 -279l22 19q127 -123 322 -123l90 6q188 25 280 110t92 212q0 35 -30 69l-68 41q-8 6 -14 31l2 18l6 19q8 8 14 10l17 2q23 0 26 -4q31 -14 58.5 -62t27.5 -122q0 -174 -84 -285q-98 -129 -292 -147l-43 -2q-135 0 -256 59t-170 149z" />
<glyph unicode="&#xc4;" horiz-adv-x="1015" d="M78 383q0 150 73.5 266.5t186.5 116.5q68 0 114 -58.5t46 -134.5q0 -80 -45 -132t-99 -52q-41 0 -78 45q-29 45 -28 96q0 82 45 136q-59 -18 -115 -95q-49 -74 -49 -168q0 -143 125 -225q106 -66 258 -65q139 0 246 63q129 74 129 209l2 37q0 76 -34 129t-105 94l-39 25 q-20 20 -21 49q0 16 14.5 27.5t38.5 19.5q18 0 29 -8q164 -121 164 -359q0 -178 -107 -290q-115 -121 -317 -121q-178 0 -306 110.5t-128 284.5zM276 571q0 -33 23 -61q18 -18 57 -29q45 0 76 22.5t31 67.5q0 96 -94 97q-37 0 -65 -27t-28 -70z" />
<glyph unicode="&#xc5;" horiz-adv-x="1015" d="M78 383q0 150 73.5 266.5t186.5 116.5q63 0 106 -57q20 -29 30.5 -60t10.5 -71q0 -86 -32.5 -137.5t-83.5 -51.5q-49 0 -88 45q-18 25 -25.5 45.5t-7.5 50.5q0 80 43 136q-61 -25 -119 -107q-53 -82 -53 -170q0 -135 129 -215q115 -63 264 -63q139 0 248 75 q121 84 121 215q0 90 -69 163t-153 73l-98 2v98h225v-98l-32 -2q72 -18 127 -85t55 -169q0 -158 -107 -270q-119 -125 -317 -125q-178 0 -306 110.5t-128 284.5zM281 569q0 -37 26.5 -64.5t59.5 -27.5q96 1 96 101q0 37 -26.5 63.5t-67.5 26.5q-37 0 -62.5 -26t-25.5 -73z " />
<glyph unicode="&#xc6;" horiz-adv-x="1015" d="M78 393q0 147 73.5 260t186.5 113q68 0 111 -56.5t43 -131.5q0 -86 -39 -137.5t-99 -51.5q-47 0 -78.5 42t-31.5 97q0 47 11 76t38 62q-63 -18 -118.5 -92t-55.5 -164q0 -143 119 -226q111 -70 274 -69q164 0 278.5 98t114.5 264q0 184 -100 336q-80 123 -168 150 q18 -23 30.5 -58t12.5 -57q0 -31 -12 -49q-23 -29 -76 -29q-80 0 -146.5 61.5t-66.5 114.5q0 115 125 115h20q184 0 316 -193q114 -174 114 -385q0 -209 -123.5 -351t-318.5 -142q-184 0 -309 114.5t-125 288.5zM283 563q0 -33 16 -55q18 -18 53 -27l37 2q14 4 33 17 q33 26 33 71q0 96 -90 97q-31 0 -56.5 -29t-25.5 -76zM451 907q0 -29 24 -59q25 -25 62 -25q31 0 59 23q27 27 27 63q0 33 -23 56q-23 29 -63 28q-31 0 -58.5 -26.5t-27.5 -59.5z" />
<glyph unicode="&#xc7;" horiz-adv-x="6" d="M-676 -315q0 76 39 134t105 58q55 0 96 -39q31 -31 55 -104q20 70 59 108.5t103 38.5q61 0 108 -59q43 -61 43 -129q0 -135 -90 -168l-22 10l-4 4q0 27 8 35q74 25 74 86q6 61 -29 87t-88 26q-43 0 -90 -19q-31 -16 -72 -69q-63 88 -147 88q-49 0 -80 -24.5t-31 -88.5 q0 -51 64 -78q18 -6 20 -33l-8 -14l-19 -10q-45 12 -69.5 60t-24.5 100z" />
<glyph unicode="&#xc8;" horiz-adv-x="1015" d="M78 227q0 92 51 152q51 51 119 51q57 0 88 -42t31 -95q0 -35 -24 -63.5t-60 -36.5l-9 4l-12 10q29 6 42 25.5t13 48.5q-6 33 -34.5 50t-57.5 17q-98 0 -98 -106q0 -47 43 -88q45 -33 104 -33q80 0 142.5 30.5t97.5 114.5q25 -63 71 -98t107 -43l29 -2q61 0 108 35 q45 39 45 106q0 147 -124.5 260t-290.5 113l-379 2v98h612v-100h-57q106 -29 184 -107q119 -114 119 -292q0 -106 -60.5 -177t-152.5 -71q-72 0 -133.5 53t-79.5 147q-23 -94 -81 -147t-140 -53q-90 0 -156 61q-57 63 -57 176z" />
<glyph unicode="&#xc9;" horiz-adv-x="1015" d="M78 227q0 92 40 155.5t109 63.5q55 0 93 -45t38 -98l-6 -37q-6 -29 -33 -49l-26 -16l-2 6h-29q18 0 33 20q25 25 18 60q-6 37 -32.5 49t-63.5 16q-45 0 -78 -33q-29 -33 -28 -79q0 -61 47 -90t116 -29q78 0 137.5 32.5t102.5 112.5q53 -145 176 -145l76 6q31 6 57 27 q49 43 56 108l4 37v25l-6 47l-13 57q-37 172 -159 305q-106 113 -226 127q25 -18 43 -55q14 -23 21 -47l4 -31q0 -23 -19 -41q-18 -14 -65 -27l-23 -2q-57 0 -127 45q-74 55 -88 109l-4 37q0 47 30 76.5t89 29.5q193 0 365 -163q160 -154 208 -351l15 -78l4 -90 q0 -137 -60 -209q-55 -74 -151 -73q-66 0 -128.5 52t-80.5 148q-43 -201 -221 -200q-90 0 -156 61q-57 63 -57 176zM309 797q0 -43 31 -68q25 -18 53 -18q35 -1 66 30q18 20 20 54q0 37 -33 67q-25 18 -53 19q-41 0 -67 -33q-10 -12 -17 -51z" />
<glyph unicode="&#xca;" horiz-adv-x="141" d="M-420 -446q0 59 35 94t80 35q33 0 59 -27q16 -29 21 -64q0 -25 -12.5 -43t-41.5 -20l-14 10l27 15q10 8 8 32q0 18 -25 35l-32 8q-66 0 -66 -67q0 -29 31 -54q33 -18 65 -20q47 0 90 18q35 18 66 72q14 -39 44 -58.5t73 -31.5q45 -6 81.5 20.5t36.5 79.5q0 90 -80.5 159 t-193.5 69h-145v67h295h57q49 0 73.5 25.5t24.5 58.5q0 37 -55 78h29q25 -12 43 -37.5t22 -60.5q0 -131 -147 -131h-43h-27q68 -18 121 -72q74 -74 74 -184q0 -70 -42 -118t-104 -48q-45 0 -82 35q-37 31 -55 94q-18 -55 -55 -92t-90 -37q-61 0 -103.5 42t-42.5 118z" />
<glyph unicode="&#xcb;" horiz-adv-x="835" d="M76 215q0 84 45 118t119 34h24l43 -9l53 -2q51 0 89 40t38 104q0 61 -39.5 100t-97.5 39q-49 0 -75.5 -21.5t-36.5 -62.5q-4 -23 2 -35q18 57 77 58q72 0 72 -66q0 -18 -24 -47q-18 -14 -50 -21q-31 0 -48 4.5t-34 16.5q-33 27 -32 80q0 29 7 50t40 42h-168v100h452v-94 q92 -31 155 -118t63 -193q0 -147 -106.5 -244.5t-274.5 -97.5q-123 0 -208 61.5t-85 163.5zM143 233q0 -61 76 -98q63 -29 137 -29q168 0 260 72q84 62 84 160l2 24q0 104 -88 191q-70 70 -159 82q35 -23 57.5 -58.5t22.5 -80.5q0 -82 -48 -131q-53 -57 -151 -58l-62 8 l-36 4q-37 0 -68 -18q-27 -20 -27 -68z" />
<glyph unicode="&#xcc;" horiz-adv-x="835" d="M76 215q0 84 45 118t119 34h24l43 -9l49 -4q59 0 110.5 24.5t76.5 80.5l16 49l8 55l-2 31q-33 20 -76 32.5t-88 12.5l-32 -2q-96 0 -119 -78q-6 -12 -2 -39q6 27 16 36t47 19q70 0 70 -65q0 -29 -13.5 -43t-48.5 -27q-43 -6 -79 19q-33 29 -33 84q0 31 18.5 61.5 t46.5 48.5q25 12 76 25l82 6q35 0 76 -12l57 -27q-12 86 -94 174q-61 68 -137 103l16 -48l6 -45q-6 -31 -32 -49l-27 -12l-37 -4q-59 0 -113 51q-51 57 -51 119q0 39 29 68.5t86 29.5l24 -2q106 -12 224 -123q129 -127 153 -286q57 -33 101.5 -114t44.5 -181 q0 -145 -110.5 -240.5t-276.5 -95.5q-123 0 -208 61.5t-85 163.5zM152 238q0 -55 67 -97q70 -35 137 -35q160 0 250 64q68 49 86 143l6 64q0 61 -24.5 110.5t-69.5 81.5l2 -26q0 -68 -22 -113q-18 -49 -78 -82q-72 -43 -168 -43l-66 8l-32 2q-31 0 -59.5 -17t-28.5 -60z M156 883q0 -20 19.5 -48t57.5 -28q25 0 50.5 19.5t25.5 58.5q0 22 -16 45q-23 31 -64 31q-25 0 -49 -19.5t-24 -58.5z" />
<glyph unicode="&#xcd;" horiz-adv-x="229" d="M-258 -451q0 61 31.5 86t83.5 25q31 0 49 -6l37 -2q45 0 78.5 19.5t51 52t17.5 67.5l-2 25q-55 37 -121 37l-18 -3q-74 0 -86 -59l-4 -16q16 37 49 37q18 0 41 -13q12 -12 14 -35q0 -39 -49 -51q-35 -4 -58.5 14.5t-23.5 55.5q0 27 15.5 49.5t35.5 36.5l56 16l57 4 q31 0 53 -8l41 -16q0 55 -31 110l-55 91q-6 12 -6 28q0 23 14 31l25 8q25 0 43 -38t31 -107l10 -68l4 -78q47 -29 80 -87t33 -124q0 -111 -72 -182q-68 -74 -191 -74q-102 0 -167.5 50.5t-65.5 123.5zM-201 -430q0 -41 49 -72q53 -27 117 -26q104 0 164 47q47 36 55 102 l2 29q0 33 -2 47t-14 37q-12 37 -45 57q0 -27 -8 -51l-13 -39q-10 -29 -55 -59q-29 -16 -56.5 -24.5t-68.5 -8.5l-41 6l-30 2q-29 0 -36 -7t-18 -40z" />
<glyph unicode="&#xce;" horiz-adv-x="1015" d="M78 227q0 86 48 140.5t110 54.5q57 0 92 -35q37 -31 37 -104q0 -31 -19.5 -56.5t-54.5 -33.5h-33l-2 6q31 12 44 25.5t15 45.5q-6 31 -30.5 49.5t-55.5 20.5q-45 0 -73 -23q-25 -14 -35 -69q0 -59 41 -94q45 -33 112 -33q80 0 142.5 32.5t101.5 112.5q25 -68 72 -108 q47 -37 102 -37l53 2l-151 260v35l246 -266q63 33 63 118q0 80 -19.5 120t-70.5 81q-14 14 -14 47q0 18 12 30.5t33 18.5q12 0 28 -22q29 -41 52 -117q8 -35 14 -73t6 -72l-6 -74q-12 -80 -37 -123l82 -90q-8 -14 -35 -29l-45 -8q-45 0 -65 21l-33 40l-33 -22l-47 -8 q-61 0 -127 51q-59 51 -82 147q-23 -96 -85 -147t-132 -51q-98 0 -159.5 59.5t-61.5 177.5zM80 639v98h637v-98h-637zM432 496q0 29 25.5 56.5t58.5 27.5q29 0 54.5 -24.5t29.5 -59.5q0 -33 -27 -60q-23 -18 -57 -22q-35 0 -59.5 22.5t-24.5 59.5z" />
<glyph unicode="&#xcf;" horiz-adv-x="1015" d="M76 227q0 84 47 137.5t110 53.5q47 0 84 -29q47 -37 48 -104q0 -33 -23 -58q-16 -23 -51 -34h-33l-2 6q31 12 44 25.5t15 45.5q-6 31 -30.5 49.5t-55.5 20.5q-43 0 -76.5 -21.5t-33.5 -70.5q0 -53 43 -96q43 -37 112 -37q166 0 244 151q25 -72 72 -112q51 -39 102 -39 l53 2l-151 266v35l246 -266q66 35 65 120q0 63 -22 111q-18 55 -60 84l-16 22l-8 25q0 61 37 61q18 0 36 -30q27 -39 52 -113l14 -70l6 -73l-6 -80q-12 -80 -37 -123l80 -90q-25 -35 -80 -35q-51 0 -70 19l-22 34q-31 -25 -84 -24q-61 0 -127 51q-59 51 -82 147 q-23 -96 -85 -147t-132 -51q-86 0 -152 57q-72 66 -71 180zM311 530l23 2q14 -23 49 -45q18 -6 38.5 -10t45.5 -4q59 0 99 44t40 91q0 57 -10 80q-6 27 -27 47l9 -43q0 -47 -30 -83t-73 -36q-72 0 -118 38t-46 98q0 53 44 93t106 40q68 0 121 -54q61 -61 61 -157l-2 -39 q-10 -76 -58 -130t-118 -54q-49 0 -103 43q-29 27 -51 79zM389 700q0 -31 23 -53q20 -14 55 -20q76 0 76 82q0 27 -19.5 50t-56.5 23q-29 0 -59 -24q-18 -25 -19 -58z" />
<glyph unicode="&#xd0;" horiz-adv-x="294" d="M-449 -393q0 76 38 118t104 42q27 0 53 -27q23 -27 23 -64l-11 -24q-14 31 -67 47q-43 6 -75 -19.5t-32 -68.5q0 -49 35 -78t82 -29q51 0 89 21.5t83 89.5q25 -49 64 -82q29 -27 83 -27q47 0 80 39q31 31 31 88l-6 48q-4 20 -31.5 65t-80 114.5t-52.5 94.5q-6 49 27 63 q14 4 30 -8l19 -14l59 -125l39 -86l103 -176q31 -53 53 -127l8 -66q0 -25 -13.5 -46t-39.5 -21q-18 0 -31 18l-8 39l2 27l2 32v25q0 49 -11.5 90t-41.5 86l2 -61q0 -82 -27 -135q-33 -63 -96 -64q-49 0 -91 42t-73 120q-25 -66 -51 -100q-47 -61 -115 -62q-70 0 -113 56.5 t-43 144.5z" />
<glyph unicode="&#xd1;" horiz-adv-x="835" d="M78 94q0 100 72.5 179t177.5 79q117 0 174 -78l94 -180q68 -6 94 70q8 33 9 72.5t1 64.5v43l-10 70q0 31 -6 53q0 20 -8 47q43 -18 69 -113q19 -67 19 -143q0 -145 -43 -219q-31 -53 -94 -53q-43 0 -91.5 121.5t-207.5 121.5q-94 0 -159 -67.5t-65 -159.5l-14 -2l-10 45z M80 639v98h455v-98h-455zM254 496q0 27 24.5 55.5t59.5 28.5q29 0 54.5 -24.5t29.5 -59.5q0 -33 -27 -60q-23 -18 -57 -22q-35 0 -59.5 22.5t-24.5 59.5z" />
<glyph unicode="&#xd2;" horiz-adv-x="835" d="M78 94q0 102 65.5 175t178.5 73q160 0 209 -123t79 -129q39 0 66 82l16 74l6 76q0 47 -6 97t-20 105q41 -18 78 -112q24 -74 24 -154q0 -98 -31 -176q-37 -92 -116 -92q-47 0 -91 119.5t-198 119.5q-96 0 -164 -65.5t-68 -163.5l-16 -2l-10 45zM180 553l27 2 q16 -25 51 -43l39 -12l55 -4q66 0 109 43t43 98q0 51 -11.5 86t-29.5 57l6 -24l2 -23q0 -61 -31.5 -96t-89.5 -35l-22 -2q-63 0 -107 43q-39 45 -39 105q0 68 49.5 110.5t112.5 42.5q72 0 136.5 -67.5t64.5 -171.5l-2 -44q-12 -80 -60 -139q-55 -68 -133 -67q-68 0 -117 51 q-29 31 -53 90zM266 739q0 -29 25 -57q27 -23 61 -23q84 1 84 89q0 84 -84 83q-37 0 -61.5 -25.5t-24.5 -66.5z" />
<glyph unicode="&#xd3;" horiz-adv-x="36" d="M-487 -391q0 80 57 156.5t139 76.5q98 0 152 -71l78 -162q49 -6 69 84l8 139l-6 64l-26 122q37 -23 67 -75q39 -75 39 -138l-6 -110q-6 -51 -23 -88q-35 -88 -98 -88q-29 0 -74 110.5t-172 110.5q-84 0 -126 -59.5t-42 -143.5h-22z" />
<glyph unicode="&#xd4;" horiz-adv-x="1097" d="M78 240q0 113 71.5 187.5t174.5 74.5q76 0 137 -43q33 -25 78 -99q0 106 -75 191.5t-181 85.5l-203 2v98h694v-98l-373 -2q66 -25 117 -97.5t51 -166.5q61 129 213 129q102 0 168 -74q33 -39 49.5 -83t16.5 -105q0 -111 -64.5 -181.5t-177.5 -70.5q-74 0 -145 49 q-61 49 -80 113q-29 -72 -87.5 -117t-139.5 -45q-109 0 -181 73q-63 76 -63 179zM139 274q0 -68 56 -120q55 -43 133 -43q88 0 134 38.5t58 118.5q0 92 -59 140q-55 49 -139 49q-76 0 -132 -58q-51 -57 -51 -125zM569 272q0 -66 56 -112q61 -39 145 -39q82 0 135 49t53 129 q0 59 -56 108.5t-116 49.5q-104 0 -165 -62q-51 -51 -52 -123z" />
<glyph unicode="&#xd5;" horiz-adv-x="1097" d="M78 240q0 98 57.5 169t157.5 85q63 18 110.5 70t47.5 112q0 61 -10.5 90t-26.5 49l2 -33q0 -57 -35 -94q-31 -37 -86 -37l-23 -2q-72 0 -115.5 40t-43.5 104q0 68 55 110.5t121 42.5q74 0 142.5 -61.5t68.5 -167.5l-6 -68q-6 -37 -41 -80q-27 -41 -82 -77q63 -6 114 -52 q49 -37 64 -108q12 68 80.5 118t152.5 50q104 0 172 -82q61 -74 62 -178q0 -106 -65.5 -180t-176.5 -74q-76 0 -138.5 48t-86.5 116q-25 -68 -88 -119q-27 -18 -64 -31.5t-75 -13.5q-109 0 -181 73q-63 76 -63 181zM135 276q0 -72 55 -124q57 -45 134 -46q78 0 139 44 q51 42 63 116q0 82 -62.5 135.5t-141.5 53.5q-70 0 -128.5 -56.5t-58.5 -122.5zM209 788q0 -31 27 -59q27 -20 61 -20q84 0 84 88q0 37 -23 59q-18 25 -65 25q-37 0 -64 -27q-20 -27 -20 -66zM569 274q0 -68 60 -114q63 -45 145 -45q80 0 134.5 49t54.5 131 q0 55 -58.5 107.5t-120.5 52.5q-100 0 -161 -60q-53 -53 -54 -121z" />
<glyph unicode="&#xd6;" horiz-adv-x="32" d="M-711 -317q0 76 54.5 141t144.5 65q68 0 121 -45q37 -31 59 -86q12 51 64.5 91t111.5 40q92 0 146.5 -57t54.5 -139q0 -92 -39 -158q-49 -80 -145 -80q-68 0 -116 35t-79 113q-41 -147 -182 -148q-92 0 -143.5 69.5t-51.5 158.5zM-662 -311q0 -53 38 -90t98 -37 q72 0 122 31.5t50 99.5t-43 117q-45 45 -111 45q-74 0 -114 -51.5t-40 -114.5zM-315 -307q0 -66 53 -98.5t119 -32.5q116 0 139 123q0 68 -40 119t-112 51q-63 0 -111 -46.5t-48 -115.5z" />
<glyph unicode="&#xd7;" horiz-adv-x="868" d="M70 528q0 94 45 166q53 88 145 88q55 0 90 -53q25 -43 25 -104q0 -66 -25.5 -104t-85.5 -38q-43 0 -76 39q-29 41 -28 96l2 39l14 35q-72 -53 -72 -164q0 -74 95 -125q27 -14 61.5 -25t85.5 -22q113 -12 156 -41l90 33q51 18 90 47q68 41 68 109q0 106 -127 133l34 4 q49 0 92.5 -36t49.5 -91q0 -90 -86 -152l-80 -47l-88 -39q29 -18 49 -55t20 -78q0 -55 -32 -96q-43 -55 -121 -55h-23q-61 0 -100 41q-35 41 -35 114q0 35 20.5 63t57.5 48l-66 10q-106 18 -175.5 83t-69.5 177zM180 627q0 -23 25 -52q27 -23 59 -22q33 0 56.5 17.5 t33.5 54.5q0 82 -96 82q-35 0 -54.5 -22.5t-23.5 -57.5zM350 137q0 -25 12.5 -42t36.5 -27l37 -9q74 0 82 76q0 43 -31 78q-25 23 -51 29q-31 0 -52.5 -21.5t-31.5 -48.5zM483 639v98h84v-98h-84z" />
<glyph unicode="&#xd8;" horiz-adv-x="868" d="M68 528q0 94 45 166q57 88 147 88q47 0 81 -51t34 -106q0 -66 -26.5 -106t-84.5 -40q-43 0 -76 41q-29 45 -28 98l2 39l14 35q-72 -53 -72 -164q0 -70 97 -120l82 -29l63 -19l94 -20q29 -6 58 -25q92 25 166.5 87.5t93.5 146.5l6 74q0 100 -48 186t-114 104 q18 -18 25 -43l12 -57l2 -25q0 -37 -17.5 -60t-58.5 -23q-53 0 -102 57q-41 57 -41 123q0 121 94 121q104 0 199.5 -113t95.5 -268l-6 -74q-18 -100 -98 -180q-61 -59 -156 -90q27 -20 44 -52t23 -82q0 -49 -36 -98q-47 -57 -123 -57h-21q-55 0 -94 45q-35 47 -35 110 q10 82 72 111l-66 10q-109 18 -178 83t-69 177zM180 627q0 -25 25 -54q27 -23 59 -22q33 0 61.5 18.5t28.5 55.5q0 82 -96 82q-35 0 -54.5 -22.5t-23.5 -57.5zM354 135q0 -20 13 -45q12 -16 32 -24l37 -7q74 0 82 76q0 43 -31 78q-25 23 -51 29q-25 0 -53 -25 q-18 -23 -25 -45zM461 840q6 -29 27.5 -48.5t48.5 -19.5l14 2q47 16 47 90q0 27 -19.5 45.5t-52.5 24.5l-18 -4q-47 -12 -47 -90z" />
<glyph unicode="&#xd9;" horiz-adv-x="81" d="M-412 -266q0 59 36 116.5t97 57.5q37 0 60 -41q20 -47 20 -80q0 -43 -18.5 -72.5t-56.5 -29.5q-25 0 -52 32l-16 31l-6 35q0 25 10 43q-10 -8 -35 -43q-6 -12 -8 -22.5t-2 -34.5q0 -43 64 -82q39 -18 104 -29.5t92 -30.5l55 27l58 39q72 53 71 135l2 33q0 29 -4 39 q0 12 -10 34.5t-57 69.5q-23 23 -23 53q0 16 6 29l23 12q12 0 22 -8q33 -29 64 -109.5t31 -146.5q0 -57 -23.5 -96t-77.5 -80l-53 -33l-41 -22l29 -33q10 -16 12 -47q0 -35 -33.5 -71t-91.5 -36q-90 10 -90 101q0 43 35 65l-37 10q-74 18 -115 64.5t-41 120.5zM-332 -211 q0 -47 56 -47q49 0 57 45q0 51 -62 51q-51 0 -51 -49zM-219 -516q-4 -23 4 -35t27 -22l22 -7q41 1 53 48q0 25 -14 44t-39 25q-18 0 -32.5 -13t-20.5 -40z" />
<glyph unicode="&#xda;" horiz-adv-x="6" d="M-373 637v102h86q80 0 121 41q31 31 31 84q0 68 -82 119h43q35 -20 72 -63q28 -39 28 -86q0 -86 -59 -144q-63 -53 -170 -53h-70z" />
<glyph unicode="&#xdb;" horiz-adv-x="606" d="M-356 637v102h526q158 0 248 -82q110 -98 110 -321q0 -154 -75.5 -248t-196.5 -94q-84 0 -145 55q-55 55 -56 144q0 61 37 112t109 51q37 0 63.5 -27.5t26.5 -70.5q-4 -27 -28.5 -48.5t-59.5 -21.5q-25 0 -45.5 19.5t-22.5 48.5q0 37 8 59q-25 -12 -39 -45l-10 -61 q0 -55 56 -96q47 -29 102 -29q113 0 180 80q55 68 55 176q0 135 -88 216t-219 81h-536z" />
<glyph unicode="&#xdc;" horiz-adv-x="540" d="M33 463l2 35q37 -33 92 -62q59 -27 123 -26l35 -2q45 0 82 12q43 18 51 59q6 61 -68 98t-219 62v98h150v-110q70 0 137 -37q78 -47 78 -125q0 -72 -62 -119q-59 -41 -141 -41l-33 2q-82 10 -147 66l-37 35z" />
<glyph unicode="&#xdd;" horiz-adv-x="442" d="M-72 692l2 25q55 -41 136 -64l65 -10h53q59 6 102.5 48t53.5 81l4 55q0 55 -27 103q-18 29 -86 74l11 -27l6 -23q0 -51 -23.5 -92t-64.5 -41q-70 0 -125 43q-47 43 -47 107q0 63 42 94t105 31q90 0 166 -84q45 -51 66.5 -108.5t21.5 -129.5q0 -88 -41 -141 q-49 -74 -158 -74q-78 0 -162.5 47t-99.5 86zM20 956q0 -25 35 -45l39 -14l33 -2q39 0 60.5 19.5t27.5 56.5q0 25 -28.5 39t-69.5 14t-69 -16.5t-28 -51.5z" />
<glyph unicode="&#xde;" horiz-adv-x="550" d="M45 430q0 115 61 225q74 127 193 127q63 0 113 -61q43 -61 43 -143q-6 -63 -41 -107q-45 -57 -115 -57q-43 0 -84 43q-33 45 -33 104q0 63 35 113q-68 -43 -99.5 -106.5t-31.5 -147.5q0 -115 92 -225q66 -76 236 -197h-164q-104 92 -158 197q-47 104 -47 235zM211 588 q0 -41 29.5 -66.5t70.5 -25.5q39 0 76 24.5t37 71.5q0 43 -33 68.5t-76 25.5t-77 -31q-27 -33 -27 -67z" />
<glyph unicode="&#xdf;" horiz-adv-x="466" d="M-104 274h18q12 -45 76 -102q63 -51 131 -51q111 0 169 64.5t58 170.5q0 100 -67.5 174t-174.5 74q-111 12 -110 64q0 43 61 43l33 -2q131 -18 215 -126t84 -245q0 -143 -74.5 -245.5t-193.5 -102.5q-82 0 -144.5 81t-80.5 203z" />
<glyph unicode="&#xe0;" horiz-adv-x="1007" d="M-113 313l19 2q43 -94 92 -140t131 -58q72 0 113 34.5t41 106.5l-2 23l-9 100q0 158 85 249t204 91q166 0 268 -127q91 -115 91 -275q0 -131 -54 -219q-70 -113 -190 -112q-86 0 -152 51q-59 53 -59 137q0 78 39 129t108 51q45 0 76 -30q23 -27 23 -68q0 -31 -19.5 -55.5 t-62.5 -24.5q-33 0 -57.5 23.5t-24.5 62.5l4 27l6 22q-31 -12 -42 -38.5t-11 -71.5q0 -55 53 -84q53 -25 117 -25q98 0 151 66q51 70 52 164q0 125 -86 195.5t-222 70.5q-106 0 -178 -68.5t-72 -181.5l7 -74l8 -57q0 -94 -43 -156q-51 -63 -144 -63q-92 0 -161 100 q-55 78 -99 223z" />
<glyph unicode="&#xe1;" horiz-adv-x="454" d="M-109 252q0 16 15 22l14 -2q47 -172 211 -172q84 0 138.5 60.5t54.5 156.5q0 113 -99.5 216.5t-195.5 103.5l-45 2v98h194v-98l-39 -2q88 -35 164 -117q88 -107 88 -248q0 -111 -49 -194q-59 -90 -174 -90q-106 0 -186 86q-45 51 -91 178z" />
<glyph unicode="&#xe2;" horiz-adv-x="6" d="M-532 66l18 2q43 -127 123 -181.5t176 -54.5l27 -2q111 0 192 70q100 88 100 241q0 80 -36 166q-6 14 -12.5 27.5t-16.5 30.5l-37 57l-35 65l-18 45q0 37 16 62q12 33 35 33q12 0 33 -21q10 -10 47 -100q25 -66 51 -162l14 -90l7 -111q0 -190 -105.5 -308t-271.5 -118 q-135 0 -221 119q-72 98 -86 230z" />
<glyph unicode="&#xe3;" horiz-adv-x="770" d="M-489 66h18q23 -100 96.5 -167t173.5 -67q137 0 223.5 69.5t86.5 184.5q0 70 -15 119l-28 108l-11 56l-4 57q0 133 74 223t207 90q170 0 270 -137q90 -125 90 -283q0 -164 -51 -258q-57 -106 -170 -106q-68 0 -120 51t-52 137q0 70 35 117t96 47q41 0 69.5 -23.5 t28.5 -76.5q0 -25 -26 -49q-14 -10 -56 -17q-25 0 -45 19.5t-22 48.5q0 39 10 57q-61 -29 -61 -106q0 -35 34 -70q39 -33 115 -33q80 0 127 72t47 178q0 123 -71 213q-80 102 -215 103l-33 -2q-117 -12 -172 -89q-45 -63 -45 -170q0 -16 2 -38.5t8 -47.5l14 -67l17 -49 l10 -64l6 -67q0 -117 -76 -207q-92 -111 -264 -111q-133 0 -227 121q-76 96 -94 234z" />
<glyph unicode="&#xe4;" horiz-adv-x="163" d="M-381 -291q0 74 29.5 142.5t77.5 76.5q51 6 92 -29.5t55 -119.5l4 -49q0 -41 -12 -66.5t-58 -42.5l-20 -2q-45 0 -80 41t-43 78l-4 -49q0 -80 75 -136.5t163 -56.5q102 0 180 68.5t78 173.5q0 143 -47 237l-95 148q-12 18 -12 55q0 25 18 41q18 12 29 12q16 0 41 -43 l51 -120l39 -119q29 -109 29 -182l-4 -48q0 -31 -4 -41q-18 -111 -97 -188q-84 -86 -192 -86q-127 0 -210 94t-83 211zM-315 -231q0 -33 22.5 -57.5t67.5 -24.5q27 0 51 24q10 14 16 53q0 45 -15 67t-34 26q-35 0 -51 -7q-18 -12 -35 -34l-18 -35z" />
<glyph unicode="&#xe5;" horiz-adv-x="688" d="M-352 -311q0 86 51 145q43 49 92 49q121 0 121 -149q0 -41 -28.5 -76t-73.5 -35q-43 0 -72 41t-29 80q-23 -18 -22 -76q0 -86 69.5 -143t157.5 -57q94 0 162 59q76 70 76 176l-2 35q-6 68 -43 135.5t-97 128.5h461q111 0 158 -65q37 -50 37 -142q0 -78 -35 -136t-94 -58 q-57 0 -97 57q-33 61 -32 125q0 39 12 73.5t41 57.5h-342q90 -90 90 -248q0 -113 -59 -198q-74 -109 -205 -109q-133 0 -215 94t-82 236zM-264 -270q6 -25 30.5 -37t57.5 -8q27 6 42 26t11 53q-6 14 -24 33q-18 12 -43 13l-29 -5q-12 0 -31.5 -25.5t-13.5 -49.5zM442 -195 q0 -45 28 -80.5t62 -35.5q39 0 67 30.5t28 69.5l2 25q0 33 -20.5 66.5t-73.5 33.5q-92 0 -93 -109z" />
<glyph unicode="&#xe6;" horiz-adv-x="6" d="M-399 938q0 63 41 104q37 43 98 43q90 0 143.5 -59.5t53.5 -155.5q0 -88 -52 -153q-59 -80 -161 -80h-99v102h99q76 0 120 45q41 47 41 111q0 66 -41 106.5t-106 40.5q-39 0 -71 -27.5t-32 -68.5q0 -23 13 -53q12 -18 33 -33l-5 25l2 22q6 18 21.5 36t44.5 18 q20 0 43 -17.5t23 -54.5q0 -33 -27 -53q-29 -16 -66 -17q-47 0 -84 37q-33 39 -32 82z" />
<glyph unicode="&#xe7;" horiz-adv-x="196" d="M-393 -311q0 86 32.5 143t81.5 57t86 -45q33 -55 33 -120q0 -41 -12 -78q-18 -51 -68 -52q-39 0 -66.5 41t-39.5 91l-8 -64q0 -70 75 -139q76 -63 170 -64q98 0 166 60.5t68 150.5l-2 27q-4 33 -14 63q-6 33 -27 68q-25 57 -59 94q25 8 51 45t26 82l-2 21q-4 29 -20 55 l-29 53l12 10q43 -33 75 -77.5t32 -104.5q0 -53 -23 -88q-6 -14 -45 -49q27 -35 51.5 -100.5t24.5 -133.5q0 -113 -78 -192.5t-190 -79.5q-152 0 -234 109q-68 90 -67 217zM-324 -258q0 -25 19.5 -43t48.5 -18q25 0 44 19t19 50q0 25 -20 45q-14 10 -51 17q-23 0 -38 -17.5 t-22 -52.5z" />
<glyph unicode="&#xe8;" horiz-adv-x="704" d="M-356 639v100h286q100 0 101 76q0 37 -33 66.5t-98 46.5h-183v102h455q199 0 315 -86q140 -108 140 -350q0 -147 -62 -252q-70 -113 -184 -113q-98 0 -164 66q-61 66 -61 170q0 68 49 123t112 55q27 0 58 -24.5t31 -59.5q0 -27 -19.5 -54.5t-52.5 -27.5q-27 0 -49 17 q-14 14 -21 49l2 24q0 12 20.5 24.5t41.5 18.5l-15 4l-12 2q-25 0 -53 -22q-43 -35 -43 -100q0 -61 45 -109q47 -41 115 -41q104 0 167 88q49 74 50 184q0 154 -117 240q-100 72 -258 72h-223q51 -41 82 -74q35 -45 34 -100q0 -47 -43 -84q-43 -33 -110 -33z" />
<glyph unicode="&#xe9;" horiz-adv-x="598" d="M-354 639v100h463q12 84 70.5 170t139.5 86q98 0 164 -84q29 -37 43.5 -83t14.5 -93l-35 4q-25 137 -182 138q-61 0 -111 -37q-43 -37 -70 -101h60q86 0 130 -56t44 -138q0 -88 -41 -146.5t-107 -58.5q-61 0 -108 80q-31 61 -31 151l2 66zM127 584q0 -70 20.5 -97.5 t81.5 -40.5q43 0 78 28t35 71q0 92 -113 92h-98z" />
<glyph unicode="&#xea;" horiz-adv-x="278" d="M-649 -387l456 2q-29 23 -40 43t-17 40.5t-6 41.5q0 59 38 118.5t99 59.5q57 0 101 -55q35 -57 34 -131q0 -76 -34 -125q-43 -61 -134 -76q51 -88 164 -88q78 0 127 74q45 74 45 166q0 96 -32 180q-20 55 -80 143l47 29q51 -76 86 -170.5t35 -192.5q0 -160 -61.5 -245.5 t-155.5 -85.5q-59 0 -117 55t-76 133h-14h-465v84zM-213 -274q0 -111 94 -111q43 0 70 33q22 33 22 80q0 45 -28.5 74.5t-63.5 29.5t-64.5 -31.5t-29.5 -74.5z" />
<glyph unicode="&#xeb;" horiz-adv-x="303" d="M-651 -387l454 2q-25 18 -40 52t-15 73q0 57 36 117.5t93 60.5q63 0 98 -53q33 -59 33 -129q0 -80 -26 -127q-35 -61 -125 -74q25 -45 59 -61q31 -18 88 -19q96 0 147.5 64.5t51.5 165.5q0 43 -26.5 93t-59.5 89l33 41l16 35q6 18 6 47q0 25 -16 47l-37 57q61 -12 91 -53 t30 -94q0 -25 -4 -35q0 -12 -29 -41l-33 -35q45 -39 75 -91t30 -118q0 -113 -80 -183.5t-174 -70.5q-63 0 -123 47q-61 43 -76 109h-12h-465v84zM-215 -274q0 -49 25.5 -81t70.5 -32t70 37q18 37 18 90q0 41 -24.5 67.5t-71.5 26.5q-29 0 -58.5 -31.5t-29.5 -76.5z" />
<glyph unicode="&#xec;" horiz-adv-x="442" d="M-623 -387h480q-25 25 -37.5 52.5t-12.5 74.5q0 55 37 115q39 51 95 51q55 0 88.5 -48t33.5 -118v-12h201q47 0 76 26q27 20 35 66q0 47 -17 65l9 4q49 -31 49 -86q6 -68 -36 -106.5t-138 -38.5q74 -37 111.5 -96.5t37.5 -157.5q-6 -57 -41 -100q-43 -53 -104 -54 q-55 0 -99.5 44t-68.5 112q-25 -66 -49 -102q-43 -59 -117 -60q-66 0 -104.5 52.5t-38.5 109.5t4 70q0 18 20 53h-414v84zM-190 -543l6 -43q16 -76 100 -76q49 0 80 23t82 98q18 -47 61 -80l37 -20q23 -12 51 -12q47 0 75 32.5t28 83.5q0 63 -67.5 128t-151.5 65h-56 q-16 -55 -53 -88q-51 -39 -127 -39h-45q-8 -16 -14 -33.5t-6 -38.5zM-154 -274q0 -111 93 -111q45 0 69.5 38t24.5 87q0 43 -25.5 67.5t-68.5 24.5q-35 0 -64 -31.5t-29 -74.5z" />
<glyph unicode="&#xed;" horiz-adv-x="557" d="M-242 -94h219q29 33 50.5 77t21.5 95v33q0 23 -4 34q0 12 -12 48l20 16q25 -12 45.5 -44t20.5 -73q0 -57 -35 -106q-18 -31 -74 -80h203v-72h-158q53 -29 82 -61q33 -45 33 -111q0 -29 -12.5 -58.5t-36.5 -58.5q25 0 59 -18q29 -25 29 -68q0 -39 -47 -64.5t-111 -25.5 q6 -14 44 -32.5t81 -18.5q92 0 172 98q88 113 88 277q0 137 -45 246q-59 147 -186 208l4 46q129 -61 209 -181q92 -141 92 -336q0 -180 -96.5 -294.5t-233.5 -114.5q-88 0 -143 53t-55 119l4 49q-70 0 -120 50t-50 128q0 49 30 103q18 29 72 65h-160v72zM-125 -307 q0 -41 32 -75t81 -34q55 0 90 35t35 74q0 61 -39 97t-86 36q-49 0 -81 -38t-32 -95zM23 -532q0 -33 9 -45.5t38 -28.5q73 0 73 74q0 72 -73 61q-47 -6 -47 -61z" />
<glyph unicode="&#xee;" horiz-adv-x="327" d="M-758 -92l33 20q25 -96 164 -170q63 -29 119 -43q31 -6 57.5 -10t58.5 -4q203 0 326 78q143 86 180 264l2 23q0 35 -4 45q0 16 -18 51l18 6l12 10q14 -10 26.5 -53t12.5 -76l-2 -35q0 -27 -14 -67q-12 -45 -27 -62q37 -31 63 -74.5t38 -119.5l4 -47q0 -117 -90 -195 q-82 -70 -195 -70q-104 0 -192 55.5t-88 143.5l4 33q-178 0 -320.5 81t-167.5 216zM-242 -414l2 -20q0 -10 20.5 -22.5t41.5 -6.5q10 0 23.5 10t19.5 33q0 49 -49 49q-57 0 -58 -43zM-233 -475q25 -78 161 -78l64 6q94 12 166.5 84t72.5 158l-2 26q-10 68 -22 86 q-6 16 -39 48q-29 -51 -111 -121q-86 -63 -196 -94l41 -19q10 -8 16 -39q0 -33 -18.5 -56.5t-59.5 -23.5q-29 0 -39 4z" />
<glyph unicode="&#xef;" horiz-adv-x="307" d="M-963 -455l2 25q61 -80 95 -113q70 -70 172 -121l67 -24l82 -21l88 -12l88 -4q172 0 295 47q119 37 203 94q94 68 113 142q0 31 -9.5 65.5t-37.5 91.5l69 58l33 32q23 -57 22 -120q0 -78 -30.5 -161t-87.5 -142q-98 -102 -250 -154q-66 -20 -141.5 -32.5t-147.5 -12.5 q-127 0 -211 22q-96 18 -166 62q-117 66 -162 106.5t-84 106.5l-2 35v30z" />
<glyph unicode="&#xf0;" horiz-adv-x="180" d="M-936 -510l33 25q6 -18 22 -35q55 -74 152 -119q119 -53 276 -53h82l52 8q231 25 344 143q84 88 84 189l-3 20q-6 31 -26 60l-49 45l78 77l30 -92l11 -53l4 -57q0 -160 -103 -275q-113 -123 -340 -157l-117 -9q-182 0 -323 78q-104 55 -178 154l-6 10l-15 27z" />
<glyph unicode="&#xf1;" horiz-adv-x="307" d="M-727 -510l33 25q4 -14 10 -21l16 -14q51 -72 160 -123t260 -51h39l51 4l47 6q215 29 324 127q92 80 92 186q0 29 -4 37q0 16 -10 35q-16 37 -51 61q-10 6 -17 17l82 80l35 -92l10 -115q0 -166 -102.5 -283t-327.5 -153l-61 -7l-66 -2q-172 0 -311 76q-104 55 -174 156z " />
<glyph unicode="&#x2000;" horiz-adv-x="682" />
<glyph unicode="&#x2001;" horiz-adv-x="1365" />
<glyph unicode="&#x2002;" horiz-adv-x="682" />
<glyph unicode="&#x2003;" horiz-adv-x="1365" />
<glyph unicode="&#x2004;" horiz-adv-x="455" />
<glyph unicode="&#x2005;" horiz-adv-x="341" />
<glyph unicode="&#x2006;" horiz-adv-x="227" />
<glyph unicode="&#x2007;" horiz-adv-x="227" />
<glyph unicode="&#x2008;" horiz-adv-x="170" />
<glyph unicode="&#x2009;" horiz-adv-x="273" />
<glyph unicode="&#x200a;" horiz-adv-x="75" />
<glyph unicode="&#x2010;" horiz-adv-x="815" d="M334 442v72h452v-72h-452z" />
<glyph unicode="&#x2011;" horiz-adv-x="815" d="M334 442v72h452v-72h-452z" />
<glyph unicode="&#x2012;" horiz-adv-x="815" d="M334 442v72h452v-72h-452z" />
<glyph unicode="&#x2013;" horiz-adv-x="1387" d="M334 442v72h1024v-72h-1024z" />
<glyph unicode="&#x2014;" horiz-adv-x="2411" d="M334 442v72h2048v-72h-2048z" />
<glyph unicode="&#x202f;" horiz-adv-x="273" />
<glyph unicode="&#x205f;" horiz-adv-x="341" />
<glyph unicode="&#xe000;" horiz-adv-x="1024" d="M-113 0h113v-113h-113v113z" />
</font>
</defs>
</svg>
