<?xml version="1.0" standalone="no"?>
<!DOCTYPE svg PUBLIC "-//W3C//DTD SVG 1.1//EN" "http://www.w3.org/Graphics/SVG/1.1/DTD/svg11.dtd" >
<svg xmlns="http://www.w3.org/2000/svg">
<metadata></metadata>
<defs>
<font id="av-web-hin1normal" horiz-adv-x="4" >
<font-face units-per-em="2048" ascent="1638" descent="-410" />
<missing-glyph horiz-adv-x="591" />
<glyph horiz-adv-x="2048" />
<glyph horiz-adv-x="2048" />
<glyph unicode="&#xd;" horiz-adv-x="591" />
<glyph unicode=" "  horiz-adv-x="591" />
<glyph unicode="&#x09;" horiz-adv-x="591" />
<glyph unicode="&#xa0;" horiz-adv-x="591" />
<glyph unicode="!" horiz-adv-x="749" d="M442 -8l111 110l111 -108l-111 -111zM492 1100l139 -86l-33 -803l-78 45z" />
<glyph unicode="&#x22;" horiz-adv-x="387" d="M2 1038q0 33 21 80l24 60l43 90l29 55l45 -35l-10 -20l-33 -74l-12 -47l-7 -39q0 -31 16.5 -53.5t53.5 -50.5l18 -13l-71 -112l-37 30l-62 68q-18 31 -18 61z" />
<glyph unicode="#" horiz-adv-x="964" d="M53 430q10 -82 52 -153.5t108 -124.5l41 51q-47 33 -88 98q-31 61 -49 137zM53 551q12 84 48 151.5t114 128.5l41 -51q-43 -33 -90 -100q-37 -61 -49 -137zM317 90l82 -24l88 -9q72 0 158 31l-27 62q-80 -27 -137 -27l-67 6l-70 21zM317 893q80 31 162 31q86 0 166 -31 l-27 -62q-63 29 -137 29q-66 0 -139 -31zM709 199q113 96 137 239l63 -8q-23 -166 -161 -283zM709 780l39 51l53 -51q2 -2 23.5 -29.5t31.5 -41.5q43 -74 55 -158l-65 -8q-18 137 -137 237z" />
<glyph unicode="$" horiz-adv-x="1724" d="M76 442l49 25l45 -94q55 -104 118.5 -161.5t157.5 -57.5q66 0 112 29.5t63 82.5l6 60q0 90 -58 129l-26 14l-39 -18q-47 -18 -88 -19l-27 2q-29 6 -65 39q-16 23 -27 57q0 18 22 27l58 -2q61 0 104 12q55 18 88 59.5t33 84.5q0 51 -35 85.5t-104 34.5q-53 0 -137 -36 l-64 -37l-55 110l61 23q33 8 67 15t58 7q92 0 160 -36q55 -31 106 -103l29 -55l10 -53q0 -59 -45 -119q-4 -10 -45 -47l60 -80q55 -74 96 -115q35 -47 79 -73.5t77 -26.5q29 0 77 31l60 59q39 37 108 137l25 39l39 53q25 35 71 64q43 31 99 30l35 -2q12 0 34 -14 q25 -10 66 -49q35 -33 59 -90q20 -61 21 -111q-1 -49 -19 -96q-61 -131 -176 -131q-23 0 -65 12q-57 18 -111 90l-45 68l-39 -53l-39 -45q-94 -100 -168 -101q-76 0 -155 78l-66 78l-24 -72q-41 -80 -113 -110q-59 -25 -113 -25q-74 0 -143.5 42t-136.5 126l-41 61l-49 88z M768 1030l43 17l20 -41l52 -78l30 -33l56 -45l39 -16q16 -6 55 -11q39 0 65.5 9.5t61.5 33.5q57 37 92 88l29 50l92 -58l-25 -39q-61 -86 -131 -125q-92 -49 -162 -49q-104 0 -204 113q-41 47 -95 143zM999 1065l86 86l84 -84l-86 -86zM1221 334l24 -35l23 -27 q59 -61 114 -61q49 0 86.5 37.5t55.5 107.5l6 60q0 63 -29 92q-25 31 -67 31q-55 0 -95 -45l-98 -129z" />
<glyph unicode="%" horiz-adv-x="1212" d="M150 760q0 90 64.5 165.5t174.5 75.5q104 0 174 -77q29 -31 46.5 -75t17.5 -89q0 -109 -69 -177.5t-169 -68.5q-92 0 -170 68q-70 70 -69 178zM270 758q0 -199 119 -199q117 0 117 199q0 201 -117 200q-119 0 -119 -200zM315 -68l633 1069h94l-632 -1069h-95zM743 176 q0 90 64.5 166t173.5 76q104 0 176 -78q62 -68 62 -164q0 -104 -70 -174t-168 -70q-94 0 -166 67t-72 177zM864 174q0 -199 117 -199q57 0 88 49.5t31 149.5q0 201 -119 201q-117 0 -117 -201z" />
<glyph unicode="&#x26;" horiz-adv-x="428" d="M-72 977h498l70 -107h-494zM117 172l106 104l107 -106l-105 -107zM117 664l106 106l107 -108l-105 -105z" />
<glyph unicode="'" horiz-adv-x="448" d="M223 1192l80 125q31 -16 59 -45q60 -56 60 -109q0 -29 -55 -170l-58 -125l-53 43l29 60q29 70 28 119q0 25 -45 71q-14 14 -45 31z" />
<glyph unicode="(" horiz-adv-x="651" d="M90 557q0 123 24.5 225.5t73.5 178.5q92 145 228 251l112 78l29 -51l-49 -33q-115 -88 -213 -278q-78 -156 -78 -387q0 -123 21 -217q37 -199 163 -344l50 -54l69 -63l-31 -47q-74 49 -118 94q-129 129 -215 313q-31 74 -50 160l-12 84z" />
<glyph unicode=")" horiz-adv-x="610" d="M90 1167l27 47q74 -55 116 -98q137 -131 216 -268q41 -74 61 -172q10 -43 16 -91t6 -102q1 -192 -73 -327q-66 -121 -197 -242q-37 -37 -110 -86l-29 47l78 70q90 96 153.5 242.5t63.5 322.5v61l-8 64q0 23 -9 53q-2 31 -18 74q-43 137 -172 293l-51 51z" />
<glyph unicode="*" horiz-adv-x="657" d="M453 76v917l106 -71v-924z" />
<glyph unicode="+" horiz-adv-x="1179" d="M72 504l45 24l35 -61l41 -66l30 -39q41 -47 91.5 -79.5t107.5 -32.5q39 0 67 14q59 25 93 82q18 33 24 53l8 47q0 68 -47 107q-12 12 -49 25l-182 -84l-60 96l183 82q37 16 53 28q53 37 53 84l2 29q0 43 -25.5 68.5t-74.5 25.5q-27 0 -59 -8l-70 -20l-90 -48l-64 97 l47 22l88 35l74 8q113 0 192 -65.5t79 -159.5l-2 -31q-6 -43 -44 -92l-34 -35q37 -35 65 -51q88 -53 180 -53q43 0 86 37l35 39v288h-194l-70 107h496l69 -107h-194v-870l-107 78v362l-26 -8l-70 -10l-31 2q-47 6 -106 37q-16 6 -41 28l10 -32l10 -80q0 -43 -8 -66l-31 -61 q-74 -104 -188 -105q-51 0 -113 25q-47 25 -102 76q-41 39 -94 108l-21 29l-39 66z" />
<glyph unicode="," horiz-adv-x="405" d="M164 115l72 112l36 -28l33 -31l27 -31q20 -35 20 -65q0 -23 -18 -82l-23 -62q-10 -37 -16 -43l-25 -51l-30 -55l-52 33l37 79l19 58l8 51q0 29 -19.5 54.5t-52.5 51.5z" />
<glyph unicode="-" horiz-adv-x="567" d="M70 541h362l64 -92h-363z" />
<glyph unicode="." horiz-adv-x="452" d="M164 125l108 108l109 -106l-111 -109z" />
<glyph unicode="/" horiz-adv-x="768" d="M150 -63l417 1142l70 -24l-418 -1143z" />
<glyph unicode="0" horiz-adv-x="806" d="M147 469q0 184 86 326q96 156 246 155q147 0 246 -155q86 -140 86 -326q0 -217 -93 -353t-239 -136q-133 0 -232.5 136t-99.5 353zM317 465q0 -397 162 -397t162 397q0 399 -162 399t-162 -399z" />
<glyph unicode="1" horiz-adv-x="610" d="M233 651v117q37 16 67 29.5t62 33.5q78 43 123 87h117v-918h-170v770l-63 -41l-58 -33z" />
<glyph unicode="2" horiz-adv-x="806" d="M164 0v80q219 203 319 332q119 156 119 260q0 80 -43 129t-115 49q-68 0 -109.5 -57.5t-41.5 -124.5h-105q0 125 77 203.5t204 78.5q143 0 223 -75.5t80 -198.5q0 -76 -67 -174q-100 -141 -394 -402h471v-100h-618z" />
<glyph unicode="3" horiz-adv-x="806" d="M156 246h118q0 -70 48.5 -124t121.5 -54q63 0 112.5 52t49.5 126q0 94 -47 143q-43 53 -129 53h-70v88h76q63 0 112.5 43t49.5 113q0 80 -42 129t-116 49q-59 0 -106 -47t-55 -121h-105q0 125 96 197q82 57 181 57q119 0 211 -72.5t92 -181.5q0 -74 -46 -131t-137 -76 l4 -10q201 -34 201 -243q0 -111 -82 -183.5t-225 -72.5q-133 0 -223 77.5t-90 188.5z" />
<glyph unicode="4" horiz-adv-x="806" d="M127 199v94l424 625h125v-619h141v-100h-141v-199h-170v199h-379zM223 299h283v418l-2 6z" />
<glyph unicode="5" horiz-adv-x="806" d="M174 217h121q0 -68 47 -108.5t117 -40.5q66 0 110.5 60t44.5 165q0 113 -47 174t-125 61q-63 0 -110 -34q-43 -27 -60 -80h-79l38 504h506v-101h-375l-30 -242q88 39 162 39q143 0 216.5 -71.5t73.5 -225.5t-80.5 -245.5t-244.5 -91.5q-135 0 -215 73q-70 66 -70 164z " />
<glyph unicode="6" horiz-adv-x="806" d="M154 446q0 264 110 404q84 100 207 100q104 0 180 -55t101 -164l-119 -12q-31 131 -135 131q-92 0 -140.5 -94t-48.5 -242q31 39 85.5 62.5t111.5 23.5q133 0 215 -79.5t82 -229.5q0 -143 -88 -227t-232 -84q-150 0 -239.5 123.5t-89.5 342.5zM324 291q0 -119 47 -174 q41 -49 112 -49q66 0 114 52t48 171q0 113 -44 167t-118 54q-68 0 -110 -51q-49 -59 -49 -170z" />
<glyph unicode="7" horiz-adv-x="806" d="M182 817v101h596v-101l-356 -817h-189l392 817h-443z" />
<glyph unicode="8" horiz-adv-x="806" d="M174 258q0 100 59 162q49 49 127 74l9 4q-70 12 -123 65t-53 129q0 109 69 178q78 80 217 80t217 -78q72 -72 72 -180q0 -74 -49 -123t-127 -71l4 -4q80 -18 127 -72q61 -62 61 -164q0 -117 -80.5 -197.5t-224.5 -80.5q-135 0 -220 79.5t-85 198.5zM344 262 q0 -88 37 -143q39 -51 98 -51q61 0 98 49t37 145q0 78 -37.5 130t-97.5 52q-61 0 -98 -50t-37 -132zM348 692q0 -72 37 -119q37 -41 94 -41q47 0 89 44t42 116q0 76 -37.5 124t-93.5 48q-55 0 -93 -47t-38 -125z" />
<glyph unicode="9" horiz-adv-x="806" d="M154 641q0 137 84 223t233 86q152 0 242 -117t90 -350q0 -264 -111 -403q-84 -100 -209 -100q-106 0 -180 55t-100 166l121 10q25 -131 135 -131q90 0 138 93t48 243q-29 -39 -86 -64q-61 -20 -110 -20q-129 0 -212 82t-83 227zM309 641q0 -109 43 -166t119 -57 q63 0 112.5 55t49.5 168q0 117 -44 170t-118 53q-70 0 -116 -52t-46 -171z" />
<glyph unicode=":" horiz-adv-x="442" d="M129 217l111 109l106 -107l-108 -110zM129 731l111 111l106 -107l-108 -110z" />
<glyph unicode=";" horiz-adv-x="448" d="M133 678l105 106l106 -106l-106 -105zM152 238l71 108l33 -29l57 -59q23 -27 23 -61q0 -25 -4 -33l-13 -39l-24 -66l-45 -102l-31 -55l-49 39l14 26l21 47l20 54l11 55q0 31 -21 57l-39 37z" />
<glyph unicode="&#x3c;" horiz-adv-x="655" d="M-68 977h725l70 -107h-192v-192q-4 -20 -11 -27l-16 -8l-16 -4h-250l-27 -12q-29 -18 -29 -56l7 -39q6 -23 36 -59l27 -16l45 20q63 23 107 23q45 0 78.5 -18.5t72.5 -69.5l21 -41l12 -37l4 -39q0 -39 -20.5 -75t-65.5 -73q-20 -16 -90 -47l-47 -14l207 -209l-37 -37 l-230 228q-35 0 -49 10q-57 20 -98 59q-16 16 -35 47l-10 43q0 27 17.5 44.5t43.5 17.5q29 0 49 -21l78 -78l47 11l50 18q57 27 86 60l20 28q12 18 12 43q0 16 -10 33q-16 25 -49 25q-25 0 -74 -19l-57 -18q-53 -6 -101 28q-43 37 -92 99l-26 41l-23 47l-10 59q0 53 63 84 l66 10h215v131h-424z" />
<glyph unicode="=" horiz-adv-x="806" d="M-72 977h879l74 -107h-303l47 -59q41 -61 63 -119l4 -28q0 -61 -74 -99l-75 -26l71 -50q80 -59 107 -102q37 -59 37 -123q0 -129 -107 -190q-72 -39 -141 -39q-135 0 -268 131q-25 29 -52.5 66.5t-68.5 101.5l-43 82l55 26l23 -51q25 -63 51 -92q68 -98 115 -131 q47 -29 104 -29l29 -2q74 0 129 49.5t55 108.5l-2 18q-12 76 -78 138q-12 18 -63 45l-11 4l-34 6q-43 0 -86 -23l-29 -6q-37 0 -68.5 35t-31.5 72t40 37l39 -7l70 -4l41 2q20 0 37 9l12 4l35 10l29 12q51 27 51 74l-2 18q-12 53 -62 113l-22 18h-502z" />
<glyph unicode="&#x3e;" horiz-adv-x="735" d="M-72 977h1237l72 -107h-659l47 -59q41 -61 63 -119l4 -28q0 -61 -74 -99l-75 -26l30 -21l72 -51l33 33l47 39q74 49 143 49l21 -2q39 0 72.5 -20.5t70.5 -65.5q66 -76 66 -156q0 -96 -54 -184l-55 -84l-106 61l16 27l68 108l26 68q12 37 13 72q0 45 -22.5 70.5 t-68.5 25.5q-51 0 -101 -32t-93 -91q37 -59 37 -123q0 -119 -107 -188q-72 -39 -141 -39q-135 0 -268 131q-25 29 -52.5 66.5t-68.5 101.5l-43 82l55 26l23 -51q25 -63 51 -92q68 -98 115 -131q47 -29 104 -29l29 -2q74 0 129 49.5t55 108.5l-2 18q-12 76 -78 138 q-12 18 -63 45l-11 4l-34 6q-43 0 -86 -23l-29 -6q-37 0 -68.5 35t-31.5 72t40 37l39 -7l70 -4l41 2q20 0 37 9l12 4l35 10l29 12q51 27 51 74l-2 18q-12 53 -62 113l-22 18h-502z" />
<glyph unicode="?" horiz-adv-x="927" d="M328 1018l59 37q90 39 158 39q49 0 57 -4q20 0 55 -15q96 -35 164 -129q57 -102 58 -196q-1 -54 -15 -91q-29 -84 -100 -165l-66 -66l-215 -213l-84 88l273 275l59 71q61 92 62 174q0 74 -48 121q-43 49 -131 49l-57 -6q-45 -6 -100 -33l-23 -10l-28 -18zM391 -12 l119 118l111 -112l-117 -117z" />
<glyph unicode="@" horiz-adv-x="741" d="M-72 977h1340l69 -107h-702v-346l8 -4l57 -10l39 2l39 14q57 25 96 64l13 20l-13 23q-12 25 -12 51q0 27 16.5 45.5t53.5 18.5q53 0 101 -37t48 -93q-6 -33 -34 -55l-27 -18l80 -178v-50l-78 -22q-70 -23 -133 -74q-39 -35 -39 -92q0 -31 24 -72q25 -29 78 -28l27 -2 q59 0 115 34l18 13l25 22l86 -86l-54 -26q-76 -29 -135 -29l-69 6l-35 10l-35 19q-47 20 -90 86q-31 59 -31 114v21l4 16q23 80 121 123l96 29l-57 121l-20 -8l-58 -25l-43 -8l-51 -4q-43 0 -92 12l-39 12v-481l-109 80v325l-340 -235l-84 72l424 282l-55 45 q-53 41 -97 56.5t-77 15.5q-49 0 -109 -21l-47 -20l-78 86l60 23q78 25 147 24q72 0 176 -80q31 -25 80 -80v299h-526z" />
<glyph unicode="A" horiz-adv-x="741" d="M-72 977h1325l70 -107h-688v-346l8 -4l57 -10l39 2l39 14q47 18 84 52l19 28l-7 12l-14 60q0 27 19.5 48.5t52.5 21.5q53 0 101 -37t48 -93q-6 -33 -34 -55l-27 -18l102 -88v-187h-239q-29 0 -52 -10q-27 -6 -26 -45q0 -23 26 -31l68 -8h16h215v-90h-192l-41 -12 q-41 -18 -41 -64l6 -37q6 -29 27.5 -43t60.5 -20l56 6l71 21l121 47v-117l-33 -14l-45 -11l-51 -4l-41 2q-27 0 -67 15q-74 18 -136 61q-74 53 -73 115l6 41q6 23 49 43l37 14l-62 31q-61 41 -61 98l2 23q6 41 80 69l67 12h150v78l-72 64l-24 -10l-62 -25l-45 -10l-51 -4 q-43 0 -92 12l-39 12v-481l-109 80v328l-340 -238l-84 72l424 282l-55 45q-53 41 -97 56.5t-77 15.5q-49 0 -109 -21l-47 -20l-78 86l60 23q75 24 142 24h5q72 0 176 -80q31 -25 80 -80v299h-526z" />
<glyph unicode="B" horiz-adv-x="765" d="M-72 977h836l72 -107h-205v-456q-6 -41 -21 -58q-24 -28 -70 -28h-3l-43 -2l-50 6l-73 102l71 -2q61 0 80 41l2 41v356h-319v-475q0 -41 12 -71q25 -43 96 -95l377 -235q16 -10 35 -39q12 -25 12 -47q0 -43 -32 -82l-19 -16l-108 73l16 15q6 8 16 43q0 25 -32 59 q-86 78 -293 186q-100 51 -156 111q-31 35 -31 80v493h-98z" />
<glyph unicode="C" horiz-adv-x="868" d="M-74 977h942l70 -107h-289v-286l29 20l57 37l58 18l38 5h15l10 -2v-91l-33 -2q-18 -4 -69 -32l-86 -56l-19 -16v-465l-108 78v280l-60 -47q-76 -47 -145 -47q-72 0 -146 49q-61 49 -98 138q-20 68 -20 100q0 72 50 130t154 58q92 0 189 -84q33 -25 76 -84v299h-543z M139 500l6 -31q18 -53 60 -80q47 -27 86 -27l39 3q14 0 43 14q70 25 123 70q20 13 45 40q-29 47 -54 70q-76 70 -178 70q-74 0 -122 -37t-48 -92z" />
<glyph unicode="D" horiz-adv-x="868" d="M-74 977h942l70 -107h-289v-286l29 20l57 37l58 18l38 5h15l10 -2v-91l-33 -2q-18 -4 -69 -32l-86 -56l-19 -16v-465l-108 78v280l-60 -47q-76 -47 -145 -47q-72 0 -146 49q-61 49 -98 138q-20 68 -20 100q0 72 50 130t154 58q92 0 189 -84q33 -25 76 -84v299h-543z M88 96l111 109l106 -107l-108 -110zM139 500l6 -31q18 -53 60 -80q47 -27 86 -27l39 3q14 0 43 14q70 25 123 70q20 13 45 40q-29 47 -54 70q-76 70 -178 70q-74 0 -122 -37t-48 -92z" />
<glyph unicode="E" horiz-adv-x="768" d="M-74 977h1219l72 -107h-564v-274l64 33q47 18 69.5 25.5t42.5 7.5q86 0 156 -82t70 -189v-22q-6 -72 -60 -164l-26 -43l-27 -37l-86 80l37 49q39 55 63 106l17 41l6 48q0 49 -30.5 79.5t-100.5 30.5q-41 0 -127 -49l-68 -51v-461l-106 80v276l-62 -43q-86 -45 -145 -45 q-82 0 -143.5 43t-104.5 137q-18 47 -18 99q0 80 47 133q55 59 160 59q92 0 188 -84l43 -43l35 -43v303h-547zM145 492l5 -27q12 -45 49 -76q36 -24 82 -24h4l45 2l47 16l65 27l60 39l45 36q-23 37 -55 70q-76 70 -179 70q-76 0 -123 -39l-32 -43q-12 -23 -13 -51z" />
<glyph unicode="F" horiz-adv-x="768" d="M-74 977h1225l72 -107h-570v-274l64 33q47 18 69.5 25.5t42.5 7.5q86 0 156 -82t70 -189v-22q-6 -72 -60 -164l-26 -43l-27 -37l-86 80l37 49q39 55 63 106l17 41l6 48q0 49 -30.5 79.5t-100.5 30.5q-41 0 -127 -49l-68 -51v-461l-106 80v276l-62 -43q-86 -45 -145 -45 q-82 0 -143.5 43t-104.5 137q-18 47 -18 99q0 80 47 133q55 59 160 59q92 0 188 -84l43 -43l35 -43v303h-547zM88 96l111 109l106 -107l-108 -110zM143 496l7 -31q18 -41 55 -76q36 -24 79 -24h3q37 0 45 4l45 14l65 27l60 39l45 36q-23 37 -55 70q-76 70 -179 70 q-76 0 -123 -38t-47 -91z" />
<glyph unicode="G" horiz-adv-x="768" d="M-74 977h1204l72 -107h-549v-295l56 43q78 45 116 46q100 0 160 -78q63 -76 64 -180q0 -53 -56 -158l-55 -84l-84 92l41 53l35 56l24 43l15 69q0 37 -23.5 67.5t-62.5 30.5q-37 0 -87.5 -25.5t-101.5 -70.5l-41 -41v-440l-106 80v291l-391 -316l-70 66l213 170l-51 12 l-35 16q-84 43 -121 132l-14 86q0 141 139 186l31 8l31 2q90 0 188 -78q31 -25 80 -80v297h-545zM143 485q0 -41 50 -82q47 -30 112 -30h4l29 2q78 12 149 63q17 8 60 51l-43 58q-51 53 -142 82l-51 6q-70 0 -119 -41t-49 -109z" />
<glyph unicode="H" horiz-adv-x="825" d="M-74 977h1274l78 -107h-563v-206l30 12q37 12 80 12l58 -6q20 0 65 -23q45 -18 107 -104q29 -37 43 -83t14 -79l-2 -31q-12 -104 -78 -194l-28 -35l-91 84l31 43l53 80q35 63 35 117q0 61 -39 100t-100 39l-70 -6q-14 0 -30 -8l-33 -15l-45 -30v-539l-109 82v495h-110 q-49 0 -84 -20q-51 -29 -80 -84l-19 -45l-8 -51l2 -39l12 -41l25 -49l37 -51l68 -80l45 -47l-50 -41l-116 129l-97 129q-41 70 -41 141q0 55 33 106l35 43h-147l-64 99h559v196h-608z" />
<glyph unicode="I" horiz-adv-x="669" d="M57 403q0 39 15 74q12 41 88 92l71 43l-34 19l-43 31q-80 66 -80 141q0 76 56 124t132 48l53 -6q80 -18 131.5 -88t51.5 -142q0 -57 -47 -106l-50 -39l43 -21q31 -8 59.5 -14t49.5 -6l53 6q61 12 139 57l60 37v-129l-62 -35q-76 -36 -136 -36h-3q-92 0 -180 51 q-33 16 -70 53l-37 -16l-30 -19q-72 -43 -101 -96q-18 -37 -18 -74t25 -84q25 -37 63 -51l35 -4l35 2q12 0 41 14l16 9l-12 51l-6 12l-3 16q0 14 10.5 27.5t45.5 13.5q43 0 75.5 -24.5t61.5 -95.5q4 -12 -6 -31l-6 -4l-54 -39l84 -219l-53 -29l-88 217l-18 -4h-29l-86 6 q-23 4 -42 11.5t-52 23.5q-51 29 -105 98q-43 66 -43 135zM182 788q0 -47 56 -102l57 -35l35 23q37 24 51 51q20 35 20 66q0 35 -23.5 66.5t-70.5 49.5l-20 2q-37 0 -71 -27.5t-34 -93.5zM530 977h240l72 -107h-238z" />
<glyph unicode="J" horiz-adv-x="782" d="M-72 977h930l72 -107h-613v-307v-47q-6 -49 -41 -84q-25 -18 -59 -33l-33 -8q12 -39 29 -57q43 -68 111 -117q49 -31 116 -55q68 -18 135 -19l78 7q84 18 187 67l24 12l23 15l33 20v-117q-31 -29 -72 -53q-94 -53 -201 -53q-180 0 -352 135q-63 51 -113 115l-76 110 l-32 72q-12 37 -13 64q0 29 29 41q20 4 55 -15l45 -16q18 0 19 31v292h-209zM465 524l6 58q16 76 78.5 116.5t138.5 40.5q47 0 90 -19.5t84 -60.5q25 -18 58 -69v-209l-35 -29l-25 -14q-74 -43 -147 -43h-37l-35 8l-25 8l-30 21q-121 68 -121 192zM522 516l4 -24 q12 -43 54 -72q43 -25 96 -25q37 0 63 11q63 16 123 63l51 43q-25 43 -45 63q-66 66 -157 66q-98 0 -143.5 -39t-45.5 -86z" />
<glyph unicode="K" horiz-adv-x="782" d="M-72 977h930l72 -107h-613v-307v-47q-6 -49 -41 -84q-25 -18 -59 -33l-33 -8q12 -39 29 -57q43 -68 111 -117q49 -31 116 -55q68 -18 135 -19l78 7q84 18 187 67l24 12l23 15l33 20v-117q-31 -29 -72 -53q-94 -53 -201 -53q-180 0 -352 135q-63 51 -113 115l-76 110 l-32 72q-12 37 -13 64q0 29 29 41q20 4 55 -15l45 -16q18 0 19 31v292h-209zM117 -35l110 111l109 -109l-111 -110zM465 524l6 58q16 76 78.5 116.5t138.5 40.5q47 0 90 -19.5t84 -60.5q25 -18 58 -69v-209l-35 -29l-25 -14q-74 -43 -147 -43h-37l-35 8l-25 8l-30 21 q-121 68 -121 192zM522 516l4 -24q12 -43 54 -72q43 -25 96 -25q37 0 63 11q63 16 123 63l51 43q-25 43 -45 63q-66 66 -157 66q-98 0 -143.5 -39t-45.5 -86z" />
<glyph unicode="L" horiz-adv-x="782" d="M-74 977h905l72 -107h-590v-307l-2 -53q-12 -61 -59 -94l-51 -21l-15 -4l19 -26q49 -68 110 -117q49 -37 115 -58l64 -12l75 -4q78 0 146 21q76 18 143 51l70 33v-121l-625 -260l-53 90l280 98l-79 14q-96 25 -170 90l-97 95l-78 116l-32 66q-12 35 -13 65q0 31 29 48 q10 4 45 -15.5t49 -19.5q18 0 21 33v292h-207zM467 539l4 43q12 74 78 118q72 45 145 45q86 0 170 -83q14 -14 64 -87v-151q-39 -39 -66 -55q-92 -57 -164 -58h-26q-14 0 -35 4t-39 17q-53 18 -96 80q-35 57 -35 127zM524 492q0 -45 31 -76q31 -25 84 -25q43 0 92 19 q63 27 133 71l58 45l-33 39l-27 25q-76 63 -157 63q-92 0 -142 -61q-39 -51 -39 -100z" />
<glyph unicode="M" horiz-adv-x="466" d="M-74 977h606l70 -107h-301v-475q1 -29 -25 -48q-19 -14 -44 -14q-7 0 -15 1q-25 6 -81 77.5t-62 92.5q-6 37 16 49l27 8l37 2q33 0 41 10v297h-197z" />
<glyph unicode="N" horiz-adv-x="466" d="M-74 977h606l70 -107h-301v-475q0 -29 -25.5 -48t-58.5 -13q-25 6 -81 77.5t-62 92.5q-6 37 16 49l27 8l37 2q33 0 41 10v297h-197zM106 106l111 111l107 -108l-111 -109z" />
<glyph unicode="O" horiz-adv-x="466" d="M-68 977h592l72 -107h-289v-462q0 -25 -19.5 -44.5t-49.5 -19.5l-15 2q-27 6 -81 72.5t-62 95.5q-6 37 15.5 49t58.5 12h24q18 0 21 9v286h-195zM141 115l455 252v-119l-385 -221z" />
<glyph unicode="P" horiz-adv-x="503" d="M-74 977h645l72 -107h-387l-23 -8q-53 -31 -53 -102q0 -49 60 -84l61 -25h115l57 -98h-160q-45 -12 -63 -29q-63 -45 -64 -123q0 -55 31 -86q30 -24 86 -24h4q53 0 114.5 18.5t104.5 50.5l52 33l47 39l18 14v-145l-35 -27l-33 -20q-88 -47 -178 -47q-61 0 -139 31 q-63 31 -108 94l-29 61l-8 58q0 68 53 133l27 24l26 25l-72 33q-71 42 -71 104q0 47 28 84l15 16h-121z" />
<glyph unicode="Q" horiz-adv-x="503" d="M-74 977h645l72 -107h-387l-23 -8q-53 -31 -53 -102q0 -49 60 -84l61 -25h115l57 -98h-176q-39 -12 -55 -27q-55 -41 -56 -106l2 -29q6 -43 43 -78q36 -24 84 -24h4l43 2q20 0 44 8l53 16q31 10 43 23q74 33 116 78l25 22v-133l-483 -287l-66 97l207 114q-57 23 -84 41 q-78 51 -102 152l-2 35q0 72 53 131q16 18 53 45l-72 33q-71 42 -71 104q0 47 28 84l15 16h-121z" />
<glyph unicode="R" horiz-adv-x="806" d="M-74 977h1131l57 -107h-416v-231h-276q-39 0 -47 -4q-41 -12 -58 -74q-1 -10 -1 -19q0 -28 14 -56q18 -36 67 -37q23 0 47 8q78 30 140 30h4q86 0 147 -67q72 -84 72 -172q0 -66 -41 -120t-102.5 -79.5t-120.5 -25.5q-78 0 -156 38q-27 10 -78 50l-82 71l-59 58l-64 82 l-59 84l51 28l17 -31l12 -18l35 -49l43 -51q68 -72 127 -107q37 -20 79 -32.5t83 -12.5l43 2q90 12 142 61.5t52 104.5q0 33 -15.5 56.5t-49.5 23.5q-31 0 -92.5 -19.5t-98.5 -19.5h-20q-68 0 -150 90q-41 45 -63 88q-18 43 -19 94q0 72 68 115l30 8l39 8h234v125h-592z M807 555l96 98l98 -96l-98 -98z" />
<glyph unicode="S" horiz-adv-x="622" d="M-74 977h762l76 -107h-766zM59 711h512l74 -103h-180l-33 -14q-16 -6 -31 -21q-66 -55 -65 -145q0 -117 117 -117l39 2q14 0 45 15q88 31 161 90l64 57v-141l-51 -39q-61 -37 -123 -55l-68 -9q-92 0 -169 49.5t-107 133.5l-8 51q0 61 32 119l19 24h-174z" />
<glyph unicode="T" horiz-adv-x="622" d="M-74 977h752l74 -107h-754zM59 711h512l74 -103h-180l-33 -14q-16 -6 -31 -21q-66 -53 -65 -135q0 -127 115 -127l41 2q14 0 45 15q74 25 155 73q27 12 60 41v-114l-514 -310l-72 99l246 137q-35 12 -70 37q-74 53 -98 123l-8 51q0 61 32 119l19 24h-174z" />
<glyph unicode="U" horiz-adv-x="858" d="M-74 977h1049l74 -107h-291v-98q49 -43 73 -80q74 -102 74 -215v-24l-4 -25q-12 -104 -93 -197.5t-204 -142.5q-92 -37 -178 -37q-127 0 -219 84q-43 37 -62.5 77t-19.5 77q0 51 29 94l30 37l-41 22q-43 31 -67 62q-31 41 -31 90q0 41 22.5 77t71.5 54l56 14l53 9 q41 0 94 -19l35 -18l37 -95l-23 11q-63 24 -137 24h-6q-49 0 -83 -28.5t-34 -67.5l4 -20l10 -21q16 -29 93 -47l59 -4h131l49 -109h-176q-39 -6 -49 -16q-51 -27 -51 -78q0 -27 4 -31q12 -45 53 -67q51 -20 98 -21q51 0 107.5 15.5t103.5 38.5q80 39 123 84l35 36l-39 25 l-53 37l-31 22q-49 37 -78.5 87.5t-29.5 99.5q0 39 24.5 83t81.5 79l49 20v102h-651zM606 584l2 -27q10 -88 78 -147l68 -50l22 54q23 74 23 131t-23.5 110.5t-64.5 53.5q-49 0 -80 -37q-25 -37 -25 -88z" />
<glyph unicode="V" horiz-adv-x="657" d="M-74 977h799l74 -107h-801zM49 651l49 17l31 -66l68 -119q71 -116 168 -116h2q18 0 53 12q53 31 53 82t-47 110l-70 68l-43 35l21 24h454v-106h-311l23 -25q53 -59 67 -102l6 -45q0 -53 -49 -109q-47 -43 -125 -43l-32 2q-80 12 -144 76q-49 53 -104 154z" />
<glyph unicode="W" horiz-adv-x="657" d="M-74 977h799l74 -107h-801zM49 651l49 17l31 -66l68 -119q71 -116 168 -116h2q18 0 53 12q53 31 53 82t-47 110l-70 68l-43 35l21 24h454v-106h-311l23 -25q53 -59 67 -102l6 -47q0 -63 -46 -109.5t-121 -46.5l-37 2q-76 10 -144 78q-55 55 -106 158zM270 86l109 113 l106 -111l-108 -106z" />
<glyph unicode="X" horiz-adv-x="657" d="M-72 977h797l76 -107h-801zM63 670l50 22l28 -63q39 -92 64 -123q82 -119 176 -119q18 0 53 12q51 29 51 88q0 41 -43 109q-23 27 -88 84l-26 16l20 23h451v-105h-310l23 -20q41 -47 66 -109l6 -47q0 -61 -45 -106q-45 -41 -117 -41q-37 0 -45 4q-66 12 -135 82l-54 63 l-55 84l-55 113zM297 104l502 258v-106l-430 -242z" />
<glyph unicode="Y" horiz-adv-x="587" d="M-74 977h723l72 -107h-723zM59 283q0 68 60 82q23 0 78 -43l41 -50l26 -2q39 0 64 17q43 25 57 84l4 30q0 53 -55 125q-37 41 -123 95l-88 43l-51 18l30 57h625v-100h-451l58 -31q68 -37 102 -71q37 -31 58 -76q8 -18 14 -41t6 -47q0 -74 -68 -146q-14 -14 -81 -53 l-48 -18l172 -201l-47 -43l-188 225l-49 2q-27 0 -64 22.5t-61 55.5q-18 33 -21 66z" />
<glyph unicode="Z" horiz-adv-x="647" d="M-70 977h766l70 -107h-223v-198q-4 -20 -11 -27l-14 -8l-16 -4h-273l-28 -12q-29 -18 -29 -56l4 -26q12 -49 47 -70l33 -10l37 20q39 14 78 21q41 0 88 -13l30 -14l23 -2h27h41l51 6q61 10 129 43l26 17v-121l-41 -10l-81 -11q-45 0 -101 15l-22 8l18 -35q16 -51 21 -86 q0 -39 -15 -68q-6 -12 -18 -28.5t-35 -38.5q-33 -33 -123 -66l-76 -18l133 -160l-55 -41l-145 189l-43 2q-51 10 -88 47t-37 75q0 31 23.5 50.5t52.5 19.5q16 0 41 -12q25 -8 51 -45l14 -31l35 6q41 10 88 33q63 29 86 59q39 39 39 72q0 12 -8 29q-14 27 -49 26 q-16 0 -58 -12l-69 -25q-8 -1 -15 -1q-47 0 -92 32q-25 20 -90 98l-47 84l-14 68q0 53 65 84l68 10h233v135h-434z" />
<glyph unicode="[" horiz-adv-x="684" d="M-68 977h783l71 -107h-270v-192q0 -10 -12 -27l-15 -10l-14 -2h-268l-27 -12q-29 -18 -28 -56l4 -26q12 -43 47 -66l33 -10l36 18l76 21q49 0 86 -12l31 -15l39 -2l102 6l27 2l31 7l41 10l45 14l67 25v-117l-57 -14l-64 -11l-53 -4q-41 0 -100 13l-25 8l17 -33 q18 -43 18 -84q0 -31 -9 -62.5t-44 -66.5t-123 -70l-76 -16l129 -160l-53 -41l-146 189l-43 2q-49 6 -87 40t-38 79q0 31 20.5 51t53.5 20q18 0 45 -14l33 -25l29 -28l12 -19l31 6q27 6 33 8.5t45 20.5q47 25 82.5 63.5t35.5 69.5q0 18 -10 35q-16 25 -47 25q-16 0 -57 -13 l-68 -24q-53 -6 -106 32q-45 31 -86 95l-27 41l-23 47l-10 59q0 53 64 84l65 10h232v131h-408zM526 80l291 219v-98l-225 -195z" />
<glyph unicode="\" horiz-adv-x="663" d="M-74 977h793l76 -107h-797zM47 498l49 41l19 -29l51 -57q55 -51 104 -80q53 -27 105 -27q74 0 145 64q16 12 35 47l10 61q0 35 -23.5 74t-58.5 39q-47 0 -100 -47q-20 -14 -43 -47l-92 88l41 39q59 41 135 41l59 -7q78 -18 140 -94l34 -74h29l43 5q20 0 29 4l30 12l13 6 v-117h-125q-18 -47 -45 -84q-63 -82 -189 -102l-30 -2q-66 0 -134.5 33.5t-127.5 93.5l-80 90z" />
<glyph unicode="]" horiz-adv-x="681" d="M-74 977h836l69 -107h-258v-231q-6 -33 -16 -45q-31 -43 -111 -62q-166 -31 -243 -90q-63 -47 -64 -106l6 -43q6 -18 25 -43q61 -84 203 -84l47 2q27 0 51 8q59 12 143 49l29 13l39 22l57 -108l-88 -46q-113 -47 -215 -47h-33l-20 2q-80 10 -168 70q-111 78 -154 193 l-8 53q0 68 43 129q55 74 165 95.5t155 45.5q23 10 51 37v186h-469z" />
<glyph unicode="^" horiz-adv-x="661" d="M-74 977h828l71 -107h-276v-157l-4 -17l-8 -22q-6 -12 -33 -19l-12 -2h-269q-51 -6 -67 -22q-33 -27 -33 -80q0 -63 74 -98q78 -33 163 -33l72 6q72 12 150 43l57 31l51 -101l-20 -12l-62 -31l-59 -22l-25 -6v-183l-4 -14l-12 -25l-19 -14l-22 -6h-254q-27 0 -51 -12 q-45 -23 -45 -82q6 -51 69 -90q72 -33 148 -33q61 0 172 37l98 39l51 -95l-18 -10q-43 -25 -88 -37l-90 -24l-84 -10q-35 0 -63.5 4t-67.5 18q-66 18 -125 90q-70 76 -70 158q0 86 86 133q29 12 88 18h193v121h-25q-23 0 -33 4q-61 6 -114 33q-78 37 -144 105 q-53 66 -53 141q0 98 88 141l33 8l55 15h219v112h-442z" />
<glyph unicode="_" horiz-adv-x="661" d="M-74 977h832l73 -107h-276v-157l-2 -19l-10 -22q-6 -12 -23 -15l-22 -4h-271q-51 -6 -67 -22q-33 -27 -33 -80q0 -61 72 -98q76 -35 166 -35l73 6q82 12 150 45l55 31l53 -101l-22 -12l-58 -29l-71 -26l-15 -4v-135q33 -12 37 -23q76 -51 107 -104.5t31 -98.5 q0 -76 -72 -129q-59 -43 -152 -61l-71 -6l-50 2q-25 0 -53 10q-35 6 -80 35q-63 37 -133 123q-25 37 -39 71l-10 62q0 47 30.5 79.5t90.5 47.5l196 18l62 2v90h-25l-34 4q-61 6 -115 33q-78 37 -144 105q-55 66 -55 141q0 98 88 141l33 8l55 15h222v112h-449zM125 10 q0 -55 82 -98q66 -35 145 -43l27 -2h27q111 0 169 57q31 35 31 82q0 59 -43 90q-43 25 -112 25h-48l-24 -4q-98 0 -158 -13q-96 -25 -96 -94z" />
<glyph unicode="`" horiz-adv-x="681" d="M-74 977h873l71 -107h-282l20 -32q23 -45 23 -93l-2 -24q0 -61 -29 -105l-22 -32q63 -45 86 -70q86 -86 86 -184l2 -17q0 -111 -94.5 -186.5t-229.5 -75.5q-123 0 -240 80q-147 98 -147 264q0 84 49 143.5t141 73.5l123 15l78 2l45 -2q14 12 35 49q16 37 16 80 q0 63 -28 98l-15 16h-487zM129 350q0 -80 69.5 -140t161.5 -60t173 45.5t112 117.5q12 37 12 66q0 74 -75 119l-76 28l-31 2l-47 2q-131 0 -190 -28q-109 -43 -109 -152z" />
<glyph unicode="a" horiz-adv-x="641" d="M-74 977h830l73 -107h-299v-135q51 -25 68 -45q74 -55 98 -123q12 -37 13 -63q0 -86 -88 -137l-91 -37v-148l56 -37q53 -43 90 -90q35 -57 35 -106q0 -66 -76 -127q-68 -47 -154 -55l-37 -3l-24 -2q-195 0 -328 166q-25 31 -39 66q-4 14 -6 27.5t-4 31.5q0 49 30.5 86 t78.5 49l45 11q31 6 79 6l148 6v102l-68 2q-145 18 -231 123l-33 51l-26 48q-18 47 -19 81q0 49 27.5 77t81.5 48l82 13l108 6l78 4v104h-424zM125 0q0 -55 82 -100q47 -23 145 -41l23 -2h20q98 0 160 49q51 41 51 88q0 59 -49 94q-35 18 -104 18l-41 -2h-27 q-109 0 -168 -12q-92 -23 -92 -92zM125 553q0 -59 80 -100q84 -39 147 -39l23 -2h24q113 0 168 53q39 39 39 82q0 59 -55 94q-37 18 -111 18l-55 -2q-109 0 -168 -12q-92 -23 -92 -92z" />
<glyph unicode="b" horiz-adv-x="817" d="M-74 977h948l58 -107h-221v-231h-277h-26q-61 -6 -76 -78q-2 -9 -2 -19q0 -28 14 -56q18 -38 68 -37q23 0 47 8l76 22l69 8q45 0 78 -16q39 -12 68 -53q29 -33 49 -80q10 -23 15 -40t5 -50q0 -61 -38 -117.5t-100.5 -82t-123.5 -25.5q-78 0 -156 38q-27 10 -77 50l-82 71 l-68 78l-53 64l-60 86l52 24l16 -31l12 -18l35 -49l43 -51q61 -68 125 -107q84 -45 160 -45l43 2q96 12 147 62.5t51 105.5q0 31 -15 54.5t-50 23.5q-31 0 -92.5 -19.5t-98.5 -19.5h-20q-68 0 -152 90q-41 45 -63 88q-18 43 -18 94q0 72 67 115l31 8l39 8h231v125h-604z" />
<glyph unicode="c" horiz-adv-x="817" d="M-74 977h928l57 -107h-219v-231h-276h-27q-61 -6 -76 -78q-1 -9 -1 -18q0 -29 14 -57q18 -38 65 -37q23 0 47 8l76 22l70 8q45 0 78 -16q35 -12 67 -51q72 -84 72 -172q0 -68 -41 -121q-37 -53 -99.5 -78.5t-121.5 -25.5q-78 0 -158 38q-27 10 -78 50l-82 71 q-47 45 -121 140l-59 84l51 28l17 -28q41 -68 90 -121q61 -68 125 -107q37 -20 78.5 -32.5t82.5 -12.5l43 2q96 12 147.5 62.5t51.5 105.5q0 33 -16 51q-12 18 -52 27q-31 0 -92 -19.5t-98 -19.5h-20q-61 0 -152 88q-82 94 -82 184q0 72 70 115l30 8l39 8h232v125h-586z M416 -135l96 98l98 -96l-98 -98z" />
<glyph unicode="d" horiz-adv-x="653" d="M-74 977h772l74 -107h-231v-219h-215l-45 -12q-38 -16 -38 -56q0 -6 1 -12q6 -35 37 -57l28 -6l47 20q31 8 60.5 14.5t48.5 6.5q47 0 67 -10q25 -6 54 -35q49 -55 49 -125q0 -49 -31 -103q-31 -43 -100 -67l-45 -8l-27 -2q-43 0 -80 12l-14 6l-41 -6q-35 -12 -51 -31 l-6 -26q0 -37 39 -68l20 -12l53 22q63 23 119 23q39 0 66 -10q27 -6 49 -35q51 -63 51 -133q0 -57 -31 -97.5t-100 -64.5l-66 -8q-53 0 -84 10q-31 6 -80 37q-68 37 -139 108l-63 76l-33 43l45 29l16 -25q37 -55 70 -82q53 -47 109.5 -75.5t117.5 -28.5q33 0 41 4 q14 0 45 13.5t58 45.5q10 12 18 30.5t8 35.5q0 47 -41 47q-20 0 -100 -27l-70 -14q-33 0 -45 4t-24 16q-37 25 -73 80.5t-44 100.5q-1 9 -1 16q0 31 19 51l31 19l-28 22l-56 51l-69 80l-27 39l45 27l16 -25q37 -55 70 -82q41 -39 107 -75q41 -16 67.5 -21.5t50.5 -5.5 q39 0 83 15.5t67.5 46t23.5 69.5q0 45 -43 45l-86 -33l-39 -8l-32 -2q-37 0 -47 4l-48 23q-29 16 -63 71q-41 63 -41 117q0 41 30.5 76t90.5 35h139v116h-434z" />
<glyph unicode="e" horiz-adv-x="653" d="M-74 977h785l71 -107h-231v-180h-219q-33 0 -41 -4q-41 -12 -41 -49q0 -41 31 -70l30 -10l51 21l60 16l53 6q39 0 66 -10q27 -6 53 -39q23 -23 35 -51l18 -66q0 -55 -49 -110l-51 -41v-84l2 -23q0 -27 -10 -37l-29 -8h-27h-231q-45 -16 -55 -29q-57 -41 -58 -100 q0 -23 13 -57q29 -61 122 -92l88 -15l-10 35l-10 74q0 37 14 59q35 55 99 55q49 0 92 -36q55 -49 55 -117q0 -39 -16 -64q-8 -14 -56 -59q-45 -35 -131 -35q-94 0 -174 47q-80 43 -123 154l-14 51l-4 47q0 80 66 133l67 33h234v49q-53 0 -103 12q-63 18 -134 75t-128 128 l-39 58l43 26l29 -39l33 -43l26 -24q41 -39 107 -76l49 -16l74 -11q45 0 80.5 14.5t58 44t28.5 64.5q0 41 -40 41l-89 -29l-69 -10h-23l-26 4l-45 21q-25 14 -64 69q-31 49 -41 101q0 68 60 100l61 14h145v82h-446zM393 -158l45 2q17 0 76 31q41 25 41 66q0 25 -15.5 40 t-41.5 15q-23 0 -45 -14q-35 -25 -58 -86z" />
<glyph unicode="f" horiz-adv-x="718" d="M-74 977h869l73 -107h-254v-272h-280l-35 -2q-84 -16 -123 -88l-22 -62l-4 -49q0 -90 61 -170q20 -20 98 -65l60 -21l-17 41l-12 47l-4 56l6 63l12 37l25 37q47 55 125 55q66 0 119 -39q47 -29 84 -121q12 -37 12 -73q0 -70 -40 -125.5t-116 -81.5l-37 -8l-39 -2 q-47 0 -81.5 7t-83.5 34q-86 43 -156 125q-55 72 -86 143q-29 76 -29 147l6 56q18 102 136 149q27 6 53 10t57 4h203v168h-508zM410 158l6 -21l35 -4l38 2l50 17q53 18 81.5 53t28.5 71q0 32 -10 50q-25 63 -86 63q-66 0 -119 -80l-20 -57l-4 -59v-35z" />
<glyph unicode="g" horiz-adv-x="718" d="M-74 977h869l73 -107h-254v-272h-280l-35 -2q-84 -16 -123 -88l-22 -62l-4 -49q0 -90 61 -170q20 -20 98 -65l60 -21l-17 41l-12 47l-4 56l6 63l12 37l25 37q47 55 125 55q66 0 119 -39q47 -29 84 -121q12 -37 12 -73q0 -70 -40 -125.5t-116 -81.5l-37 -8l-39 -2 q-47 0 -81.5 7t-83.5 34q-86 43 -156 125q-55 72 -86 143q-29 76 -29 147l6 56q18 102 136 149q27 6 53 10t57 4h203v168h-508zM369 -137l98 98l96 -96l-98 -98zM410 158l6 -21l35 -4l38 2l50 17q53 18 81.5 53t28.5 71q0 32 -10 50q-25 63 -86 63q-66 0 -119 -80l-20 -57 l-4 -59v-35z" />
<glyph unicode="h" horiz-adv-x="667" d="M-74 977h789l69 -107h-217v-417l-14 -39q-6 -20 -21 -37q-53 -76 -145 -76h-25l-34 4q-20 4 -58 21q-92 37 -135 123l-10 28l-12 47v346h-115zM219 475l6 -31q18 -61 86 -77q6 -1 13 -1q54 0 100 46l35 57v401h-240v-395z" />
<glyph unicode="i" horiz-adv-x="485" d="M-74 977h627l76 -107h-629zM66 500q0 129 110 178l111 20h334v-106h-295q-51 0 -80 -14q-80 -35 -80 -132q0 -59 31 -143q29 -68 86 -149l47 -64l18 -20l-43 -39l-131 182q-49 80 -78.5 154.5t-29.5 132.5z" />
<glyph unicode="j" horiz-adv-x="411" d="M-72 977h525l69 -107h-522zM43 674l23 12q61 25 100 31l57 6q66 0 111 -23q57 -18 108 -59l78 -70l31 -34v-148l-385 -252l-74 92l443 258l-29 33l-33 29l-47 37q-51 30 -119 30h-4l-72 -6q-23 0 -81 -24l-27 -13z" />
<glyph unicode="k" horiz-adv-x="593" d="M-74 977h719l72 -107h-719zM33 682h688v-104h-258l-31 -7q-59 -25 -96 -125l-8 -38l-2 -41q0 -45 11 -83t44 -85l74 -86l45 -45l-43 -43l-29 28l-57 64q-152 193 -152 311q0 68 33 127l18 23h-174z" />
<glyph unicode="l" horiz-adv-x="534" d="M41 823q0 53 29.5 94t80 62.5t101.5 21.5q61 0 121 -30q116 -71 116 -193q0 -86 -65 -166q-51 -57 -156 -123l-96 -53l45 -47q61 -49 131 -49l47 6q119 25 209 82l70 51v-145l-70 -33q-86 -37 -129 -43l-61 -4q-70 0 -140.5 30.5t-114.5 80t-79 110.5l-14 27l100 47 l88 53l18 12l-39 7l-45 14l-49 24q-39 25 -71 72l-17 37q-2 8 -5 23.5t-5 31.5zM141 811q0 -59 29 -90q16 -20 86 -53l55 -17l41 41q41 54 41 111q0 53 -28 96q-37 53 -103 53l-43 -6q-18 0 -48 -42t-30 -93z" />
<glyph unicode="m" horiz-adv-x="540" d="M41 825q0 49 29.5 91t81 65t98.5 23q70 0 123 -33q114 -73 114 -193q0 -47 -16 -86q-12 -45 -47 -80q-51 -57 -156 -123l-96 -53q23 -31 41 -45q59 -47 139 -47l43 2q117 16 209 68q31 16 70 51v-119l-504 -305l-72 90l250 127q-51 12 -90 30.5t-100 80.5q-39 39 -68 88 l-24 45l100 47l88 53l18 12l-36 9l-50 18l-43 23q-45 25 -77 71q-25 43 -25 90zM141 811q0 -59 29 -90q16 -20 86 -53l55 -17l41 41q41 54 41 111q0 53 -28 96q-37 53 -103 53l-43 -6q-18 0 -48 -42t-30 -93z" />
<glyph unicode="n" horiz-adv-x="677" d="M-76 977h811l72 -107h-232v-182l-4 -14l-18 -17l-27 -12h-20h-230q-45 0 -63 -10q-63 -29 -63 -115q0 -59 30 -114q31 -49 76 -70l47 -17l47 -4q41 0 64 11l10 4l-23 30l-12 35l-4 37q6 25 45 25q57 0 117 -41q49 -29 49 -64l-4 -20q-12 -31 -35 -53l-20 -15l125 -315 l-64 -31l-125 307l-27 -8l-34 -2q-37 0 -84 12q-43 18 -107 62q-57 45 -121 135q-45 84 -45 147q0 41 21.5 89.5t83.5 72.5l57 15h250v122h-471z" />
<glyph unicode="o" horiz-adv-x="686" d="M-74 977h826l73 -107h-243v-202l-2 -21q0 -12 -9 -20l-22 -9h-25h-205h-40q-84 -12 -115 -100l-6 -51q0 -78 35.5 -135.5t95.5 -83.5l51 -17l49 -4q47 0 74 17l14 8l-20 22q-20 27 -21 60l6 33q6 18 39 18q49 0 109 -41q59 -37 59 -78q0 -29 -33 -63l-32 -29l123 -254 l-64 -4l-33 -4l-65 -27q-59 -29 -60 -75q0 -25 28 -50.5t75 -25.5q66 0 125 20l45 21l47 -88l-35 -19q-47 -18 -106 -18h-25l-27 4q-94 12 -147 70.5t-53 128.5q0 49 30.5 85.5t100.5 55.5l55 8l-68 141l-32 -4l-35 -2q-47 0 -103 13q-70 18 -127 59q-80 55 -124 145l-33 86 q-12 43 -13 82l3 25q12 123 108 162l37 8l59 8h203v145h-475z" />
<glyph unicode="p" horiz-adv-x="677" d="M-76 977h811l72 -107h-232v-182l-4 -14l-18 -17l-27 -12h-20h-230q-45 0 -63 -10q-63 -29 -63 -115q0 -59 30 -114q31 -49 76 -70l47 -17l47 -4q41 0 64 11l10 4l-23 30l-12 35l-4 37q6 25 45 25q57 0 117 -41q49 -29 49 -64l-4 -20q-12 -31 -35 -53l-20 -15l125 -315 l-64 -31l-125 309l-332 -225l-59 84l229 147l-30 15q-37 18 -60 41q-166 133 -166 280q0 43 21.5 91.5t83.5 72.5l57 15h250v122h-471z" />
<glyph unicode="q" horiz-adv-x="638" d="M-74 977h797l74 -107h-269v-135l2 -28q0 -29 -10 -39l-43 -19l-12 -2h-270l-29 -12q-18 -10 -29 -45l4 -19q18 -57 92 -57q49 0 109 21l33 8l33 2q33 0 58.5 -17.5t31.5 -46.5q0 -31 -41 -44t-90 -13h-21l-43 -4q-18 0 -57 -39q-55 -55 -56 -127q0 -78 72 -98l23 -6 l32 -3q49 0 86 31l29 31l-10 16l-10 39q0 20 24 45l19 4q18 0 71 -24q66 -37 66 -84q0 -43 -43 -74l-23 -12l78 -176l-53 -29l-76 184l-16 -6q-49 -18 -92 -18h-25l-39 8q-61 12 -115 65q-43 41 -67 95l-12 34l-5 35q0 57 39 111q14 20 41 45l-41 25q-43 27 -68.5 69.5 t-31.5 79.5q0 49 59 84l62 23h258v122h-424z" />
<glyph unicode="r" horiz-adv-x="1013" d="M-76 977h1170l71 -107h-245v-182l-2 -14l-19 -17l-29 -8q-14 0 -20 -4h-268l-45 -24q-47 -37 -48 -95l7 -47l14 -37l22 -36q20 -33 62 -58q39 -16 80 -16l37 2q14 0 24 8l-12 20q-12 25 -12 52l4 26q12 29 55 29q49 0 100.5 -33t51.5 -71l-4 -19q-12 -31 -41 -53l-27 -17 l135 -327l-63 -31l-93 223l-36 -49q-41 -47 -144 -102q-41 -18 -96 -19q-51 0 -85 10.5t-69 41.5q-18 16 -30 43l-9 53l7 59l6 12l-23 -2h-22h-31l-53 5l-84 24q-49 18 -82 57t-33 91l6 43q6 20 33 49q43 55 135 55q41 0 78 -18q31 -18 57 -64q12 -31 13 -59q0 -37 -25 -80 l-25 -31l25 -4l29 -2l43 6l43 16l22 15l66 -70l-41 -24q-43 -31 -51 -66l-4 -45q0 -57 55 -57q80 0 186 100l66 70l26 45l-39 -4q-49 0 -98 18q-70 25 -129 88q-47 47 -80 113l-26 65l-7 68q0 39 11 65q18 47 86 78l65 13h244v122h-813zM152 365l2 -19q12 -43 67 -72l55 -8 l17 27q18 36 18 65q0 37 -26.5 64t-63.5 27q-23 0 -51 -25q-18 -25 -18 -59z" />
<glyph unicode="s" horiz-adv-x="1083" d="M-74 977h1164l73 -107h-202v-870l-107 80v129h-231l2 -35l-7 -45q0 -18 -20 -20q-4 -1 -8 -1q-41 0 -101 58l-38 45l-33 47l-8 25q2 6 6 12t12 14l18 8h95q0 55 -17 78q-33 39 -98 39q-49 0 -111.5 -31.5t-81.5 -31.5q-49 18 -94 71q-37 43 -67 111l-13 33l-4 37 q0 59 60 98l61 27h316v122h-492zM141 553q6 -35 43 -66l37 -14l51 25q59 24 120 24h5q135 0 193 -102q18 -31 31 -105h233v555h-254v-229h-360q-33 0 -70 -25q-29 -25 -29 -63z" />
<glyph unicode="t" horiz-adv-x="970" d="M-74 977h1049l74 -107h-203v-872l-107 82v141l-30 -33l-29 -22q-80 -61 -166 -86l-74 -10q-70 0 -140.5 29.5t-117.5 93.5q-39 68 -39 110q0 41 37 94l39 33l-41 29q-47 39 -76 71q-57 76 -57 123q0 53 59 80l62 17h225v120h-391zM141 588q16 -55 74 -74l55 -8l47 6l68 2 q57 0 101 -12.5t61 -42.5l6 -33q0 -37 -59 -37l-56 4l-43 6q-61 0 -100 -38.5t-39 -84.5q0 -70 25 -106q25 -29 75 -29q37 0 50 4l51 19l86 43q88 43 147 106l49 58v499h-229v-135v-30q0 -27 -10 -37q-6 -12 -41 -21l-13 -2h-247l-33 -10q-26 -10 -26 -36q0 -5 1 -11z" />
<glyph unicode="u" horiz-adv-x="690" d="M-76 977h828l71 -107h-245v-182l-5 -10q-6 -12 -20 -21l-25 -8q-14 0 -22 -4h-285l-41 -31q-41 -41 -41 -92q0 -31 11 -53l36 -59q37 -43 123 -62l80 -6l-6 12l-14 60l4 26q12 33 55 33q29 0 50.5 -7t53.5 -34q45 -31 45 -71q0 -7 -2 -15q-6 -35 -38 -55l-31 -15 l143 -337l-65 -29l-74 174l-12 -27q-37 -66 -119 -98l-82 -14q-68 0 -145 43q-63 43 -76 73l-4 41v13q0 74 75 135l76 47l-16 12l-39 37q-35 41 -76 113q-31 66 -31 131q0 23 12.5 71t69.5 74l54 13h270v122h-471zM152 80q0 -31 26 -57q29 -23 74 -23l35 2q14 0 37 14 q39 20 68.5 55t41.5 72t12 68v10l-2 10l-26 7l-43 2l-66 -7q-12 0 -28 -8l-33 -14q-39 -18 -67.5 -57t-28.5 -74z" />
<glyph unicode="v" horiz-adv-x="528" d="M37 860q0 53 49 103q50 38 119 38h4q74 0 129 -55q18 -18 32.5 -54t14.5 -67q-6 -61 -55 -92q-31 -18 -105 -31l13 -10l32 -22l25 -13l20 -6h181l34 -98h-174q-37 -6 -59 -21q-61 -31 -61 -90l4 -30q12 -49 47 -72t84 -23l65 7l66 24l106 64l60 45v-144l-66 -39 q-88 -38 -160 -38h-4l-61 2q-20 4 -58 20q-57 23 -120 80q-37 41 -62 92l-10 51q0 57 47 107l25 22l24 19l-65 41q-63 41 -95 98q-27 57 -26 92zM137 838q0 -41 31 -82l31 -23q39 6 51 17q55 25 63 84l2 26q0 35 -23.5 62.5t-60.5 27.5q-66 0 -90 -80z" />
<glyph unicode="w" horiz-adv-x="518" d="M37 860q0 53 49 103q50 38 119 38h4q74 0 129 -55q18 -18 32.5 -54t14.5 -67q-6 -61 -55 -92q-31 -18 -105 -31l13 -10l32 -22l25 -13l20 -6h181l34 -98h-174q-37 -6 -59 -21q-61 -31 -61 -90l4 -30q12 -49 50 -73t83 -24h37l28 9l64 24q68 35 133 82l22 19v-119 l-491 -307l-74 94l248 139q-57 18 -86 39q-86 55 -117 135l-8 49q0 63 47 111q12 16 47 39l-65 41q-63 41 -95 98q-27 57 -26 92zM137 838q0 -41 31 -82l31 -23q39 6 51 17q55 25 63 84l2 26q0 35 -23.5 62.5t-60.5 27.5q-66 0 -90 -80z" />
<glyph unicode="x" horiz-adv-x="460" d="M-74 977h615l75 -107h-618zM49 543q0 55 84 55h459v-100h-336v-80q0 -80 -43 -80h-6q-37 6 -97.5 83t-60.5 122z" />
<glyph unicode="y" horiz-adv-x="460" d="M-74 977h596l74 -107h-598zM49 543q0 55 84 55h459v-100h-336v-80q0 -80 -43 -80h-6q-37 6 -97.5 83t-60.5 122zM188 117l404 254v-109l-330 -229z" />
<glyph unicode="z" horiz-adv-x="444" d="M-74 977h584l74 -107h-586zM51 651q0 23 19 60q31 47 98 47q35 0 84 -15l51 -20l62 -31q63 -37 143 -100l70 -57v-89l-283 -161l24 -29q25 -41 27 -66q0 -20 -10 -32q-25 -37 -80 -37q-45 0 -95 29.5t-63 82.5q-1 6 -1 12q0 29 24 58l33 27l354 186l-39 29 q-39 23 -125 57l-94 23l-31 4v-25l-4 -29q-12 -53 -63 -53q-33 0 -72 39q-29 39 -29 90z" />
<glyph unicode="{" horiz-adv-x="409" d="M-74 977h525l73 -107h-317v-342q6 -55 16 -69q35 -70 121 -70q51 0 129 64l29 24l39 41v-147l-43 -23q-59 -25 -115 -24h-31l-37 8q-104 31 -172 123l-43 88v327h-100z" />
<glyph unicode="|" horiz-adv-x="415" d="M-72 977h555l72 -107h-342v-282q0 -39 8 -64q25 -80 107 -106l57 -8q63 0 123 41q20 14 45 41v-123l-410 -299l-71 82l278 186l-55 29l-57 34l-43 37l-56 74q-23 43 -33 82v276h-106z" />
<glyph unicode="}" horiz-adv-x="835" d="M-74 977h871l73 -107h-249v-313l38 23q49 25 76 30l51 6l62 -6l12 -6v-88l-39 6q-27 0 -51 -8l-55 -20l-53 -33l-41 -33v-428l-107 80v295l-33 -21l-41 -16l-49 -4q-31 0 -71.5 12t-81.5 45q-59 45 -103 115l-20 51v313h-115zM221 545q0 -119 115 -119q53 0 127 37l51 37 v370h-293v-325z" />
<glyph unicode="~" horiz-adv-x="835" d="M-74 977h871l73 -107h-249v-313l38 23q49 25 76 30l51 6l62 -6l12 -6v-88l-39 6q-27 0 -51 -8l-55 -20l-53 -33l-41 -33v-428l-107 80v295l-33 -21l-41 -16l-49 -4q-31 0 -71.5 12t-81.5 45q-59 45 -103 115l-20 51v313h-115zM123 156l110 108l107 -106l-111 -109z M221 545q0 -119 115 -119q53 0 127 37l51 37v370h-293v-325z" />
<glyph unicode="&#xa0;" horiz-adv-x="589" d="M0 422l254 178q-45 16 -66 29q-66 37 -106 98q-18 31 -19 74q0 70 41 117q49 59 142 59l18 2q66 0 137 -49q41 -31 68 -80q20 -51 20 -84q0 -53 -43 -119q-6 -10 -43 -45l279 -110v-68l-320 137l-284 -217zM174 776q6 -68 70 -106q18 -12 61 -25l29 25q22 22 47 75l8 50 q0 45 -38 82.5t-83 37.5q-41 0 -71 -45q-23 -45 -23 -94z" />
<glyph unicode="&#xa1;" horiz-adv-x="727" d="M-74 977h1129l73 -107h-518v-313l49 29q61 31 117 30h25l35 -8q66 -18 116 -98q23 -39 37.5 -80t14.5 -78l-5 -39q-12 -70 -57 -149l-43 -68l-98 88l37 47q35 53 63 113q8 25 13.5 43.5t9.5 44.5q0 47 -33 68.5t-80 21.5q-33 0 -39 -4l-16 -4q-59 -16 -109 -53l-37 -33 v-428l-108 80v297l-35 -19q-61 -20 -90 -20q-49 0 -76 10l-76 43q-59 45 -102 113l-21 53v313h-100zM209 545q0 -119 115 -119q53 0 127 37l51 37v370h-293v-325z" />
<glyph unicode="&#xa2;" horiz-adv-x="727" d="M-74 977h1129l73 -107h-518v-313l49 29q61 31 117 30h25l35 -8q66 -18 116 -98q23 -39 37.5 -80t14.5 -78l-5 -39q-12 -70 -57 -149l-43 -68l-98 88l37 47q35 53 63 113q8 25 13.5 43.5t9.5 44.5q0 47 -33 68.5t-80 21.5q-33 0 -39 -4l-16 -4q-59 -16 -109 -53l-37 -33 v-428l-108 80v297l-35 -19q-61 -20 -90 -20q-49 0 -76 10l-76 43q-59 45 -102 113l-21 53v313h-100zM123 156l110 108l107 -106l-111 -109zM209 545q0 -119 115 -119q53 0 127 37l51 37v370h-293v-325z" />
<glyph unicode="&#xa3;" horiz-adv-x="729" d="M-74 977h1145l72 -107h-527v-307l46 25l47 16l65 10q39 0 66 -10q29 -6 65 -41q33 -27 70 -90t37 -127v-22l-8 -39l-17 -47l-43 -86l-37 -58l-90 88l35 49q43 57 57 115l15 80q0 49 -29 71.5t-84 22.5q-72 0 -135 -41l-60 -43v-436l-106 80v311l-406 -258l-69 100 l235 136q-33 12 -37 22l-65 53q-27 29 -51 93l-6 20v313h-111zM217 545q0 -41 10 -60q25 -59 105 -59q63 0 131 31l47 32v381h-293v-325z" />
<glyph unicode="&#xa4;" horiz-adv-x="489" d="M-74 977h649l74 -107h-651zM61 524q0 86 81 146.5t188 60.5q113 0 215 -63q35 -18 84 -66v-240l-58 -59q-82 -59 -200 -59q-96 0 -203 83t-107 197zM158 461q0 -49 32 -88q35 -35 101 -43l33 -2h26l39 4l45 14l-182 268l-29 -20q-31 -25 -49 -62l-12 -34zM305 639 l180 -270l21 12q27 12 43 33l49 43l12 14v78l-32 35q-39 35 -119 59l-37 6l-37 2q-43 0 -68 -6z" />
<glyph unicode="&#xa5;" horiz-adv-x="493" d="M-74 977h623l74 -107h-625zM63 524q0 88 93 156q86 51 182 51q100 0 211 -55l82 -55v-70l-41 35q-45 29 -123 57l-39 6l-37 2l-72 -6l-14 -6l180 -268l33 18q39 23 51 35l62 51v-139l-445 -295l-82 96l197 113q-88 31 -119 59q-119 88 -119 215zM154 453q0 -45 30 -80 q31 -29 107 -45l18 -2h10l37 2q27 0 43 8q15 0 35 10l-182 268q-16 -6 -27 -16q-33 -27 -49 -59q-23 -45 -22 -86z" />
<glyph unicode="&#xa6;" horiz-adv-x="616" d="M63 836q0 57 43.5 104t114.5 47h25l39 -8q74 -18 112 -109l23 -84v-286h338v-105h-338v-57l-6 -37q-6 -12 -35 -20q-31 0 -98 61q-57 53 -82 90l-11 29q0 10 25 28l25 9h73v131l-61 12q-135 41 -178 145zM164 827q0 -33 18.5 -71.5t79.5 -63.5l49 -14v147q0 49 -20.5 76 t-52.5 27q-35 0 -54.5 -29t-19.5 -72zM453 977h233l74 -107h-234z" />
<glyph unicode="&#xa7;" horiz-adv-x="616" d="M63 836q0 57 43.5 104t114.5 47h25l39 -8q74 -18 112 -109l23 -84v-286h338v-105h-338v-57l-6 -37q-6 -12 -35 -20q-31 0 -98 61q-57 53 -82 90l-11 29q0 10 25 28l25 9h73v131l-61 12q-135 41 -178 145zM164 827q0 -33 18.5 -71.5t79.5 -63.5l49 -14v147q0 49 -20.5 76 t-52.5 27q-35 0 -54.5 -29t-19.5 -72zM313 94l445 217v-106l-373 -205zM453 977h209l73 -107h-207z" />
<glyph unicode="&#xa8;" horiz-adv-x="530" d="M-74 977h662l74 -107h-365v-370h367v-105h-367v-71q0 -25 -4 -33q0 -12 -23 -21q-31 -12 -116.5 75t-85.5 116q0 18 18 31l18 8h86v370h-190z" />
<glyph unicode="&#xa9;" horiz-adv-x="534" d="M-74 977h662l74 -107h-365v-370h367v-105h-367v-71q0 -25 -4 -33q0 -12 -23 -21q-31 -12 -116.5 75t-85.5 116q0 18 18 31l18 8h86v370h-190zM244 90l422 244v-109l-355 -225z" />
<glyph unicode="&#xaa;" horiz-adv-x="489" d="M-74 977h609l69 -107h-297l25 -34q25 -33 41 -72l20 -68q0 -31 -21.5 -62.5t-68.5 -66.5l-53 -26l-70 -27l-30 -10l22 -45q31 -47 86 -70q61 -20 92 -20h25q12 0 28 4q20 0 58 18l63 29l39 20l41 27l21 16v-141l-62 -31l-71 -24l-48 -8h-38h-29l-39 4q-16 0 -59 18 q-61 18 -127 90q-20 27 -66 125l-23 78l39 6l41 12q90 37 124 68t34 70q0 45 -35 88l-37 32h-229z" />
<glyph unicode="&#xab;" horiz-adv-x="489" d="M-74 977h623l76 -107h-308l27 -34l47 -74l15 -62q0 -37 -22 -69.5t-69 -63.5l-118 -59l-27 -12l18 -41q25 -35 78 -66l49 -14l47 -4l35 2l45 6q27 6 101 45l63 39l19 14v-119l-463 -299l-72 101l232 123q-27 0 -31 4q-61 18 -127 104l-64 131l-24 72l39 6l41 12 q90 37 123.5 68t33.5 70q0 45 -34 88l-35 32h-244z" />
<glyph unicode="&#xac;" horiz-adv-x="813" d="M-385 977h1196l72 -107h-199v-870l-106 80v184l-50 -37q-53 -29 -125 -51l-53 -4q-86 0 -149 33q-55 33 -97 104l-18 43l-10 45v27q0 23 -4 33l39 -4l47 4l55 16q82 29 82 86q0 45 -53 74q-63 35 -170 35q-96 0 -199 -13l-72 -12l-43 98l52 11l98 12q100 0 186 -12 q35 0 48.5 -3.5t39.5 -13.5l47 -24q61 -31 101.5 -83.5t40.5 -109.5l-2 -22q-12 -74 -93 -111l-77 -20l6 -52q6 -27 22 -45q29 -29 72 -28q35 0 102 30l35 21l51 37q41 29 76 73l15 25v444h-891z" />
<glyph unicode="&#xad;" horiz-adv-x="649" d="M-74 977h721l72 -107h-719zM51 551l41 47l80 -39q57 -18 101 -28.5t81 -10.5q117 0 213 39q33 12 70 39v-121l-66 -28q-96 -29 -186 -29q-88 0 -219 65q-45 20 -115 66z" />
<glyph unicode="&#xae;" horiz-adv-x="550" d="M-74 977h684l72 -107h-264v-288l-10 -45q-12 -49 -37 -80q-31 -43 -88 -74l-25 -12l295 -342l-53 -43l-295 331l-60 70q-59 82 -59 131q0 14 12.5 34.5t34.5 22.5q18 0 59 -26.5t60 -30.5q16 0 45 43l14 37v272h-313z" />
<glyph unicode="&#xaf;" horiz-adv-x="550" d="M-74 977h932l72 -107h-512v-206l37 16q55 16 92 16q51 0 94 -22q66 -37 111 -107.5t45 -148.5q0 -35 -4 -43l-13 -35q-29 -70 -69 -131l-21 -29l-94 84l33 39q29 43 63 113q16 39 17 80q0 41 -25 75q-33 33 -92 33l-53 -6l-41 -10q-16 -2 -52 -25q-16 -6 -40 -28 q0 -14 -5 -23q-6 -25 -31.5 -56.5t-70.5 -64.5l-41 -20l295 -342l-53 -43l-295 331l-60 70q-59 82 -59 131q0 14 12.5 34.5t34.5 22.5q18 0 59 -26.5t60 -30.5q16 0 45 43l14 37v272h-313z" />
<glyph unicode="&#xb0;" horiz-adv-x="550" d="M-74 977h1184l74 -107h-766v-299h82q18 51 41 68q63 70 170 70q80 0 166 -88q78 -80 135 -209l57 -140l14 -41l-53 -24l-72 172q-39 88 -98 158q-61 61 -145 61q-59 0 -109 -35q-49 -31 -49 -84q0 -31 27 -63l28 -23l37 -6q29 0 78 19l16 10l62 -88l-29 -15l-74 -14 l-53 6q-51 12 -100 66q-25 29 -43 80l-10 45h-103l-8 -21q-8 -20 -39 -47l-29 -22l-43 -27l-16 -8l295 -342l-53 -43l-295 331l-60 70q-59 82 -59 131q0 14 12.5 34.5t34.5 22.5q18 0 59 -26.5t60 -30.5q16 0 45 43l14 37v272h-313z" />
<glyph unicode="&#xb1;" horiz-adv-x="714" d="M-76 977h817l76 -107h-817zM70 514q0 80 48 133t91 62l59 6q88 0 178 -78l33 -33l41 -45l49 66q61 66 129 65q61 0 127 -57l27 -27v-76l-29 31q-39 33 -80 33q-27 0 -55.5 -13.5t-54.5 -45.5l-86 -113l-43 -68l-86 60l67 106l-45 47q-53 49 -90 49q-174 0 -174 -167 q0 -80 57 -177l89 -116l81 -90l25 -25l-39 -41l-88 94q-94 102 -131 158l-43 70l-33 71q-25 68 -24 121z" />
<glyph unicode="&#xb2;" horiz-adv-x="1028" d="M-74 977h1116l72 -107h-1116zM72 360q0 104 79.5 184.5t196.5 80.5q61 0 152 -68l65 -70l33 54q49 59 93 70.5t63.5 15.5t40.5 4q88 0 153 -58q63 -51 90 -151l4 -49q0 -109 -65 -193q-76 -94 -191 -94q-82 0 -165 59q-33 20 -70 60q-29 -45 -51 -62q-68 -61 -156 -61 q-106 0 -189 81t-83 197zM150 309q0 -55 43 -104q45 -45 100 -45q43 0 92 30.5t88 102.5l45 90l25 53l-47 47q-59 47 -125 47l-41 -2l-15 -4l-22 -10q-37 -12 -82 -57q-25 -25 -45 -66q-16 -45 -16 -82zM578 262l18 -26q55 -61 135 -62q25 0 74 12.5t97 74.5t48 132 t-35.5 117t-89.5 47q-80 0 -137 -88q-41 -63 -80 -143z" />
<glyph unicode="&#xb3;" horiz-adv-x="983" d="M-74 977h1184l72 -107h-314v-249l29 -17l43 -26q66 -57 88 -166l2 -35q0 -111 -69.5 -199t-186.5 -88q-78 0 -164 60q-33 20 -69 59q-29 -45 -52 -62q-68 -61 -159 -61q-111 0 -191 80t-80 199q0 104 80 184t197 80q61 0 151 -68l66 -69l8 18q25 41 86 88q10 10 70 29 l43 8v235h-760zM137 309q0 -61 44 -103t100 -42q49 0 89 26.5t91 106.5l45 90l24 53l-47 47q-59 47 -125 48l-41 -3l-14 -4l-22 -10q-37 -12 -82 -57q-61 -53 -62 -152zM563 266l19 -26q55 -61 135 -62q47 0 67 10q61 12 107.5 75.5t46.5 133.5t-36 117t-87 47 q-39 0 -74.5 -21.5t-66.5 -66.5l-80 -143z" />
<glyph unicode="&#xb4;" horiz-adv-x="516" d="M-74 977h635l76 -107h-639zM66 524q0 86 76.5 148.5t185.5 62.5q125 0 233 -114l39 -48l47 -67v-131q-31 -49 -59 -72q-82 -72 -197 -72q-117 0 -221 89.5t-104 203.5zM164 459q0 -74 34.5 -109t98.5 -35q41 0 111.5 25t121.5 66l72 55l25 20q-39 51 -66 76 q-88 78 -188 78l-29 -2q-37 0 -69.5 -13.5t-61.5 -41.5q-49 -43 -49 -119z" />
<glyph unicode="&#xb5;" horiz-adv-x="503" d="M-74 977h641l74 -107h-643zM80 520q0 98 70.5 159.5t179.5 61.5q117 0 227 -110l35 -43l49 -68v-170l-479 -336l-80 97l211 131q-61 27 -107 61q-106 88 -106 217zM158 477l2 -20q6 -59 51 -103q43 -31 106 -30q49 0 111 18l59 23l62 36q33 25 59 60l17 26q-31 37 -74 70 q-100 72 -203 72q-66 0 -133 -43q-57 -45 -57 -109z" />
<glyph unicode="&#xb6;" horiz-adv-x="673" d="M-74 977h791l67 -107h-258l31 -55q29 -53 41 -119l6 -61q0 -78 -35 -135q-31 -61 -96 -115q-49 -37 -121 -76l-33 -14l205 -279l-67 -47l-209 299l-47 2q-47 6 -97 52q-16 16 -24 34l-8 47q0 59 69 78q43 0 80 -45l31 -51l39 18l71 43l70 68l12 16l-45 11q-49 12 -86 30 q-76 35 -110 70q-47 43 -62 113l6 73l13 43h-162zM258 762q0 -31 21 -70q31 -51 114 -90l76 -20l12 43l11 59l4 51q0 55 -43 103q-43 37 -111 36q-31 0 -59 -34q-25 -35 -25 -78z" />
<glyph unicode="&#xb7;" horiz-adv-x="878" d="M78 506l244 158l-76 41q-78 49 -105 102l-8 20l-2 27q0 49 43 92t121 43q94 0 160 -33q55 -25 82 -71l16 -35l10 -49q0 -57 -47 -107l-47 -41l121 -61l33 6l47 2l41 -2q119 -12 221 -115q35 -31 82 -102v-127l-74 -70q-31 -23 -80 -45q-23 -8 -43 -12t-47 -4l-20 -2 q-117 0 -208 80t-91 198q0 66 38 119l41 41l-110 62l-275 -195zM240 827q0 -25 12 -49t70 -55l47 -21l37 29q43 37 57 72l6 37q0 43 -43 73q-39 23 -98 23q-43 -6 -68 -37l-14 -35zM549 336q0 -61 31 -98q33 -33 90 -33q45 0 100 18l74 29l53 33l84 61l14 12l-37 35l-38 31 q-96 68 -191 68q-82 0 -131 -41q-49 -37 -49 -115zM625 977h297l73 -107h-297z" />
<glyph unicode="&#xb8;" horiz-adv-x="645" d="M51 430l271 176l-37 12q-84 37 -123 109q-18 31 -19 74q0 70 41 117q49 59 142 59l18 2q78 0 137 -47q45 -39 68.5 -83t23.5 -93q0 -68 -57 -123l-27 -21l293 -163v-111l-450 -320l-84 82l457 314l-269 153l-303 -221zM256 776q0 -68 57 -104l58 -23q33 12 37 23 q10 10 26.5 33.5t26.5 39.5l6 23l2 25q0 41 -36 79.5t-85 38.5t-72 -41q-20 -51 -20 -94z" />
<glyph unicode="&#xb9;" horiz-adv-x="458" d="M-74 977h582l72 -107h-377l387 -331v-187l-60 -35q-78 -37 -149 -36q-51 0 -105 18q-20 8 -49.5 27.5t-54.5 44.5q-37 37 -61 98l-15 51v350h-98zM203 506q0 -49 6 -74q18 -74 92 -74t176 58l84 57l-358 309v-276z" />
<glyph unicode="&#xba;" horiz-adv-x="626" d="M-74 977h770l70 -107h-348v-303l43 -41q61 -43 137 -43q53 0 121 37l45 37v-139l-16 -10q-47 -25 -101 -25l-53 6l-70 19q-29 12 -71 47l-58 47l-10 -25q-6 -18 -35 -47l-61 -47l-33 -14l285 -340l-56 -43l-280 327l-60 72q-59 82 -59 133q0 14 11.5 31.5t35.5 28.5 q10 0 84 -43l23 -13q6 0 12 -2q0 -2 2 -2q29 6 43 41q10 33 14 68v243h-311z" />
<glyph unicode="&#xbb;" horiz-adv-x="714" d="M-74 977h854l70 -107h-432v-235l51 16q68 18 119 19q43 0 51 -4q39 -6 68.5 -19.5t72.5 -46.5l64 -51v-148l-289 -188l-72 82l351 199q-27 27 -48 36q-66 37 -151 37q-82 0 -168 -32q-29 -10 -70 -33l-12 -25q-12 -25 -39 -51q-10 -12 -57 -41l-33 -14l285 -344l-56 -41 l-278 325l-60 72q-61 84 -61 137q0 10 11.5 30.5t35.5 27.5q18 0 66 -31q10 -6 28.5 -16.5t26.5 -12.5q23 6 47 53l10 50v249h-313z" />
<glyph unicode="&#xbc;" horiz-adv-x="729" d="M-74 977h785l75 -107h-198v-178l-2 -26q0 -12 -11 -23l-26 -10l-27 -2h-278l-25 -2q-47 -12 -78 -62l-6 -37q0 -45 29 -79l31 -33l12 12q29 23 96 47l57 6l62 2h29h307l45 -84h-373q-80 -12 -123 -30q-123 -47 -123 -133q0 -88 66 -156q41 -45 139 -102l62 -31l77 -31 l80 -27l-16 -51l-96 37l-170 76q-104 55 -152 96q-63 53 -88 141l-4 23v18q0 57 33 111l35 43l-35 49l-29 51l-23 54l-10 69q0 74 76 107l78 14h274v141h-483z" />
<glyph unicode="&#xbd;" horiz-adv-x="638" d="M-74 977h809l74 -107h-281v-196q0 -12 -12 -29l-12 -6l-19 -4h-254l-47 -12q-47 -23 -47 -76q0 -23 31 -51l31 -15l37 23l51 16l67 6q113 0 187.5 -71.5t74.5 -155.5q0 -74 -69 -123l-72 -35l-67 92l57 25q57 35 57 88q0 49 -28 72q-25 25 -74 24q-92 0 -170 -71 q-66 -66 -66 -148q0 -35 19 -78q18 -35 69 -71l82 -58l84 -45l29 -12l-31 -47l-45 20l-82 45l-82 52q-61 39 -114 112q-45 74 -45 150q0 55 36 110l39 41l-51 54q-18 25 -31 61q-2 10 -5 29.5t-5 38.5q6 63 68 100l55 14h246v131h-422z" />
<glyph unicode="&#xbe;" horiz-adv-x="679" d="M-74 977h856l78 -107h-297v-188l-4 -23l-12 -20l-21 -4h-28h-250q-29 0 -54.5 -13.5t-39.5 -39.5l-11 -43q0 -35 33 -62l33 -18l59 35q76 35 150 34q43 0 53 -4q57 -12 109 -63q45 -51 45 -99l-2 -20q-6 -23 -64 -84q-92 -86 -74 -113q27 -27 60 -26q33 0 73 26l35 27 l45 -80l-32 -18q-55 -20 -84 -21q-29 0 -61 11.5t-77 50.5q-39 39 -38 88q0 39 21.5 69.5t51.5 46.5q68 43 68 78q0 14 -33 35l-31 6q-20 0 -24 4q-39 -6 -60.5 -11t-46.5 -17q-37 -12 -80 -49q-61 -49 -73 -123l-2 -23q0 -35 12 -69q6 -16 18.5 -31t34.5 -37 q51 -51 133 -98q55 -31 142 -62l79 -26l-18 -50l-96 33q-102 37 -168 80q-121 72 -152 100q-61 53 -90 148l-6 49q0 63 35 117q10 18 37 43l-31 30q-25 33 -51 86q-12 41 -17 82q0 74 78 107l78 14h246v135h-463z" />
<glyph unicode="&#xbf;" horiz-adv-x="751" d="M-72 977h891l70 -107h-252v-188l-4 -14l-17 -15l-22 -8h-19h-333q-25 0 -39 -8q-37 -18 -51 -66q-6 -47 30 -84l41 -20l31 25q33 18 96 34l76 9q70 0 127 -23q59 -18 104 -78q47 -53 67.5 -111.5t20.5 -121.5q0 -72 -53 -127l-53 -41l-74 84l21 12q41 27 69 74 q16 43 21 80q0 37 -21 71l-10 13l-207 -183l-61 72l205 174l-31 16l-43 13l-47 4q-35 0 -47 -4l-60 -15q-45 -12 -92 -77q-20 -23 -33 -62l-10 -47l-2 -41q0 -59 37 -119q25 -37 94 -82l117 -69l78 -33l-25 -55l-57 26l-125 66q-92 49 -141 98q-35 41 -72 121l-14 49l-5 47 q0 55 31 117l31 45l-53 61q-27 37 -34 58.5t-10 35t-3 38.5q12 86 73 116l62 15h327v118h-528z" />
<glyph unicode="&#xc0;" horiz-adv-x="1097" d="M-74 977h1172l76 -107h-199v-872l-109 82v129h-229l2 -25q0 -37 -6 -50t-35 -25q-39 -6 -104.5 53t-65.5 114q0 25 53 37l54 4v66q0 33 -9 43q-18 23 -61 23q-94 0 -166 -66q-70 -59 -94 -141l-4 -45q0 -90 123 -168l135 -66l76 -31l-19 -49l-47 17l-39 18 q-92 37 -170 82q-147 80 -162 207q0 94 33 160l14 24l21 25l-33 33q-10 12 -24.5 36.5t-28.5 51.5l-14 77q0 74 77 107l80 14h271v135h-496zM150 537q0 -37 32 -62l35 -16l59 30q86 33 142 33l55 -6q82 -18 129 -84l33 -63v-54h231v555h-266v-196q-6 -25 -14 -33l-25 -10 l-24 -2h-281h-25q-53 -6 -77 -70z" />
<glyph unicode="&#xc1;" horiz-adv-x="1071" d="M-74 977h1145l76 -107h-203v-870l-106 80v90l-33 -33q-35 -29 -103 -53l-30 -8l-43 -2q-80 0 -166 67l-64 56l-30 32l116 93q61 53 62 94q0 25 -27 37l-28 6l-33 2q-117 -12 -187 -88q-47 -47 -71 -135l-4 -35q0 -92 108 -168q18 -16 109 -60l69 -30l-18 -49l-47 20 q-111 49 -178.5 92t-96.5 78q-37 43 -51 121l-2 31q0 61 33 124l35 54l-43 45q-43 59 -56 133l-2 22q0 68 72 101q25 10 86 18h270v135h-487zM143 539q0 -23 31 -60l31 -20l59 33q82 35 160 34l45 -2q68 -6 118 -52t50 -95q0 -20 -10 -39q-23 -45 -84 -92l-60 -49l31 -19 q41 -18 86 -18q37 0 55 6q76 18 136 90l47 66v548h-244v-196q0 -18 -14 -35l-25 -10h-25h-286q-31 0 -47.5 -6.5t-38.5 -38.5z" />
<glyph unicode="&#xc2;" d="M-303 -92l31 12q37 12 77 12q43 0 54 -4l49 -20l67 -37l56 -41l112 -98l84 -76l43 -43l-28 -33l-47 43l-89 80l-63 53q-39 35 -119 60l-41 6q-45 0 -67 -10q-12 0 -31 -13z" />
<glyph unicode="&#xc3;" d="M-520 0l96 96l100 -94l-100 -98z" />
<glyph unicode="&#xc4;" d="M-610 1356l37 14l12 -24q29 -57 59 -82q70 -66 146 -66q63 0 123 47q14 10 53 62l18 34l76 -57l-43 -70q-61 -74 -145 -94l-27 -4h-21q-63 0 -115 27.5t-102 83.5l-59 100zM-449 1389l82 79l80 -77l-82 -84z" />
<glyph unicode="&#xc5;" d="M-561 -238l315 246l285 -284l-43 -46l-219 222l-266 -211z" />
<glyph unicode="&#xc6;" d="M-289 1227l115 114l111 -112l-115 -113z" />
<glyph unicode="&#xc7;" d="M-356 1311q0 63 28.5 105t87.5 42q57 0 107 -41l41 -41l-21 -22l-14 8l-39 8q-27 0 -53 -16q-29 -12 -41 -47t-16 -72q0 -43 8 -68l24 -63l27 -47l33 -47l32 -39h-43l-30 45q-68 104 -99 166l-24 63z" />
<glyph unicode="&#xc8;" d="M-360 1311q0 63 28.5 105t87.5 42q57 0 107 -41l41 -41l-21 -22l-14 8l-39 8q-27 0 -53 -16q-29 -12 -41 -47t-17 -72q0 -43 9 -68l24 -63l27 -47l33 -47l32 -39h-43l-30 45q-68 104 -99 166l-24 63zM-193 1188l84 84l80 -80l-84 -82z" />
<glyph unicode="&#xc9;" horiz-adv-x="352" d="M-76 977h430l72 -107h-197v-870l-106 80v790h-125z" />
<glyph unicode="&#xca;" horiz-adv-x="352" d="M-74 977h215l-49 65q-51 90 -51 156t35 120t88 79l47 16q37 10 74 10q92 0 168 -51q82 -51 172 -151l67 -86v-70q-23 43 -57 84q-78 98 -170 156q-20 14 -58 25t-79 11q-78 0 -140 -55q-23 -23 -47 -72l-14 -75q0 -55 27 -115l26 -47h174l72 -107h-197v-872l-106 82v790 h-125z" />
<glyph unicode="&#xcb;" horiz-adv-x="352" d="M-74 977h215l-49 65q-51 90 -51 156t35 120t88 79l47 16q37 10 74 10q92 0 168 -51q82 -51 172 -151l67 -86v-70q-23 43 -57 84q-78 98 -170 156q-20 14 -58 25t-79 11q-78 0 -140 -55q-23 -23 -47 -72l-14 -75q0 -55 27 -115l26 -47h174l72 -107h-197v-872l-106 82v790 h-125zM721 1290l98 101l96 -97l-98 -98z" />
<glyph unicode="&#xcc;" horiz-adv-x="352" d="M-74 977h215l-49 65q-51 90 -51 156t35 121t80 74l73 24l54 6q90 0 163 -47q66 -35 134 -94l22 -20l-4 28l-2 27l2 47q0 12 14 33q25 43 82 61l45 6q53 0 109 -49l35 -51l-19 -21l-24 17q-10 6 -31 10t-31 6q-33 0 -59.5 -16.5t-46.5 -52.5l-15 -60q0 -51 23 -102l12 -21 v-59q-23 43 -57 84q-78 98 -170 156q-20 14 -58 25t-79 11q-78 0 -140 -55q-23 -23 -47 -72l-14 -75q0 -55 27 -115l26 -47h174l72 -107h-197v-872l-106 82v790h-125z" />
<glyph unicode="&#xcd;" horiz-adv-x="352" d="M-74 977h215l-49 65q-51 90 -51 156t35 121t80 74l73 24l54 6q90 0 163 -47q66 -35 134 -94l22 -20l-4 28l-2 27l2 47q0 12 14 33q25 43 82 61l45 6q53 0 109 -49l35 -51l-19 -21l-24 17q-10 6 -31 10t-31 6q-33 0 -59.5 -16.5t-46.5 -52.5l-15 -60q0 -51 23 -102l12 -21 v-59q-23 43 -57 84q-78 98 -170 156q-20 14 -58 25t-79 11q-78 0 -140 -55q-23 -23 -47 -72l-14 -75q0 -55 27 -115l26 -47h174l72 -107h-197v-872l-106 82v790h-125zM721 1221l82 79l80 -77l-84 -80z" />
<glyph unicode="&#xce;" horiz-adv-x="352" d="M-74 977h215l-39 57l-28 72q-10 41 -11 74q0 49 4.5 65.5t20.5 44.5q43 90 125 129t166 39q55 0 132 -17.5t130 -45.5q61 -25 123 -62l168 -106l115 -84l53 -43v-49l-166 118q-14 12 -55 39t-78 47q-88 53 -137 74q-117 39 -201 39q-98 0 -177 -46t-122 -161 q-12 -43 -12 -76q0 -49 18 -92l10 -16h174l72 -107h-197v-872l-106 82v790h-123z" />
<glyph unicode="&#xcf;" horiz-adv-x="352" d="M-74 977h215l-39 57l-28 72q-10 41 -11 74q0 49 4.5 65.5t20.5 44.5q43 90 125 129t166 39q55 0 132 -17.5t130 -45.5q61 -25 123 -62l168 -106l115 -84l53 -43v-49l-166 118q-14 12 -55 39t-78 47q-88 53 -137 74q-117 39 -201 39q-98 0 -177 -46t-122 -161 q-12 -43 -12 -76q0 -49 18 -92l10 -16h174l72 -107h-197v-872l-106 82v790h-123zM1075 1333l111 111l106 -109l-110 -108z" />
<glyph unicode="&#xd0;" horiz-adv-x="352" d="M-74 977h215l-39 57l-28 72q-10 41 -11 74q0 49 4.5 65.5t20.5 44.5q43 90 124 129t161 39q53 0 133 -18q47 -6 72 -17l71 -30q35 -14 92.5 -47t135.5 -84l139 -95l-12 23l-21 59l-4 47q0 61 30.5 104.5t69.5 55.5l54 8q57 0 112 -49l35 -51l-20 -21l-25 17 q-35 18 -68 18q-29 0 -63 -18q-29 -18 -49 -51q-12 -31 -13 -68l7 -59l16 -47l8 -15l27 -20v-49l-31 22l-135 98l-137 89l-133 71q-96 43 -197 43q-106 0 -178 -47q-78 -55 -125 -166q-12 -43 -12 -76q0 -49 18 -92l10 -16h174l72 -107h-197v-872l-106 82v790h-123z" />
<glyph unicode="&#xd1;" horiz-adv-x="352" d="M-74 977h215l-39 57l-28 72q-10 41 -11 74q0 49 4.5 65.5t20.5 44.5q43 90 124 129t161 39q53 0 133 -18q47 -6 72 -17l71 -30q35 -14 92.5 -47t135.5 -84l139 -95l-12 23l-21 59l-4 47q0 61 30.5 104.5t69.5 55.5l54 8q57 0 112 -49l35 -51l-20 -21l-25 17 q-35 18 -68 18q-29 0 -63 -18q-29 -18 -49 -51q-12 -31 -13 -68l7 -59l16 -47l8 -15l27 -20v-49l-31 22l-135 98l-137 89l-133 71q-96 43 -197 43q-106 0 -178 -47q-78 -55 -125 -166q-12 -43 -12 -76q0 -49 18 -92l10 -16h174l72 -107h-197v-872l-106 82v790h-123z M1124 1210l82 80l78 -76l-82 -81z" />
<glyph unicode="&#xd2;" horiz-adv-x="352" d="M-264 1284q0 57 20 105q35 80 135 79q68 0 121 -51q35 -35 84 -127l54 -133l32 -125l8 -55h164l72 -107h-197v-872l-106 82v790h-119l-72 107h213l-12 47l-16 53q-37 111 -87 195t-122 84q-55 0 -92 -62l-13 -39l-4 -38l2 -46q0 -14 15 -45l18 -39h-47l-25 60 q-10 35 -18 75t-8 62z" />
<glyph unicode="&#xd3;" horiz-adv-x="372" d="M-264 1284q0 57 20 105q35 80 135 79q68 0 121 -51q35 -35 84 -127l54 -133l32 -125l8 -55h183l73 -107h-217v-872l-106 82v790h-119l-72 107h213l-8 59q-25 127 -92 242q-18 37 -57 57l-33 15l-39 6q-59 0 -100 -62l-13 -39l-4 -38l2 -46q0 -14 15 -45l18 -39h-47 l-25 60q-10 35 -18 75t-8 62zM139 1350l84 84l80 -82l-84 -82z" />
<glyph unicode="&#xd4;" horiz-adv-x="372" d="M-264 1284q0 57 20 105q37 84 131 84q55 0 105 -37q27 -20 37 -35l12 -19q6 27 16 37q20 29 56 45l43 9q41 0 102 -43l43 -44l-20 -20l-15 8q-37 18 -69 19l-29 -4q-37 -12 -57 -58l-13 -45l21 -43l37 -96l32 -111l17 -59h168l73 -107h-217v-872l-106 82v790h-119 l-72 107h224q-12 74 -27 104q-37 119 -90 195q-49 80 -129 80q-57 0 -94 -62q-16 -39 -17 -82q0 -66 23 -104l12 -21h-47l-25 60q-10 35 -18 75t-8 62z" />
<glyph unicode="&#xd5;" horiz-adv-x="372" d="M-264 1284q0 57 20 105q37 84 131 84q55 0 105 -37q27 -20 37 -35l12 -19q6 27 16 37q20 29 56 45l43 9q41 0 102 -43l43 -44l-20 -20l-15 8q-37 18 -69 19l-29 -4q-37 -12 -57 -58l-13 -45l21 -43l37 -96l32 -111l17 -59h168l73 -107h-217v-872l-106 82v790h-119 l-72 107h224q-12 74 -27 104q-37 119 -90 195q-49 80 -129 80q-57 0 -94 -62q-16 -39 -17 -82q0 -66 23 -104l12 -21h-47l-25 60q-10 35 -18 75t-8 62zM186 1223l76 75l74 -73l-78 -74z" />
<glyph unicode="&#xd6;" d="M-557 -162l33 37l43 -33l88 -55l67 -37q63 -29 109 -29l24 3q68 6 106 44.5t38 88.5q0 45 -45 65l-27 4q-41 0 -80 -32l-32 -35l-109 80l33 36q47 37 114 37l27 -2q74 0 137 -76q51 -70 51 -147q0 -62 -45 -109q-57 -51 -139 -51q-88 0 -181 57.5t-157 110.5z" />
<glyph unicode="&#xd7;" d="M-557 -236l37 33l55 -53q70 -63 131 -92q27 -12 53 -19l48 -6l53 6q10 0 39 19q74 47 73 104q0 25 -14 41l-43 15l-39 -7q-16 -6 -53 -43l-10 -16l-86 68l28 32q41 35 95 35q59 0 112 -35q50 -36 70 -102l4 -39q0 -53 -37 -95t-104 -56l-50 -5l-45 2q-20 0 -53 17 q-39 12 -96 53l-109 88zM-520 0l96 96l100 -94l-100 -98z" />
<glyph unicode="&#xd8;" d="M-596 -395l33 33l31 -25q63 -49 151 -90q35 -12 70 -12q43 0 84 13t69 34q25 12 45 39l15 43q0 53 -60 53q-14 0 -42.5 -12.5t-51.5 -40.5l-12 -17l-86 66l28 30q45 33 95 33q66 0 115 -29.5t67 -99.5l2 -26q0 -51 -34 -93.5t-85 -54.5l-35 -6l-47 -4q-47 0 -75 10 q-39 6 -54 16l-47 23l-55 31l-60 41zM-547 -223l301 231l285 -284l-43 -46l-219 222l-254 -197z" />
<glyph unicode="&#xd9;" d="M-596 -395l33 33l31 -25q63 -49 151 -90l37 -10l41 -5q51 0 94 15l41 12l29 16q49 31 51 60q0 35 -78 35l-47 -4l-59 -21l-13 -8l-59 76l27 18q51 20 98 21q63 0 98 -23q51 -30 76 -98l2 -29q0 -41 -28.5 -75.5t-88.5 -53.5l-35 -6l-47 -4q-37 0 -86 12q-43 6 -96 39 l-51 29l-60 41z" />
<glyph unicode="&#xda;" d="M-381 -152q0 39 14 68q41 92 154 92q92 0 176 -65l88 -93l60 -79l88 -123l-35 -25l-70 94l-61 80q-47 59 -91 88t-96 29q-104 0 -141 -84l-6 -20l-2 -21q0 -63 72 -63q37 0 57 10q25 6 53 28l25 23l69 -86l-36 -27q-51 -29 -103 -28q-33 0 -59.5 7t-59.5 30 q-96 61 -96 165z" />
<glyph unicode="&#xdb;" d="M-520 0l96 96l100 -94l-100 -98zM-338 -231l8 47q6 31 45 61q12 6 37 16.5t51 10.5q59 0 134 -56l88 -90l65 -71l57 -64l25 -31l-31 -24l-75 84l-123 125q-49 43 -103 43q-31 0 -61.5 -18.5t-38.5 -41.5l-14 -51q0 -49 51 -49q33 0 49 10l59 31l13 6l47 -74l-29 -20 l-35 -16l-41 -7l-33 4q-20 0 -49 21q-41 25 -68.5 67t-27.5 87z" />
<glyph unicode="&#xdc;" d="M-561 -238l315 246l285 -284l-43 -46l-219 222l-266 -211zM-401 -383l4 43q4 25 39.5 56.5t91.5 31.5q47 0 121 -43l67 -61l64 -76l77 -105l-30 -22l-64 86q-43 59 -108 102l-45 23l-43 8q-35 0 -63.5 -18.5t-37.5 -42.5l-6 -39q0 -53 51 -54q20 0 41 11l35 14 q12 4 29 16l12 11l47 -74l-26 -21l-35 -16l-43 -6q-35 0 -79 22.5t-73 63.5l-16 35z" />
<glyph unicode="&#xdd;" d="M-401 -383l4 43q4 25 39.5 56.5t91.5 31.5q47 0 121 -43l67 -61l64 -76l77 -105l-30 -22l-64 86q-43 59 -108 102l-45 23l-43 8q-35 0 -63.5 -18.5t-37.5 -42.5l-6 -39q0 -53 51 -54q20 0 41 11l35 14q12 4 29 16l12 11l47 -74l-26 -21l-35 -16l-43 -6q-35 0 -79 22.5 t-73 63.5l-16 35z" />
<glyph unicode="&#xde;" d="M-469 -102q0 39 16 69q12 33 53.5 62.5t112.5 48.5l62 8l94 -80l-45 -4l-31 -2l-41 -14q-80 -25 -125 -70q-35 -39 -35 -76l5 -20q23 -63 118 -64h29l33 4l71 15l15 6l47 -103l-33 -10q-43 -12 -80 -12q-45 0 -67 8q-61 16 -114.5 59.5t-74.5 108.5z" />
<glyph unicode="&#xdf;" d="M-520 -139q12 45 71 71q25 6 37.5 8.5t38.5 2.5h142v143h106v-231h-237l-48 -9q-43 -12 -32 -49q6 -31 63 -39l27 -2h276v-90h-213q-45 -6 -55 -14q-45 -18 -45 -86q0 -25 29 -45q29 -10 63 -15l39 2q23 0 47 9l92 22q27 6 96 37l25 14v-133l-53 -8l-133 -10h-64l-43 8 q-74 10 -133 53q-70 51 -70 111q0 14 11 41q6 25 61 49l23 8q-47 25 -68 43q-53 45 -53 109z" />
<glyph unicode="&#xe0;" d="M-604 1446h51l4 -74q0 -35 10 -51q25 -53 88 -53q119 0 164 -12.5t88 -49.5q12 -12 47 -88l11 -28l18 -125h-43l-20 108l-19 33q-18 31 -45 39l-51 8l-96 2q-113 0 -160 47q-23 23 -41 94l-4 58z" />
<glyph unicode="&#xe1;" d="M-657 1354v92h49v-74v-26q12 -53 90 -78l176 -25q59 -6 90 -31q23 -23 53 -77l17 -45l22 -125h-43l-24 108l-21 31q-29 31 -67 31h-23q-98 0 -135 10q-88 12 -139 57q-23 23 -41 94zM-299 1360l100 98l95 -96l-99 -96z" />
<glyph unicode="&#xe2;" d="M-684 1354v94h53v-76l2 -29q18 -61 90 -75l138 -15l51 -4l-12 27q-12 35 -13 78q0 43 29 77.5t80 34.5q27 0 52.5 -7t66.5 -42l34 -33l-18 -30l-33 16q-29 12 -61 8q-31 -6 -43.5 -32.5t-16.5 -61.5q0 -41 11 -70l4 -16l28 -53l21 -55l35 -125h-45l-35 108q-6 27 -17 37 q-27 39 -67 39h-68l-71 2q-16 0 -35 2t-39 8q-39 6 -71 38t-46 97z" />
<glyph unicode="&#xe3;" d="M-684 1354v94h53v-76l2 -29q18 -61 90 -75l138 -15l51 -4l-12 27q-12 35 -13 78q0 43 29 77.5t80 34.5q27 0 52.5 -7t66.5 -42l34 -33l-18 -30l-33 16q-29 12 -61 8q-31 -6 -43.5 -32.5t-16.5 -61.5q0 -41 11 -70l4 -16l28 -53l21 -55l35 -125h-45l-35 108q-6 27 -17 37 q-27 39 -67 39h-68l-71 2q-16 0 -35 2t-39 8q-39 6 -71 38t-46 97zM-233 1249l71 72l72 -72l-72 -71z" />
<glyph unicode="&#xe4;" d="M-545 1444l66 -6q20 -2 66 -29t102 -88q29 -33 90 -139q45 -74 80 -170l16 -47h-47l-18 55q-23 66 -50 110l-24 41q-18 31 -41 54q-35 37 -80 61l-49 17l-55 4z" />
<glyph unicode="&#xe5;" d="M-571 1444q43 0 67 -6q18 0 72 -33q49 -25 94 -84l43 -57l49 -82q31 -45 64 -140l26 -77h-47l-14 55q-20 74 -47 110q-18 33 -30.5 52.5t-35.5 42.5q-35 37 -70.5 55t-74.5 25l-41 2zM-227 1360l98 98l96 -96l-98 -96z" />
<glyph unicode="&#xe6;" d="M-571 1444l65 -6l27 -8l33 -17l38 -24l39 -35l17 -17q0 35 10 52q18 45 84 65l27 4q41 0 108 -43q10 -4 47 -45l-16 -18l-29 14l-65 14q-20 0 -43 -10t-50 -67l-12 -46l27 -43l41 -73l49 -121l18 -55h-47l-16 59q-16 57 -48 112.5t-57.5 85t-81.5 60.5q-31 16 -59 18 l-51 7z" />
<glyph unicode="&#xe7;" d="M-571 1444l65 -6l27 -8l33 -17l38 -24l39 -35l17 -17q0 35 10 52q18 45 84 65l27 4q41 0 108 -43q10 -4 47 -45l-16 -18l-29 14l-65 14q-20 0 -43 -10t-50 -67l-12 -46l27 -43l41 -73l49 -121l18 -55h-47l-16 59q-16 57 -48 112.5t-57.5 85t-81.5 60.5q-31 16 -59 18 l-51 7zM-195 1217l82 79l80 -75l-84 -82z" />
<glyph unicode="&#xe8;" d="M-555 1237l35 -2q27 0 55 -14l41 -23l31 -27l59 -65q37 -43 70 -109l12 -28h-37l-8 18l-29 49l-51 47l-29 17l-30 14q-31 12 -58 12h-32zM-545 1481l49 -2q37 0 93 -41q53 -35 106 -117q23 -37 48.5 -83t53.5 -103l58 -136l10 -30h-39l-20 53l-19 47l-16 33l-70 119 q-43 63 -115 102l-75 25l-33 6z" />
<glyph unicode="&#xe9;" d="M-555 1237l35 -2q27 0 55 -14l41 -23l31 -27l59 -65q37 -43 70 -109l12 -28h-37l-8 18l-29 49l-51 47l-29 17l-30 14q-31 12 -58 12h-32zM-553 1481l51 -2q35 0 88.5 -38t110.5 -120q35 -49 102 -186l47 -115l19 -51h-39l-21 53l-18 47l-16 33l-70 119q-43 66 -115 102 l-75 25l-33 6zM-203 1356l94 94l91 -90l-95 -92z" />
<glyph unicode="&#xea;" d="M-555 1237l35 -2q27 0 55 -14l41 -23l31 -27l59 -65q37 -43 70 -109l12 -28h-37l-8 18l-29 49l-51 47l-29 17l-30 14q-31 12 -58 12h-32zM-553 1481l51 -2q35 0 88 -41l54 -47l24 -29l6 29q25 66 90 65q51 0 111 -39l51 -39l-14 -24l-25 12q-31 12 -61 12q-16 0 -43 -12 t-41 -57l-8 -41l69 -133l47 -115l19 -51h-39l-21 53l-18 47l-16 33l-70 119q-43 66 -115 102l-75 25l-33 6z" />
<glyph unicode="&#xeb;" d="M-555 1237l35 -2q27 0 55 -14l41 -23l31 -27l59 -65q37 -43 70 -109l12 -28h-37l-8 18l-29 49l-51 47l-29 17l-30 14q-31 12 -58 12h-32zM-553 1481l51 -2q35 0 88 -41l54 -47l24 -29l6 29q25 66 90 65q51 0 111 -39l51 -39l-14 -24l-25 12q-31 12 -61 12q-16 0 -43 -12 t-41 -57l-8 -41l69 -133l47 -115l19 -51h-39l-21 53l-18 47l-16 33l-70 119q-43 66 -115 102l-75 25l-33 6zM-178 1210l74 72l71 -70l-76 -73z" />
<glyph unicode="&#xec;" d="M-567 1352l37 20l20 -39l23 -37l26 -34q16 -16 55 -39l58 -15q49 0 100 39q31 23 55 62l19 34l78 -63q-10 -25 -37 -66q-53 -72 -133 -92l-45 -4q-55 0 -100.5 28t-86.5 83l-57 96z" />
<glyph unicode="&#xed;" d="M-682 1346l37 18q6 -27 14 -37q20 -39 39 -61l45 -37l47 -10l39 6q18 6 35 22q33 27 49 66l6 16l76 -47l-14 -33q-6 -16 -21 -30q-49 -68 -116 -80l-33 -4q-43 0 -80 24.5t-70 69.5q-12 16 -41 78zM-236 1274l99 98l98 -96l-100 -98z" />
<glyph unicode="&#xee;" d="M-768 1348l35 20l8 -25q18 -49 57 -87.5t95 -38.5q49 0 84 28q23 23 47 66l10 32l76 -57l-13 -47l-16 -29q-43 -74 -125 -88l-27 -2q-53 0 -93 25.5t-81 83.5l-41 78zM-356 1311q0 63 28.5 105t87.5 42q57 0 107 -41l41 -41l-21 -22l-14 8l-39 8q-27 0 -53 -16 q-29 -12 -41 -47t-16 -72q0 -43 8 -68l24 -63l27 -47l33 -47l32 -39h-43l-30 45q-68 104 -99 166l-24 63z" />
<glyph unicode="&#xef;" d="M-768 1348l35 20l8 -25q18 -49 57 -87.5t95 -38.5q49 0 84 28q23 23 47 66l10 32l76 -57l-13 -47l-16 -29q-43 -74 -125 -88l-27 -2q-53 0 -93 25.5t-81 83.5l-41 78zM-356 1311q0 63 28.5 105t87.5 42q57 0 107 -41l41 -41l-21 -22l-14 8l-39 8q-27 0 -53 -16 q-29 -12 -41 -47t-16 -72q0 -43 8 -68l24 -63l27 -47l33 -47l32 -39h-43l-30 45q-68 104 -99 166l-24 63zM-193 1188l84 84l80 -80l-84 -82z" />
<glyph unicode="&#xf0;" horiz-adv-x="655" d="M-68 977h725l70 -107h-192v-192q-4 -20 -11 -27l-16 -8l-16 -4h-250l-27 -12q-29 -18 -29 -56l7 -39q6 -23 36 -59l27 -16l45 20q63 23 107 23q45 0 78.5 -18.5t72.5 -69.5l21 -41l12 -37l4 -39q0 -39 -20.5 -75t-65.5 -73q-20 -16 -90 -47l-47 -14l207 -209l-37 -37 l-230 228q-35 0 -49 10q-57 20 -98 59q-16 16 -35 47l-10 43q0 27 17.5 44.5t43.5 17.5q29 0 49 -21l78 -78l47 11l50 18q57 27 86 60l20 28q12 18 12 43q0 16 -10 33q-16 25 -49 25q-25 0 -74 -19l-57 -18q-53 -6 -101 28q-43 37 -92 99l-26 41l-23 47l-10 59q0 53 63 84 l66 10h215v131h-424z" />
<glyph unicode="&#xf1;" horiz-adv-x="815" d="M162 256v76h633v-76h-633zM162 494v88h633v-88h-633z" />
<glyph unicode="&#xf2;" horiz-adv-x="362" d="M-39 907h19v21h-19v-21z" />
<glyph unicode="&#xf3;" horiz-adv-x="268" d="M-39 907h19v21h-19v-21z" />
<glyph unicode="&#xf4;" horiz-adv-x="133" d="M-39 907h19v21h-19v-21z" />
<glyph unicode="&#xf5;" horiz-adv-x="102" d="M-39 907h19v21h-19v-21z" />
<glyph unicode="&#xf6;" horiz-adv-x="137" d="M-39 907h19v21h-19v-21z" />
<glyph unicode="&#xf7;" horiz-adv-x="57" d="M-39 907h19v21h-19v-21z" />
<glyph unicode="&#xf8;" horiz-adv-x="86" d="M-39 907h19v21h-19v-21z" />
<glyph unicode="&#xf9;" horiz-adv-x="51" d="M-39 907h19v21h-19v-21z" />
<glyph unicode="&#xfa;" horiz-adv-x="106" d="M-39 907h19v21h-19v-21z" />
<glyph unicode="&#xfb;" horiz-adv-x="333" d="M-39 907h19v21h-19v-21z" />
<glyph unicode="&#xfc;" horiz-adv-x="579" d="M-39 907h19v21h-19v-21z" />
<glyph unicode="&#xfd;" horiz-adv-x="126" d="M-39 907h19v21h-19v-21z" />
<glyph unicode="&#xfe;" horiz-adv-x="69" d="M-39 907h19v21h-19v-21z" />
<glyph unicode="&#x2000;" horiz-adv-x="740" />
<glyph unicode="&#x2001;" horiz-adv-x="1481" />
<glyph unicode="&#x2002;" horiz-adv-x="740" />
<glyph unicode="&#x2003;" horiz-adv-x="1481" />
<glyph unicode="&#x2004;" horiz-adv-x="493" />
<glyph unicode="&#x2005;" horiz-adv-x="370" />
<glyph unicode="&#x2006;" horiz-adv-x="246" />
<glyph unicode="&#x2007;" horiz-adv-x="246" />
<glyph unicode="&#x2008;" horiz-adv-x="185" />
<glyph unicode="&#x2009;" horiz-adv-x="296" />
<glyph unicode="&#x200a;" horiz-adv-x="82" />
<glyph unicode="&#x2010;" horiz-adv-x="567" d="M70 541h362l64 -92h-363z" />
<glyph unicode="&#x2011;" horiz-adv-x="567" d="M70 541h362l64 -92h-363z" />
<glyph unicode="&#x2012;" horiz-adv-x="567" d="M70 541h362l64 -92h-363z" />
<glyph unicode="&#x2013;" horiz-adv-x="1165" d="M70 541h870l154 -92h-873z" />
<glyph unicode="&#x2014;" horiz-adv-x="2189" d="M70 541h1740l308 -92h-1745z" />
<glyph unicode="&#x202f;" horiz-adv-x="296" />
<glyph unicode="&#x205f;" horiz-adv-x="370" />
<glyph unicode="&#xe000;" horiz-adv-x="972" d="M0 0v973h973v-973h-973z" />
</font>
</defs>
</svg>
