<?xml version="1.0" standalone="no"?>
<!DOCTYPE svg PUBLIC "-//W3C//DTD SVG 1.1//EN" "http://www.w3.org/Graphics/SVG/1.1/DTD/svg11.dtd" >
<svg xmlns="http://www.w3.org/2000/svg">
<metadata></metadata>
<defs>
<font id="av-web-guj1normal" horiz-adv-x="4" >
<font-face units-per-em="2048" ascent="1638" descent="-410" />
<missing-glyph horiz-adv-x="643" />
<glyph horiz-adv-x="2048" />
<glyph horiz-adv-x="2048" />
<glyph unicode="&#xd;" horiz-adv-x="643" />
<glyph unicode=" "  horiz-adv-x="643" />
<glyph unicode="&#x09;" horiz-adv-x="643" />
<glyph unicode="&#xa0;" horiz-adv-x="643" />
<glyph unicode="!" horiz-adv-x="491" d="M223 1249q0 84 10 105q23 51 99 51q51 0 80.5 -33t29.5 -123q0 -119 -20 -254q-49 -332 -49 -452v-224h-62v224q0 63 -14 181t-44 276.5t-30 248.5zM246 94q0 39 31.5 69t72.5 30q45 0 74 -29q31 -25 31 -70q0 -39 -32 -68.5t-73 -29.5t-72.5 27.5t-31.5 70.5z" />
<glyph unicode="&#x22;" horiz-adv-x="491" d="M51 881q0 139 55 249q72 141 142 154l37 -49q-29 -12 -66 -51q-12 -16 -24.5 -33.5t-21.5 -41.5t-17 -73v-24v-17q-4 -10 -4 -14q47 0 75 -29q31 -25 31 -71q0 -43 -30.5 -74t-73.5 -31q-37 0 -70 31t-33 74z" />
<glyph unicode="#" horiz-adv-x="1001" d="M55 449q10 -88 53.5 -164t112.5 -129l43 53q-53 39 -96 108q-35 63 -47 140zM55 573q12 96 54.5 168t115.5 127l43 -53q-57 -41 -97 -108.5t-50 -141.5zM332 90l86 -24l92 -9q80 0 166 31l-29 66q-70 -29 -143 -29q-39 0 -73 6t-71 23zM332 934q45 16 85 24.5t87 8.5 q94 0 172 -33l-29 -66q-70 29 -143 29q-74 0 -146 -31zM743 205q125 100 144 252l65 -8q-23 -182 -170 -297zM743 815l39 53q63 -47 115 -129q45 -78 57 -166l-67 -8q-10 76 -47 139.5t-97 110.5z" />
<glyph unicode="$" horiz-adv-x="1634" d="M113 436l57 23q-12 -33 92 -197q121 -184 254 -184q98 0 147.5 55t49.5 156q0 92 -35 155l-37 50l-37 -25l-49 -31l-51 -24l-41 -13l-57 111q31 -12 133 47q125 76 125 193q0 61 -33 87.5t-86 26.5q-66 0 -162 -37q-80 -31 -86 -43l-70 109q12 12 92 43q98 37 166 37 q100 0 176 -83t76 -194q0 -49 -19.5 -96t-35.5 -65l37 -5l45 -4q53 0 196.5 154t276.5 154q129 0 213 -105q72 -94 72 -233q0 -147 -84 -239.5t-213 -92.5q-109 0 -201 80q-111 100 -127 186l55 23q20 -66 92 -121q74 -51 170 -51q111 0 170.5 71.5t59.5 186.5 q0 207 -168 207q-111 0 -232.5 -140.5t-195.5 -140.5l-82 6l-57 8q35 -35 69.5 -107.5t34.5 -129.5q0 -147 -94 -221q-70 -53 -168 -54q-170 0 -324 228q-127 195 -114 239zM567 1280l49 23q125 -223 375 -224q264 0 387 224l43 -23q-45 -147 -158.5 -228t-271.5 -81 q-152 0 -263.5 81t-160.5 228zM905 1315q0 33 25.5 60.5t60.5 27.5t61.5 -26.5t26.5 -61.5t-25.5 -60.5t-62.5 -25.5t-61.5 24.5t-24.5 61.5z" />
<glyph unicode="%" horiz-adv-x="866" d="M45 543l33 20q51 -115 98 -174q139 -174 336 -174q106 0 175 52t69 159q0 49 -24.5 70.5t-72.5 21.5l-81 -4l-66 -2q-94 0 -190 68q-121 86 -121 225q0 92 37.5 152.5t113.5 60.5h355v-113h-340q-55 0 -90 -31.5t-35 -99.5t39 -108q41 -37 102 -37l47 6q39 8 70.5 12 t64.5 4q226 1 226 -239q0 -133 -64.5 -238.5t-181.5 -105.5q-133 0 -262 120q-90 84 -177 228q-63 111 -61 127z" />
<glyph unicode="&#x26;" horiz-adv-x="460" d="M121 240q0 39 31.5 68.5t72.5 29.5q45 0 74 -29q31 -24 31 -69q0 -39 -32 -69t-73 -30t-72.5 28t-31.5 71zM121 780q0 39 31.5 69t72.5 30q45 0 74 -29q31 -25 31 -70q0 -39 -32 -68.5t-73 -29.5t-72.5 27.5t-31.5 70.5z" />
<glyph unicode="'" horiz-adv-x="491" d="M238 778l36 25q39 33 72 92l21 59l6 54v14l-2 10q-29 0 -54 12q-53 25 -53 89q0 47 31 74.5t74 27.5t71 -29q31 -24 31 -73q0 -184 -100 -310q-33 -39 -101 -86z" />
<glyph unicode="(" horiz-adv-x="671" d="M111 705q0 145 18 261.5t59 221.5q78 201 273 405l57 -34q-156 -201 -225 -400q-31 -94 -47.5 -208.5t-16.5 -245.5q0 -250 62.5 -434.5t218.5 -389.5l-53 -41q-182 195 -264 393.5t-82 471.5z" />
<glyph unicode=")" horiz-adv-x="671" d="M174 1559l57 34q190 -199 270.5 -403t80.5 -485q0 -270 -78 -466t-268 -399l-54 41q152 201 216.5 387.5t64.5 436.5q0 272 -62.5 457.5t-226.5 396.5z" />
<glyph unicode="*" horiz-adv-x="442" d="M190 106v1125l125 -103v-1130z" />
<glyph unicode="+" horiz-adv-x="1345" d="M49 485q0 43 31 70t78 27q35 0 65 -23q25 -14 31 -31q59 12 113 68q49 55 49 133q0 72 -51 121q-25 23 -55.5 35t-71.5 12q-35 0 -97 -18l-53 -19l-39 127l70 17l76 10q113 0 200.5 -101.5t87.5 -226.5q0 -127 -82 -217q-25 -25 -86 -68l54 -57q68 -57 123 -57 q96 0 157 110q16 33 39 113q-31 8 -55.5 44t-24.5 79q0 96 99 96q43 0 81.5 -42t38.5 -93q0 -29 -8 -53l62 6q25 6 47 20l49 37l24 25v389l123 -105v-807q0 -37 29 -38q53 0 98 71l17 33l65 -78l-39 -51q-49 -53 -108 -53q-70 0 -127.5 55t-57.5 135v326l-38 -19l-64 -8 l-88 6q0 -78 -104 -194q-78 -86 -177 -86q-86 0 -188 90q-78 68 -86 94l-20 -4l-82 -10q-31 0 -68 31.5t-37 78.5z" />
<glyph unicode="," horiz-adv-x="491" d="M238 -248q29 14 59 45q16 18 24.5 30.5t26.5 43.5l21 57l8 47l-2 19l-2 12q-29 0 -54 12q-55 25 -55 86q0 45 32 75t73 30t71.5 -30t30.5 -83q0 -176 -102 -297q-33 -41 -103 -86z" />
<glyph unicode="-" horiz-adv-x="614" d="M57 471v84h498v-84h-498z" />
<glyph unicode="." horiz-adv-x="491" d="M264 96q0 43 31 74t74 31q37 0 69.5 -31t32.5 -74q0 -37 -30.5 -69.5t-71.5 -32.5q-45 0 -75 28.5t-30 73.5z" />
<glyph unicode="/" horiz-adv-x="421" d="M23 -307l319 1622h53l-319 -1622h-53z" />
<glyph unicode="0" horiz-adv-x="1038" d="M53 526q0 186 135.5 321.5t323.5 135.5q207 0 333 -136t126 -343q0 -199 -150 -328q-137 -115 -313 -115q-186 0 -320.5 136.5t-134.5 328.5zM143 463q0 -129 83 -221t227 -92q184 0 311 135t127 305q0 121 -87 210t-212 89q-184 0 -322 -137q-127 -131 -127 -289z" />
<glyph unicode="1" horiz-adv-x="1038" d="M174 791q0 98 70.5 177t167.5 79q98 0 171.5 -48.5t73.5 -134.5v-737l7 -25q4 -4 24 -8q37 0 80 49l37 50l65 -72q-16 -47 -58 -79t-107 -32q-49 0 -107 60q-63 68 -63 137v389l-25 -16q-37 -18 -92 -19q-102 0 -170 55q-74 61 -74 175zM270 725q0 -39 29 -64.5t70 -25.5 q35 0 104 39l64 39v215q0 12 -7 18q-12 12 -51 12q-59 0 -134 -72.5t-75 -160.5z" />
<glyph unicode="2" horiz-adv-x="1038" d="M166 1004l74 18q98 20 135 20q133 0 236.5 -106.5t103.5 -243.5q0 -170 -123 -272q-41 -31 -125 -68q33 -78 59 -112q86 -115 217 -115q31 0 59.5 6t59.5 23l25 14l41 -127l-51 -23q-63 -23 -119 -22q-123 0 -248 174q-39 55 -100 176l-41 -4h-33q-39 0 -79 38t-40 81 q0 45 28.5 74.5t71.5 29.5q41 0 93 -51l22 -27q78 33 111 58q111 78 110 186q0 94 -65 148q-61 55 -182 55q-47 0 -127 -25l-70 -24z" />
<glyph unicode="3" horiz-adv-x="1038" d="M74 479l39 39q-6 -55 116 -203q158 -188 361 -188q90 0 150.5 60.5t60.5 150.5q0 72 -37 133l-43 51l-39 -14l-80 -27l-67 -8q-43 0 -56 -4l-59 119h39h33q25 4 36 4q45 0 112 17.5t120 64.5q66 59 65 123q0 66 -65 100q-61 37 -139 37q-84 0 -203 -31t-129 -41l-53 107 l112 35q133 35 207 34q129 0 231 -71q115 -80 115 -201q0 -74 -37 -135q-29 -45 -90 -86q43 -27 98 -129q46 -84 46 -152q0 -82 -89 -168q-45 -41 -93 -61.5t-107 -20.5q-133 0 -275 115q-100 84 -202 221q-78 109 -78 129z" />
<glyph unicode="4" horiz-adv-x="1038" d="M20 973l50 53l80 -61l147 -119q68 -55 164 -152l49 -49l61 62l111 104q23 20 45 39q47 39 107 84l92 70l61 -111l-82 -64q-84 -63 -145 -118l-78 -72l-88 -86q16 -6 86 -115q84 -133 84 -223q0 -86 -68.5 -155.5t-185.5 -69.5q-96 0 -168 74.5t-72 168.5q0 102 99 248 q31 47 98 123l-78 76q-23 20 -72 65q-35 31 -63 56q-66 55 -145 110zM375 195q0 -80 33 -107q27 -20 77 -20q80 0 125 57q20 29 32.5 64.5t12.5 74.5q0 55 -30 127q-43 90 -74 113q-18 -6 -90 -109q-86 -123 -86 -200z" />
<glyph unicode="5" horiz-adv-x="1038" d="M47 1090q4 14 51 55q63 53 113 53q72 0 131 -90q49 -74 49 -117v-512l33 -24q29 -18 59 -21q61 0 125 18.5t76 30.5v543l127 -84v-813q0 -37 27 -45q23 -4 49 27q55 63 43 77l78 -77q-23 -39 -39 -56q-53 -55 -117 -55q-49 0 -102 47q-61 53 -62 117v192q-14 -8 -74 -20 l-88 -10q-37 0 -143 75q-119 88 -119 148v530q-2 12 -4 15q-10 16 -37 16q-14 0 -55 -66l-41 -67z" />
<glyph unicode="6" horiz-adv-x="1038" d="M106 246l33 28q55 -63 119 -112q61 -44 135 -62l92 -10q117 0 189 57q37 27 50 56.5t17 66.5q0 43 -22 80l-25 33l-18 -2h-27q-90 0 -160 29q-109 41 -182 153q-53 84 -53 178q0 86 42 157t126 118q37 23 104 33l121 10h23l18 -2l21 -127h-25l-37 2l-108 -6 q-29 0 -42.5 -3t-41.5 -16q-61 -27 -99.5 -85t-38.5 -122q0 -37 19 -71q37 -59 108 -90q61 -20 127 -21l47 2l37 6l2 58q0 39 52 67q27 12 57 17q61 0 86 -58q6 -16 10 -51q0 -66 -53 -113l-49 -32l-15 -8q27 -39 37 -66q37 -80 37 -150q0 -51 -19.5 -91t-72.5 -72 q-37 -23 -92 -39q-27 -8 -49.5 -12.5t-57.5 -4.5q-37 0 -53 3t-49 14q-96 31 -219 147z" />
<glyph unicode="7" horiz-adv-x="1038" d="M53 526l45 27q0 -133 140 -272q121 -121 301 -121q129 0 229 133t100 321q0 25 -2 39.5t-14 48.5l-18 52q0 -33 -82 -136q-98 -127 -195 -126q-113 0 -181.5 102t-68.5 217q0 84 75 149.5t179 65.5q170 0 293 -172q53 -76 80 -156t27 -168q0 -242 -123 -376 q-111 -123 -293 -123q-166 0 -295 123q-92 90 -154 235q-45 106 -43 137zM391 735q0 -55 38 -93t110 -38q43 0 88 23.5t94 74.5q14 16 24 29q23 29 58 80q-31 41 -72 63q-53 29 -113 29q-94 0 -160.5 -44t-66.5 -124z" />
<glyph unicode="8" horiz-adv-x="1038" d="M166 287q0 61 18.5 115.5t38.5 74.5l545 547l96 -82l-567 -565q-10 -10 -25.5 -49t-15.5 -78l2 -25q12 -80 59 -114q12 -8 40 -17.5t75 -9.5q86 0 215 63q109 51 121 72l66 -108q-29 -29 -166 -76q-104 -33 -170 -33q-141 0 -236.5 76t-95.5 209z" />
<glyph unicode="9" horiz-adv-x="1038" d="M72 492q0 152 98 303q125 188 225 225l74 -113q-84 -12 -227 -192q-100 -125 -101 -250q0 -166 105.5 -258t275.5 -92q63 0 137 20q111 29 148 53l121 -96l-111 -43q-127 -43 -207 -43q-225 0 -381.5 135t-156.5 351zM412 461l460 342l97 -92l-461 -303z" />
<glyph unicode=":" horiz-adv-x="491" d="M262 92q0 39 32 68.5t73 29.5q45 0 73 -28q31 -25 31 -70q0 -39 -31.5 -68.5t-72.5 -29.5t-73 27.5t-32 70.5zM262 633q0 39 32 68.5t73 29.5q45 0 73 -29q31 -24 31 -69q0 -39 -31.5 -68.5t-72.5 -29.5t-73 27.5t-32 70.5z" />
<glyph unicode=";" horiz-adv-x="491" d="M238 -248q29 14 59 45q16 18 24.5 30.5t26.5 43.5l21 57l8 47l-2 19l-2 12q-29 0 -54 12q-55 25 -55 86q0 45 32 75t73 30t71.5 -30t30.5 -83q0 -176 -102 -297q-33 -41 -103 -86zM264 612q0 43 31 74t74 31q37 0 69.5 -31t32.5 -74q0 -37 -30.5 -69.5t-71.5 -32.5 q-45 0 -75 28.5t-30 73.5z" />
<glyph unicode="&#x3c;" horiz-adv-x="1038" d="M88 772q0 66 86 133l86 53l-27 50l52 22l88 -166l-88 -33q-90 -47 -90 -120q0 -61 63 -119q20 -20 64 -43l20 14q27 20 41 25l55 16l62 -108q-39 -14 -64.5 -27.5t-44.5 -26.5q-111 -74 -110 -188q0 -88 68.5 -142.5t164.5 -54.5q139 0 218 62.5t79 191.5 q0 162 -93 302.5t-93 269.5q0 102 106 188q37 27 107 62l80 -101q-35 -6 -55.5 -12t-37.5 -16q-92 -49 -92 -146q0 -74 93.5 -235.5t93.5 -315.5q0 -156 -96.5 -243t-262.5 -87q-143 0 -258 96.5t-115 221.5q0 86 45 156q12 20 48 53q-35 23 -53.5 37t-43.5 37 q-96 92 -96 194z" />
<glyph unicode="=" horiz-adv-x="1038" d="M88 772q0 66 86 133l86 53l-27 50l52 22l88 -166l-88 -33q-90 -47 -90 -120q0 -61 63 -119q20 -20 64 -43l20 14q27 20 41 25l55 16l62 -108q-39 -14 -64.5 -27.5t-44.5 -26.5q-111 -74 -110 -188q0 -88 68.5 -142.5t164.5 -54.5q139 0 218 62.5t79 191.5 q0 162 -93 302.5t-93 269.5q0 102 106 188q37 27 107 62l80 -101q-35 -6 -55.5 -12t-37.5 -16q-92 -49 -92 -146q0 -74 93.5 -235.5t93.5 -315.5q0 -156 -96.5 -243t-262.5 -87q-143 0 -258 96.5t-115 221.5q0 86 45 156q12 20 48 53q-35 23 -53.5 37t-43.5 37 q-96 92 -96 194zM383 1303q0 41 27.5 68.5t68.5 27.5t68 -29q28 -24 28 -67q0 -37 -29.5 -67t-66.5 -30q-41 0 -69 27q-27 31 -27 70z" />
<glyph unicode="&#x3e;" horiz-adv-x="1038" d="M88 772q0 66 86 133l86 53l-27 50l52 22l88 -166l-88 -33q-90 -47 -90 -120q0 -61 63 -119q20 -20 64 -43l20 14q27 20 41 25l55 16l62 -108q-39 -14 -64.5 -27.5t-44.5 -26.5q-111 -74 -110 -188q0 -96 64.5 -146.5t168.5 -50.5q133 0 215 94.5t82 225.5q0 203 -88 364 q-14 29 -162 234q-90 127 -90 233q0 119 61.5 193t188.5 74q125 0 209 -154q22 -45 57 -156l-41 -12q-12 51 -17 66.5t-18 37.5q-55 104 -168 105q-59 0 -108 -55q-45 -55 -45 -138l2 -34q12 -106 100 -240l150 -238q78 -150 78 -284q0 -162 -99.5 -279t-259.5 -117 q-143 0 -258 96.5t-115 221.5q0 86 45 156q12 20 48 53q-35 23 -53.5 37t-43.5 37q-96 92 -96 194z" />
<glyph unicode="?" horiz-adv-x="860" d="M291 1208q0 76 76.5 143.5t173.5 67.5q113 0 197.5 -86.5t84.5 -197.5q0 -141 -150.5 -326.5t-150.5 -286.5q0 -39 15 -102l8 -29h-58l-16 68q-18 84 -18 125q0 166 129 324.5t129 269.5q0 68 -37 120q-43 59 -133 60q-33 0 -99 -27l-28 -12l45 -41q45 -51 45 -100 q0 -41 -30 -75t-75 -34q-49 0 -78.5 40t-29.5 99zM434 92q0 41 25.5 69.5t70.5 28.5q41 0 72 -28.5t31 -69.5t-26.5 -70.5t-67.5 -29.5q-45 0 -75 28.5t-30 71.5z" />
<glyph unicode="@" horiz-adv-x="1038" d="M88 772q0 66 86 133l86 53l-27 50l52 22l88 -166l-88 -33q-90 -47 -90 -120q0 -61 63 -119q20 -20 64 -43l20 14q27 20 41 25l55 16l62 -108q-39 -14 -64.5 -27.5t-44.5 -26.5q-111 -74 -110 -188q0 -96 64.5 -146.5t168.5 -50.5q133 0 215 94.5t82 225.5q0 203 -88 364 q-14 29 -162 234q-90 127 -90 233q0 119 61.5 193t188.5 74q125 0 209 -154q22 -45 57 -156l-41 -12q-12 51 -17 66.5t-18 37.5q-55 104 -168 105q-59 0 -108 -55q-45 -55 -45 -138l2 -34q12 -106 100 -240l150 -238q78 -150 78 -284q0 -162 -99.5 -279t-259.5 -117 q-143 0 -258 96.5t-115 221.5q0 86 45 156q12 20 48 53q-35 23 -53.5 37t-43.5 37q-96 92 -96 194zM137 1376q0 41 28 69t68 28q41 0 68 -29q29 -25 29 -68q0 -37 -30 -66.5t-67 -29.5q-41 0 -69 27q-27 31 -27 69z" />
<glyph unicode="A" horiz-adv-x="897" d="M72 688q0 274 139 438q98 117 260 168q92 29 141 29v-137q-57 0 -125 -19q-139 -37 -231 -143q-127 -150 -127 -397q0 -219 68 -361q86 -178 280 -178q98 0 154 49q65 54 65 174q0 59 -28 123l-15 27l-53 -19l-47 -20l-76 100q80 18 123 43q123 68 123 189q0 53 -36 90 t-99 37q-37 0 -81 -17.5t-58 -40.5l-80 101l49 30q61 31 121 31q109 0 185.5 -86t76.5 -203q0 -106 -51 -166l-58 -47q29 -20 82 -123q37 -73 37 -141q0 -117 -96 -182q-84 -55 -207 -55q-221 0 -340 231q-96 193 -96 475z" />
<glyph unicode="B" horiz-adv-x="897" d="M72 688q0 274 139 438q98 117 260 168q92 29 141 29v-137q-57 0 -125 -19q-139 -37 -231 -143q-127 -150 -127 -397q0 -219 68 -361q86 -178 280 -178q98 0 154 49q65 54 65 174q0 59 -28 123l-15 27l-53 -19l-47 -20l-76 100q80 18 123 43q123 68 123 189q0 53 -36 90 t-99 37q-37 0 -81 -17.5t-58 -40.5l-80 101l49 30q61 31 121 31q109 0 185.5 -86t76.5 -203q0 -106 -51 -166l-58 -47q29 -20 82 -123q37 -73 37 -141q0 -117 -96 -182q-84 -55 -207 -55q-221 0 -340 231q-96 193 -96 475zM440 1520q0 43 29 71.5t72 28.5t71.5 -28.5 t28.5 -71.5q0 -41 -26.5 -71t-69.5 -30q-45 0 -75 29t-30 72z" />
<glyph unicode="C" horiz-adv-x="1277" d="M41 670q0 293 111 499q137 254 405 254q221 0 377 -182q123 -145 123 -256v-879q0 -37 26 -38q43 0 95 71l20 33l66 -78l-39 -51q-49 -53 -107 -53q-72 0 -129 55t-57 135v885q0 96 -91 172t-227 76q-268 0 -399 -223q-109 -186 -109 -480q0 -244 87.5 -383t263.5 -139 q84 0 151 62q63 63 64 165q0 66 -31 134l-14 24l-58 -35l-43 -20l-77 112q86 23 129 43q129 66 129 177q0 59 -36 101t-102 42q-43 0 -100 -33l-47 -33l-80 111l61 31q66 30 112 30h3q111 0 184.5 -85t73.5 -203q0 -41 -31 -107q-37 -76 -69 -108l47 -86q49 -104 49 -177 q0 -133 -96 -198q-78 -53 -197 -53q-217 0 -338 221q-100 190 -100 467z" />
<glyph unicode="D" horiz-adv-x="1277" d="M41 670q0 293 111 499q137 254 405 254q221 0 377 -182q123 -145 123 -256v-879q0 -37 26 -38q43 0 95 71l20 33l66 -78l-39 -51q-49 -53 -107 -53q-72 0 -129 55t-57 135v885q0 96 -91 172t-227 76q-268 0 -399 -223q-109 -186 -109 -480q0 -244 87.5 -383t263.5 -139 q84 0 151 62q63 63 64 165q0 66 -31 134l-14 24l-58 -35l-43 -20l-77 112q86 23 129 43q129 66 129 177q0 59 -36 101t-102 42q-43 0 -100 -33l-47 -33l-80 111l61 31q66 30 112 30h3q111 0 184.5 -85t73.5 -203q0 -41 -31 -107q-37 -76 -69 -108l47 -86q49 -104 49 -177 q0 -133 -96 -198q-78 -53 -197 -53q-217 0 -338 221q-100 190 -100 467zM1069 1300q0 37 29.5 65t66.5 28q39 0 62 -29q26 -27 26 -64t-24.5 -66.5t-63.5 -29.5q-41 0 -69 27q-27 31 -27 69z" />
<glyph unicode="E" horiz-adv-x="894" d="M41 813q27 14 45 21.5t47 13.5l121 8q94 0 205 -156q33 -47 88 -155v473l123 -103v-399l43 2q12 2 31.5 7t42 12.5t32.5 11.5t37 18l16 8q-31 25 -43 41q-45 57 -45 123q0 74 56.5 124t140.5 50q76 0 126 -47t50 -123q0 -72 -41 -132t-92 -79l43 -24q51 -27 112.5 -47.5 t110.5 -71.5q47 -41 70 -104l8 -31l2 -31q0 -76 -50 -129t-134 -53l-27 2q-70 6 -125 53q-18 12 -45 45l23 23l28 -19q41 -20 72 -20q20 0 30.5 2t30 11t35 22.5t35 36t19.5 61.5q0 49 -35 92q-31 47 -76 60.5t-117 50.5l-61 33l-43 -25q-27 -12 -45.5 -20.5t-55.5 -20.5 q-8 -2 -49 -9t-75 -13l-35 -5v-295q0 -37 28 -38q41 0 84 75l17 37l80 -86l-39 -51q-49 -53 -107 -53q-72 0 -129 55t-57 135v191l-418 -267l-72 119l488 248l-99 131q-113 131 -170 131t-104 -12q-23 -6 -44.5 -17.5t-47.5 -29.5zM897 752q0 -66 25 -113l24 -31 q45 29 64 47q63 59 63 127q0 33 -16 58q-22 32 -69 32h-3q-35 0 -63 -36q-25 -37 -25 -84z" />
<glyph unicode="F" horiz-adv-x="894" d="M41 813q27 14 45 21.5t47 13.5l121 8q94 0 205 -156q33 -47 88 -155v473l123 -103v-399l43 6q51 6 71 15l70 30l18 8l-30 19q-57 51 -58 145q0 76 58.5 131.5t138.5 55.5q74 0 125 -54.5t51 -128.5q0 -68 -42 -130t-91 -81l74 -38l71 -31l74 -21l88 -18l19 -49l-37 2 q-49 0 -103.5 -7.5t-107.5 -62.5q-47 -53 -47 -125q0 -61 47 -94q10 -8 34.5 -17.5t59.5 -9.5l27 2l20 7q29 8 57 36q37 35 50 64l65 -139l-55 -31q-66 -31 -111 -31q-115 0 -191.5 75t-76.5 192q0 80 41 127t113 65l-39 8l-47 15l-50 20l-34 23l-47 -25q-66 -33 -97 -43 l-84 -18l-67 -7v-295q0 -37 28 -38q41 0 84 75l17 37l80 -86l-39 -51q-49 -53 -107 -53q-72 0 -129 55t-57 135v191l-418 -267l-72 119l488 248q-2 27 -99 137q-109 125 -170 125q-57 0 -104 -12q-23 -6 -44.5 -17.5t-47.5 -29.5zM897 752q0 -41 12 -84q12 -33 37 -60 q14 0 70.5 60.5t56.5 113.5q0 82 -88 82q-39 0 -65 -33q-23 -33 -23 -79z" />
<glyph unicode="G" horiz-adv-x="806" d="M31 129l26 43l111 -43q59 -20 113.5 -32.5t87.5 -12.5q84 0 142 52t58 140q0 57 -34 115q-49 84 -86 101l-299 -119l-66 100l268 102l-63 60q-66 76 -66 133q0 76 86 154q63 53 94 63l-26 41l39 29l102 -140l-84 -59q-84 -74 -84 -137q0 -57 29 -98q6 -14 33 -37h452 v-105h-342l78 -80q80 -96 80 -166q0 -102 -86 -166.5t-199 -64.5q-92 0 -237 64q-45 18 -127 63z" />
<glyph unicode="H" horiz-adv-x="716" d="M68 129l26 43l111 -43q59 -20 113.5 -32.5t87.5 -12.5q86 0 143 54.5t57 137.5q0 61 -45 125q-12 16 -27.5 33t-27.5 27l-240 -119l-84 88l238 109q-20 16 -47 39.5t-33 31.5q-80 86 -80 158q0 76 86 154q63 53 94 63l-26 41l39 29l102 -140l-84 -59q-84 -74 -84 -137 q0 -53 37 -115q10 -18 43 -51l231 119l97 -80l-236 -113l78 -80q80 -96 80 -166q0 -102 -86 -166.5t-199 -64.5q-92 0 -237 64q-45 18 -127 63z" />
<glyph unicode="I" horiz-adv-x="1253" d="M61 539l263 32q-12 4 -66 68q-63 82 -63 137q0 49 49 115q66 84 116 102l-41 45l58 23l123 -137q-18 0 -90 -64q-84 -74 -84 -141q0 -37 34 -90q20 -33 39 -49l482 69q-18 14 -37 47q-29 45 -29 80q0 84 90 160q25 23 90 59l-37 39l46 35l122 -145q-61 -37 -94 -64 q-94 -76 -94 -125q0 -37 10 -57l13 -16l288 57l54 -111l-273 -26q23 0 137 -117q129 -135 129 -232q0 -98 -92 -170q-84 -61 -192 -61q-82 0 -203 51q-45 16 -109 53l19 52q33 -25 102 -47q68 -18 152 -19q92 0 150.5 50.5t58.5 129.5q0 84 -109 199q-20 23 -42.5 44.5 t-65.5 53.5l-478 -69q25 -6 97 -84q92 -98 92 -187q0 -115 -92 -176q-80 -51 -197 -51q-84 0 -211 49l-108 51l24 48q18 -18 117 -48q68 -18 137 -18q98 0 152.5 54.5t54.5 146.5q0 70 -61 143l-62 57l-332 -59z" />
<glyph unicode="J" horiz-adv-x="702" d="M68 141l26 49q23 -23 144 -65q90 -31 157 -31q84 0 144 43q67 48 67 147q0 58 -53 132q-16 27 -53 63l-148 -246l-123 62l213 219l-323 -61l-47 116l301 31l-37 39q-72 88 -72 154q0 63 84 139q66 57 94 63l-39 52l35 30l115 -147q-25 -4 -88 -58q-82 -70 -82 -131 q0 -35 15.5 -73.5t27.5 -53.5l307 56l51 -113l-278 -27q72 -49 106 -81q106 -106 107 -216q0 -109 -86 -174q-76 -53 -189 -53q-94 0 -245 68z" />
<glyph unicode="K" horiz-adv-x="577" d="M57 477q0 35 12.5 68t41.5 69q66 88 127 109l-54 51q-55 61 -55 123q0 63 55.5 106.5t130.5 43.5q78 0 138.5 -55.5t60.5 -137.5q0 -74 -51 -125q-25 -25 -60 -41l37 -10q47 -12 68 -12q41 0 113 36l59 39v-133l-43 -12q-49 -12 -84 -12q-45 0 -98 18q-70 25 -105 51 q-3 1 -7 1q-36 0 -132 -99q-66 -70 -66 -129q0 -61 42 -94t104 -33q20 0 28 4l19 8v41q4 35 38 74t89 39q29 0 51.5 -29.5t22.5 -66.5q0 -43 -54 -90l-53 -35l12 -37q12 -43 33 -74l43 -63l33 -39l-82 -37l-25 43l-40 82l-21 65q0 16 -10 39l-29 -8l-41 -2l-67 4 q-39 0 -110 87t-71 173zM229 877q0 -37 33 -82q23 -29 41 -41q20 0 62 34q57 46 57 101q0 45 -29 67q-25 25 -67 25q-39 0 -70 -31q-27 -31 -27 -73z" />
<glyph unicode="L" horiz-adv-x="788" d="M27 801v200l34 11l66 8q55 0 109.5 -47t54.5 -111v-303q0 -57 28.5 -98t83.5 -49l25 -2q74 0 121 79q10 20 26 80l-26 25q-45 51 -45 102q0 33 20 56q28 32 79 32h3q43 0 79 -38.5t36 -88.5l-6 -47q-4 -29 -10 -37l45 -4l30 4q35 10 64 33l41 39v-139l-43 -8l-54 -4 q-12 0 -19 2t-44 14q-23 4 -49 16q-33 -57 -58 -86q-80 -86 -200 -86q-88 0 -165 78t-77 164v313q-4 16 -10 25q-4 12 -16 12q-30 0 -80 -68q-43 -59 -44 -74q0 -2 1 -3z" />
<glyph unicode="M" horiz-adv-x="790" d="M27 803v201l43 12l57 8q49 0 106.5 -49t57.5 -111v-250q0 -57 27.5 -93t84.5 -48l19 -2h10q76 0 117 66q10 16 26 67l-26 25q-45 51 -45 102q0 33 20 55q29 33 82 33q43 0 79 -39t36 -88l-6 -47q-4 -29 -10 -37l47 -4l41 4q29 6 55 25.5t43 44.5v-135l-49 -15l-47 -6 l-62 8l-57 13q-31 -49 -101.5 -88t-156.5 -39q-82 0 -162 68.5t-80 125.5v301q-4 16 -10 25q-2 12 -16 14q-30 0 -80 -68q-43 -60 -44 -76q0 -2 1 -3zM225 131l666 272v-53l-592 -315z" />
<glyph unicode="N" horiz-adv-x="681" d="M63 631l48 28q0 -29 63 -110q80 -102 160 -103q84 0 133 89q41 76 41 182q0 96 -47 156.5t-135 60.5q-45 0 -107 -35q-47 -25 -59 -41l-58 123l58 27q71 26 109 26h3q147 0 242 -127q86 -116 86 -276q0 -106 -61 -203q-68 -104 -166 -104q-141 0 -240 153q-29 45 -70 154 z" />
<glyph unicode="O" horiz-adv-x="684" d="M63 610l48 29q0 -25 63 -96q80 -86 160 -86q84 0 131 73q43 74 43 179q0 98 -47 161.5t-135 63.5q-45 0 -107 -35q-47 -25 -59 -41l-58 123l58 27q71 26 109 26h3q147 0 242 -131q86 -120 86 -280q0 -102 -64.5 -195.5t-162.5 -93.5q-141 0 -240 137q-31 43 -70 139z M231 123l553 285v-97l-471 -288z" />
<glyph unicode="P" horiz-adv-x="473" d="M33 903q0 43 33.5 79t66.5 36h189l51 -111h-215q-16 0 -30.5 -22.5t-16.5 -55.5q0 -39 21.5 -76.5t39.5 -45.5l37 12l65 10l29 2l39 -2l35 -4l53 -107l-72 5l-59 -5q-68 -12 -106.5 -37.5t-38.5 -76.5q0 -70 55 -101q41 -20 123 -20q78 0 176 80q14 12 34.5 32.5 t43.5 47.5v-174q-23 -23 -119 -66q-74 -31 -123 -31q-100 0 -186 84t-86 189q0 63 34 110l23 25q-14 6 -51 70q-45 84 -45 153z" />
<glyph unicode="Q" horiz-adv-x="481" d="M33 903q0 43 33.5 79t66.5 36h189l51 -111h-215q-16 0 -30.5 -22.5t-16.5 -55.5q0 -39 21.5 -76.5t39.5 -45.5l37 12l65 10l29 2l39 -2l35 -4l53 -107l-72 5l-59 -5q-68 -12 -106.5 -37.5t-38.5 -76.5q0 -70 57 -101q45 -20 127 -20t172 76q31 25 76 76v-170l-439 -342 l-81 100l256 160q-84 31 -125 57q-125 82 -125 205q0 63 34 110l23 25q-14 6 -51 70q-45 84 -45 153z" />
<glyph unicode="R" horiz-adv-x="751" d="M47 334l55 35v-5q0 -36 76 -124q104 -121 240 -121q49 0 90 33q51 41 51 102q0 80 -106 180l-213 201q0 31 88 151q78 109 94 121l-92 82l35 37l180 -158l-185 -268q92 -78 150 -135q149 -162 149 -275q0 -88 -53 -138t-131 -50q-127 0 -291 162q-139 139 -137 170z M549 627q0 45 28.5 74.5t71.5 29.5q37 0 70 -30.5t33 -73.5q0 -41 -27 -71t-72 -30t-74.5 29t-29.5 72z" />
<glyph unicode="S" horiz-adv-x="591" d="M23 954q31 18 98 43q33 10 59.5 16.5t48.5 6.5q115 0 193 -84t78 -201q0 -84 -62 -168q-72 -92 -147 -121l61 -40q66 -37 109 -37q66 0 151 65q61 47 78 74v-178q-16 -16 -78 -41q-61 -20 -100 -21q-57 0 -137 49q-96 59 -133 113l-39 -14l-58 -8q-49 0 -83.5 34.5 t-34.5 83.5q0 35 30 64q30 24 69 24h3q27 0 53 -16q43 -25 51 -45q20 0 99 72q94 88 94 163q0 53 -38 90t-103 37q-29 0 -90.5 -21.5t-79.5 -39.5z" />
<glyph unicode="T" horiz-adv-x="591" d="M23 954q31 18 98 43q33 10 59.5 16.5t48.5 6.5q115 0 193 -84t78 -201q0 -84 -62 -168q-72 -92 -147 -121l61 -40q66 -37 109 -37q70 0 155 65q68 49 80 74v-178l-467 -295l-82 100l310 152q-72 12 -148 78q-12 10 -28.5 25.5t-38.5 39.5l-39 -14l-58 -8 q-49 0 -83.5 34.5t-34.5 83.5q0 35 30 64q30 24 69 24h3q27 0 53 -16q43 -25 51 -45q20 0 99 72q94 88 94 163q0 53 -38 90t-103 37q-29 0 -90.5 -21.5t-79.5 -39.5z" />
<glyph unicode="U" horiz-adv-x="1087" d="M45 737q0 84 86 152l88 51l-20 37l59 20l88 -151q-63 -16 -102 -37q-102 -55 -103 -137q0 -45 37 -123l37 -66l70 35l65 25l107 -109q-5 2 -12 2q-38 0 -130 -47q-139 -68 -139 -182q0 -92 74 -129t219 -37q137 0 258 98q139 117 166 221q-59 0 -117.5 26t-122.5 87 q-104 98 -104 254q0 88 57 160q68 86 187 86q90 0 174 -125t84 -279q0 -258 -162 -436t-406 -178q-166 0 -277.5 86t-111.5 235q0 82 39 136l39 37l-63 98q-63 115 -64 190zM702 709q0 -186 105 -258q33 -20 106 -33l13 74q12 85 12 155q0 96 -18 158q-25 88 -95 88 q-53 0 -90 -55q-33 -55 -33 -129z" />
<glyph unicode="V" horiz-adv-x="960" d="M31 801q0 92 60.5 158.5t150.5 66.5q137 0 303 -164q53 -51 139 -164l43 27q59 33 94 33l58 6l28 2q25 0 55.5 -1t67.5 -15q14 -6 21 -11v-102l-50 10q-68 12 -104 12l-29 -2q-51 -6 -100 -30l-20 -15l67 -127q70 -152 70 -245q0 -117 -75 -185.5t-192 -68.5 q-88 0 -161.5 83t-73.5 179q0 127 127 284q39 49 127 134l-98 106q-31 31 -78 57l-43 21l2 -23l2 -36q0 -100 -31 -168q-47 -100 -158 -101q-96 0 -149 84t-53 195zM94 741q0 -47 37 -90q37 -37 98 -37t100.5 60.5t39.5 136.5l-4 70l-9 10q-30 24 -95 24h-5 q-49 0 -105.5 -54t-56.5 -120zM477 225q0 -78 37 -129t96 -51q68 0 121 92.5t53 186.5q0 57 -43 165l-45 97q-33 -33 -60.5 -63.5t-47.5 -59.5q-111 -141 -111 -238z" />
<glyph unicode="W" horiz-adv-x="1024" d="M43 801q0 92 55.5 158.5t143.5 66.5q133 0 290 -166q41 -45 75 -92t52 -74l279 340l92 -88l-295 -350l74 -119q76 -145 76 -237q0 -117 -75 -185.5t-192 -68.5q-72 0 -144.5 61.5t-86.5 151.5l-2 37q0 119 119 282q37 55 119 144l-101 110q-27 33 -71 62l-41 24l4 -37 l2 -39q0 -100 -31 -166q-43 -94 -152 -94q-92 0 -143 82q-47 84 -47 197zM98 741q0 -49 35 -90q37 -37 90 -37q68 0 107 59.5t39 137.5l-4 70l-9 10q-30 24 -95 24h-5q-51 0 -106 -55q-51 -55 -52 -119zM469 176q0 -55 41 -93t100 -38q68 0 121 92.5t53 186.5q0 59 -45 151 q-8 20 -17 36.5t-30 45.5l-110 -141q-113 -162 -113 -240z" />
<glyph unicode="X" horiz-adv-x="1404" d="M31 801q0 92 60.5 158.5t150.5 66.5q115 0 278 -160q135 -133 137 -168l80 82l78 74l113 88l127 78l123 -107v-807q0 -37 26 -38q39 0 82 49l33 51l65 -74l-38 -51q-49 -53 -107 -53q-70 0 -127 55t-57 135v705l-58 -37q-27 -18 -55 -41q-18 -14 -47 -39 q-135 -125 -164 -168q16 -8 68 -117q66 -135 65 -221q0 -106 -71.5 -172.5t-174.5 -66.5q-90 0 -163 61q-68 61 -68 154q0 96 111 262q96 145 120 151l-96 121q-18 23 -61 49l-43 29l2 -23l2 -36q0 -100 -31 -168q-47 -100 -158 -101q-96 0 -149 84t-53 195zM98 741 q0 -49 35 -90q37 -37 96 -37q61 0 100.5 60.5t39.5 136.5v35q0 23 -4 35q-44 34 -105 34h-4q-51 0 -106 -55q-51 -55 -52 -119zM498 215q0 -131 112 -131q72 0 108 66.5t36 175.5q0 59 -35 141q-25 63 -39 78l-90 -117q-92 -135 -92 -213z" />
<glyph unicode="Y" horiz-adv-x="1236" d="M33 735q0 111 85 194t189 83q166 0 336 -119q57 -39 137 -121l74 62l70 53l129 80l37 22q76 -76 124 -180q60 -131 60 -264q0 -233 -177 -390t-421 -157q-182 0 -361 108q-213 129 -270 244l39 31q78 -113 215 -186q156 -84 340 -84q215 0 371 125q178 145 178 399 q0 94 -37 174l-43 68q-43 -23 -135 -97l-74 -65l-45 -43q12 -8 39 -78q37 -86 37 -152q0 -84 -60.5 -155.5t-146.5 -71.5q-72 0 -125 61q-49 61 -49 146q0 78 86 205q72 102 96 110l-43 35l-82 57q-29 18 -96 33l-61 10q6 -10 18 -64t12 -77q0 -100 -66.5 -176t-166.5 -76 q-92 0 -152.5 77t-60.5 179zM98 719q0 -55 42 -93t102 -38q72 0 123 60t51 132q0 47 -25 97l-33 2q-90 0 -157 -25q-102 -37 -103 -135zM645 381q0 -39 23.5 -67.5t58.5 -28.5q47 0 83 64t36 134q0 61 -27 127l-12 25q-25 0 -113 -133q-49 -74 -49 -121z" />
<glyph unicode="Z" horiz-adv-x="1234" d="M10 715q0 127 115 212t248 85q141 0 284 -94q102 -70 199 -177l74 -94l231 363l94 -76l-268 -375q37 -37 82 -158q35 -94 35 -172q0 -92 -57 -163q-66 -80 -179 -80q-80 0 -130 60t-50 153q0 102 103 258q29 49 104 143l-8 12l-23 29l-41 43l-288 -420l-123 66l340 411 l-52 39q-51 37 -85.5 54.5t-118.5 35.5l-31 7l20 -54q8 -27 15.5 -54.5t7.5 -45.5q0 -98 -75 -178t-173 -80q-96 0 -173 73.5t-77 176.5zM88 707q0 -59 41 -95q44 -32 101 -32h3q104 0 150 65q35 51 35 131q0 16 -2 39t-8 47l-5 19q-61 0 -98 -7q-217 -31 -217 -167z M750 188q0 -104 114 -104q59 0 103 63q32 59 32 125q0 68 -24 166l-25 84l-100 -125q-100 -141 -100 -209z" />
<glyph unicode="[" horiz-adv-x="638" d="M63 727q0 92 65 153.5t159 61.5q113 0 210 -94t134 -94q31 0 86 26l24 13v-136l-34 -12l-68 -14q-68 0 -152 65q-182 145 -245 146q-53 0 -86 -33q-16 -16 -24.5 -34.5t-8.5 -47.5q0 -53 35 -90t88 -37l94 4l59 6q37 0 97 -55q66 -66 65 -139q0 -109 -108 -187 q-31 -23 -111 -57l27 -53q23 -25 53 -25q59 0 92 17l23 16l77 -100l-34 -19q-20 -8 -50 -14t-59 -6q-90 0 -149 90q-16 23 -41 90l-25 -4l-27 -2l-22 2q-29 2 -71 38t-42 89q0 39 29 62.5t67 23.5q29 0 70 -43l31 -43l67 14q63 18 103 47q49 35 49 70q0 45 -25.5 63.5 t-70.5 18.5l-66 -6l-57 -6q-92 0 -162 69q-66 72 -66 166z" />
<glyph unicode="\" horiz-adv-x="1026" d="M14 319l47 27q0 -37 50 -117q61 -102 149 -102q104 0 170 121q57 109 57 248q0 115 -49 192q-57 88 -170 88q-49 0 -116 -24q-51 -18 -68 -33l-51 123l92 28l104 15q115 0 191 -74t94 -176l94 31l82 10q115 0 191.5 -81t76.5 -214q0 -190 -90 -311q-27 -37 -92 -80 l-96 78q70 61 108 106q109 127 109 225q0 84 -51 130t-123 46q-31 0 -61.5 -4t-81.5 -16l-41 -12l8 -41l6 -60q0 -184 -59 -297q-76 -143 -230 -143q-102 0 -188 154q-68 129 -62 163z" />
<glyph unicode="]" horiz-adv-x="1093" d="M86 319l47 27q0 -37 49 -117q61 -102 150 -102q104 0 170 121q57 109 57 248q0 115 -49 192q-57 88 -170 88q-49 0 -117 -24q-51 -18 -67 -33l-52 123l93 28l104 15q115 0 190.5 -74t94.5 -176l49 16l49 15l47 4h19h10v329l114 -75v-279q51 -25 78 -51q78 -78 78 -213 q0 -190 -90 -311q-27 -37 -92 -80l-96 78q70 61 108 106q109 127 109 225q0 84 -51.5 130t-122.5 46q-31 0 -62 -4t-82 -16l-41 -12l8 -41l7 -60q0 -184 -60 -297q-76 -143 -229 -143q-102 0 -189 154q-68 129 -61 163z" />
<glyph unicode="^" horiz-adv-x="1134" d="M86 319l47 27q0 -37 49 -117q61 -102 150 -102q104 0 170 121q57 109 57 248q0 115 -49 192q-57 88 -170 88q-49 0 -117 -24q-51 -18 -67 -33l-52 123q16 6 31 11t52.5 14.5t63 13.5t50.5 4q121 0 219 -111q29 -35 70 -112l90 22l57 4h29q18 0 35 4v307l114 -75v-254 l78 -80q79 -98 97 -209l6 -84q0 -129 -58 -231q-18 -31 -57 -76l-96 78q25 29 45 53q12 16 33 45q80 123 79 233q0 59 -28 101l-15 16l-170 -315l-110 61l223 297l-33 12q-37 10 -73 15q-76 0 -156 -21l-70 -22l4 -21l11 -80q0 -184 -60 -297q-76 -143 -229 -143 q-102 0 -189 154q-68 129 -61 163z" />
<glyph unicode="_" horiz-adv-x="720" d="M37 573l55 23q0 -76 74 -162q66 -74 164 -74q106 0 166.5 99.5t60.5 236.5q0 104 -60.5 159.5t-158.5 55.5q-33 0 -49.5 -2t-57.5 -14q-96 -25 -120 -45l-62 123l55 18q121 33 187 33q221 0 309 -188q27 -57 45 -191q35 -23 82 -22q61 0 104 49v-146q-31 -20 -63 -20 l-35 2q-18 4 -53 35l-31 32q0 -119 -84 -226t-215 -107q-119 0 -205 100q-109 131 -108 231z" />
<glyph unicode="`" horiz-adv-x="800" d="M113 338q0 98 84 168q31 25 182 108l166 78q88 51 88 123q0 53 -51.5 81t-114.5 28q-45 0 -107.5 -19.5t-70.5 -27.5l-80 104l61 25q74 25 142 24q115 0 201.5 -65.5t86.5 -171.5q0 -133 -114 -209l-140 -76l-161 -86q-76 -53 -76 -135q0 -68 59.5 -118t137.5 -50 q88 0 217 74q100 57 112 79l74 -112q-43 -43 -144.5 -88t-189.5 -45q-145 0 -253.5 87t-108.5 224z" />
<glyph unicode="a" horiz-adv-x="811" d="M137 621q0 70 66.5 130t163.5 83l155 28q88 23 88 68q0 14 -35.5 28.5t-68.5 14.5q-41 0 -98.5 -16.5t-67.5 -26.5l-74 104l78 23q35 8 59.5 12t53.5 4q86 0 153 -47q72 -43 72 -123q0 -86 -98 -133l-113 -37q-70 -14 -99.5 -20t-78.5 -21q-84 -29 -84 -102q0 -45 39 -64 q43 -16 104 -16q100 0 221 31q172 43 203 73l45 -108l-37 -14l-63 -23l-74 -16l-22 -4l20 -50l14 -57q0 -76 -65 -117q-47 -33 -162 -48t-159 -34.5t-44 -58.5q0 -47 43 -70q43 -18 121 -18q109 0 235 39t144 57l49 -112l-133 -39q-80 -18 -139.5 -28.5t-108.5 -10.5 q-129 0 -215 47t-86 147q0 72 62.5 118t165.5 67l149 24q78 18 78 80q0 14 -5 26.5t-9 20.5l-74 -12l-115 -6q-102 0 -174 53q-80 59 -80 154z" />
<glyph unicode="b" horiz-adv-x="786" d="M94 625q0 78 68 133q55 43 141 61l166 35q88 25 88 64q0 35 -35 49t-78 14q-41 0 -100 -19.5t-68 -27.5l-55 100l64 17q80 18 118 18q86 0 157 -46t71 -124q0 -74 -76 -117q-35 -23 -152 -53l-153 -33q-82 -25 -82 -90q0 -53 44 -82.5t105 -29.5q96 0 261 61 q53 18 145 63l45 -116l-141 -53l-62 -17l-55 -10v-66q94 -12 143 -30q144 -56 144 -191q0 -111 -115 -176q-102 -57 -240 -57q-127 0 -227 53q-117 61 -117 156q0 115 156 194q108 51 153 51q9 0 15 -2v56q-12 -6 -35 -7q-41 0 -131 29q-162 53 -162 193zM188 84 q0 -104 158 -104q125 0 252 49q145 55 145 133q0 51 -72.5 75.5t-156.5 24.5q-115 0 -220.5 -48t-105.5 -130z" />
<glyph unicode="c" horiz-adv-x="782" d="M76 315q0 145 164 228q108 54 162 54q5 0 10 -1l-84 72q-86 86 -86 155q0 59 65 113q98 80 154 80l-19 35l50 18l83 -158q-3 1 -8 1q-29 0 -118 -32q-103 -38 -103 -108q0 -72 78 -125l151 -94q74 -55 107 -100q45 -64 45 -142q0 -121 -104.5 -215t-235.5 -94t-221 92 t-90 221zM158 250q0 -57 41 -100.5t100 -43.5q127 0 238.5 72t111.5 178q0 59 -45 95t-121 36q-119 0 -222 -69.5t-103 -167.5z" />
<glyph unicode="d" horiz-adv-x="860" d="M98 96q0 66 62 113q72 49 153 49l39 -39q-33 -2 -86 -31q-71 -36 -71 -87q0 -48 79 -76q86 -27 185 -27q61 0 108 10q131 25 156 41q45 27 45 64q0 45 -88 67l-166 27q-125 18 -180 60t-55 100q0 27 26 55l31 29q-5 -1 -11 -1q-44 0 -149 76q-74 55 -74 113q0 70 58 115 q61 48 126 48q7 0 15 -1l25 -27q-47 -16 -85 -55t-38 -90q0 -43 116 -80q125 -33 271 -33q55 0 113.5 24.5t58.5 65.5q0 55 -76 94q-33 16 -172 60l-156 45q-79 35 -79 106q0 74 71.5 113t155.5 39l102 -6l64 -13l43 -112q-12 6 -100.5 18.5t-157.5 12.5q-78 0 -90 -5 q-10 0 -15 -18q0 -37 49 -61l189 -48q92 -18 164 -75q71 -53 71 -123q0 -90 -75 -152q-76 -57 -179 -57h-67q-33 6 -73 10t-48 8q-12 -20 -16 -45q0 -68 108 -88l115 -20q57 -10 93 -23.5t69 -36.5q70 -47 69 -120q0 -88 -89 -147.5t-214 -59.5q-143 0 -266 45 q-154 55 -154 149z" />
<glyph unicode="e" horiz-adv-x="757" d="M68 334l55 35q45 -86 78 -125q106 -125 245 -125q57 0 95.5 34.5t38.5 100.5q0 80 -103 180l-209 201q0 29 109 151l108 117l-100 86l35 37l180 -158l-219 -268q92 -78 149 -135q150 -162 150 -275q0 -88 -53.5 -138t-130.5 -50q-143 0 -301 166q-41 45 -72 88 q-37 51 -55 78z" />
<glyph unicode="f" horiz-adv-x="815" d="M51 582l39 43l125 -80q145 -80 250 -80q72 0 110 22q51 29 52 93q0 47 -33 82q-8 12 -137 88l-158 65q-100 41 -100 76q0 33 51 65l102 48q29 10 84 20l64 10l-29 47l47 27l80 -158l-141 -24q-47 -6 -82 -23q-37 -12 -37 -31q152 -55 266 -135q125 -88 125 -188 q0 -70 -39 -115q-23 -25 -93.5 -57.5t-107.5 -59.5q-55 -35 -59 -61l150 -39q149 -42 149 -151q0 -72 -74 -119q-78 -45 -172 -45q-127 0 -256 73q-41 23 -102 76l29 39q18 -33 116 -76q86 -34 174 -34h5q70 0 117.5 22.5t47.5 75.5q0 82 -167.5 116.5t-172.5 63.5 q0 29 72 76q25 16 52.5 33.5t35.5 19.5l-72 23q-59 20 -114 49q-20 10 -64 37q-55 35 -69 43z" />
<glyph unicode="g" horiz-adv-x="851" d="M57 666l39 39q78 -86 121 -125q147 -125 268 -125q51 0 91 31.5t40 82.5q0 96 -202.5 191.5t-202.5 128.5q0 43 130 93q120 46 152 46h5l-17 53l62 15l51 -160h-4q-21 0 -119 -28q-111 -31 -113 -54q147 -55 258 -129q123 -84 123 -182t-96 -150q-78 -39 -174 -39 q-82 0 -176 -53q-113 -63 -113 -158q0 -59 48 -103t118 -56l39 -2h21l18 2q-10 10 -22.5 41.5t-16.5 70.5q0 61 50 105.5t120 44.5q68 0 120 -44t52 -110q0 -92 -90 -145q-78 -45 -186 -45q-141 0 -246 65q-121 74 -121 199q0 109 125 196q35 25 127 66l-41 21 q-47 25 -100 69q-37 31 -91 90zM463 57l2 -39l12 -28q57 18 82 33q84 43 84 96q0 27 -22.5 39t-61.5 12q-41 0 -68.5 -34t-27.5 -79z" />
<glyph unicode="h" horiz-adv-x="774" d="M41 383q0 111 78 195q61 68 180 122l137 56q72 35 72 86q0 65 -87 65h-3q-43 0 -113 -28l-33 -15l-53 117l66 23q59 16 98 16q74 0 132 -53.5t58 -128.5q0 -96 -67 -156q-43 -37 -154.5 -85t-165.5 -95q-84 -72 -84 -160q0 -86 67 -149.5t157 -63.5q27 0 43 4l47 12 q-25 16 -57.5 67.5t-32.5 94.5q0 76 57 124t139 48q72 0 127 -57q51 -57 51 -137q0 -111 -91 -186.5t-201 -75.5q-150 0 -258.5 105t-108.5 255zM418 256q0 -25 26 -66q6 -14 29 -32q53 23 78 41q80 55 80 127q0 69 -76 69h-2q-53 0 -96 -43q-39 -43 -39 -96z" />
<glyph unicode="i" horiz-adv-x="745" d="M53 365v634l121 -100v-522q1 2 6 2q35 0 244 -111q117 -61 171 -113.5t54 -95.5q0 -45 -35.5 -80.5t-136.5 -35.5q-51 0 -112 22q-100 35 -123 58l22 57l53 -33q66 -33 117 -33q45 0 63.5 9.5t37.5 48.5q3 7 3 16q0 66 -225 176zM254 569l45 35q16 -49 47 -74.5t92 -25.5 q68 0 107 58.5t39 137.5q0 80 -27 134q-34 65 -102 65h-2q-31 0 -91 -31l-47 -30l-61 116q25 18 69 34t72 16q121 0 201 -123q70 -111 70 -250q0 -80 -48 -152q-59 -88 -165 -88q-76 0 -129 51q-49 51 -70 127z" />
<glyph unicode="j" horiz-adv-x="1134" d="M53 395v625l123 -90v-522q2 2 6 2q31 0 206 -110q200 -126 200 -206q0 -53 -29 -82q-39 -39 -139 -39q-37 0 -64.5 6.5t-79.5 26.5q-82 31 -92 47l23 58l53 -33q66 -33 117 -33q45 0 63.5 9t36.5 48q4 8 4 17q0 66 -196 176zM272 588l47 35q18 -51 48 -78q29 -23 90 -23 q66 0 108 58q39 59 39 139q0 84 -26 135q-35 66 -105 66q-37 0 -92 -31l-47 -31l-62 115l50 28q51 23 94 23q119 0 198 -123q70 -115 70 -252q0 -80 -45 -149q-59 -88 -166 -88q-76 0 -130 52t-71 124zM287 -172l49 33q59 -45 119 -72q164 -74 368 -74q102 0 162 23 q86 31 86 104q0 47 -44 66.5t-107 19.5q-43 0 -109 -26q-25 -6 -59 -29l-68 127l104 23v995l125 -105v-882q39 -6 66 -12.5t47 -16.5q115 -55 115 -182q0 -96 -92 -158q-82 -53 -201 -53q-84 0 -157 14.5t-156 50.5q-213 88 -248 154z" />
<glyph unicode="k" horiz-adv-x="1134" d="M53 395v625l123 -90v-522q6 10 51 -15.5t140 -93.5q180 -125 180 -205q0 -53 -29 -82q-39 -39 -139 -39q-37 0 -64.5 6.5t-78.5 26.5q-82 31 -93 47l23 58l53 -33q66 -33 117 -33q45 0 63.5 9t36.5 48q4 12 4 19q0 63 -176 174zM272 588l47 35q18 -51 48 -78 q29 -23 90 -23q66 0 108 58q39 59 39 139q0 84 -26 135q-35 66 -105 66q-37 0 -92 -31l-47 -31l-62 115l50 28q51 23 94 23q119 0 198 -123q70 -115 70 -252q0 -80 -45 -149q-59 -88 -166 -88q-76 0 -130 52t-71 124zM592 -119q0 74 56.5 132.5t139.5 58.5v946l125 -105 v-841q25 -10 45 -27l84 -80q61 -66 109 -201l31 -116l-43 -23q-31 115 -64 166q-96 168 -254 168q-84 0 -133 -57q-31 -41 -31 -86q0 -29 41 -43q23 -6 43.5 -10.5t46.5 -4.5q39 0 85.5 13.5t62.5 25.5l53 -104q-18 -12 -68.5 -24.5t-89.5 -12.5l-22 2q-90 12 -153.5 72.5 t-63.5 150.5z" />
<glyph unicode="l" horiz-adv-x="512" d="M49 479q0 88 50.5 157t133.5 69h385v-109h-319q-59 0 -97 -50t-38 -116q0 -141 94 -285q33 -49 96 -112l-45 -33q-86 86 -129 147q-131 180 -131 332z" />
<glyph unicode="m" horiz-adv-x="608" d="M0 731q51 35 134 63.5t153 28.5q109 0 291 -135q59 -43 159 -135l-491 -403l-88 96l450 334q-39 55 -130 101t-179 46q-45 0 -147 -55q-80 -43 -99 -62z" />
<glyph unicode="n" horiz-adv-x="622" d="M0 754h719v-127h-262q-29 0 -68 -53.5t-39 -120.5q0 -160 88 -310q16 -29 37 -55.5t53 -62.5l-41 -25q-53 61 -74.5 90t-58.5 82q-135 197 -135 320q0 43 37 102l39 45l-250 -8z" />
<glyph unicode="o" horiz-adv-x="526" d="M61 539l41 14l50 20l59 41l31 25q-39 23 -52 31q-20 14 -36 28q-90 78 -91 160q0 74 47.5 121t118.5 47q86 0 155 -74.5t69 -167.5q0 -143 -150 -254q-43 -29 -149 -77q25 -49 79 -88t109 -39q80 0 195 75q37 25 96 78v-153l-78 -43q-45 -20 -85 -32.5t-71 -12.5 q-129 0 -221 92q-117 115 -117 209zM164 831q0 -49 31 -92q43 -61 81 -69q27 14 58 75q22 46 22 93q0 51 -28 82q-24 34 -69 34h-3q-43 0 -67.5 -33.5t-24.5 -89.5z" />
<glyph unicode="p" horiz-adv-x="518" d="M61 539l41 14l50 20l59 41l31 25q-39 23 -52 31q-20 14 -36 28q-90 78 -91 160q0 74 47.5 121t118.5 47q86 0 155 -74.5t69 -167.5q0 -143 -150 -254q-43 -29 -149 -77q25 -49 79 -88t109 -39q82 0 190 75q14 10 40 32t53 46v-153l-449 -320l-82 100l250 142 q-125 27 -217 162q-14 25 -37 69q-14 29 -29 60zM164 831q0 -49 31 -92q43 -61 81 -69q27 14 58 75q22 46 22 93q0 51 -28 82q-24 34 -69 34h-3q-43 0 -67.5 -33.5t-24.5 -89.5z" />
<glyph unicode="q" horiz-adv-x="753" d="M104 807q0 63 44.5 107t97.5 44l63 7l56 14l63 25l31 16l-25 37l51 20l66 -143l-49 -31q-51 -31 -92 -43l-37.5 -6t-34.5 -10l-72 -10q-35 0 -55 -27q-18 -18 -18 -62q0 -74 57 -143q41 -53 69 -59l41 18l86 33l95 18l24 2l66 -110q-127 -18 -180 -41q-180 -68 -181 -203 q0 -59 51.5 -110.5t124.5 -51.5q25 0 47.5 3t61.5 20q53 25 72 39l-15 24l-8 35q0 41 31 68.5t78 27.5q35 0 65 -30q27 -33 27 -70q0 -72 -99.5 -140.5t-193.5 -68.5q-133 0 -232.5 95.5t-99.5 217.5q0 63 47 132l54 61q-18 0 -62 45q-115 111 -115 250z" />
<glyph unicode="r" horiz-adv-x="774" d="M92 543q0 123 90 192q45 33 148 66l92 24q65 23 65 101q0 33 -4 47q0 20 -8 31l49 16l27 -55q20 -51 20 -84q0 -90 -37.5 -128t-127.5 -57q-84 -12 -148 -57q-82 -57 -82 -139q0 -92 63.5 -155.5t155.5 -63.5q29 0 60 12l49 26q-23 27 -23 76q0 41 33 71t78 30t76.5 -32 t31.5 -87q0 -76 -43 -117q-14 -14 -49 -27l131 -266l-63 -30l-119 274l-45 -8l-35 4l-248 -234l-106 68l231 170q-86 41 -131 76q-131 106 -131 256z" />
<glyph unicode="s" horiz-adv-x="1181" d="M49 793q0 80 90 133q72 39 125 39h109l-17 51l60 4l53 -170l-72 8l-63 4q-76 0 -136.5 -31.5t-60.5 -95.5q0 -51 40 -76.5t102 -25.5l63 6l61 8l56 2l37 -2l18 -2l104 -106v-148h216l2 627l125 -105v-807q0 -37 26 -38q41 0 82 47l33 49l65 -70l-39 -51q-49 -53 -106 -53 q-72 0 -129 55t-57 135v96h-213v-143q0 -31 -35 -31q-39 0 -142.5 108.5t-103.5 154.5q0 27 39 26h115v152l-62 -15l-84 -6q-119 0 -210 78t-91 193z" />
<glyph unicode="t" horiz-adv-x="761" d="M72 768q12 68 73 111q47 29 136 51l137 12q59 6 63 31q0 20 -14 43l45 18q12 -6 30.5 -51t18.5 -63q0 -41 -65 -74q-49 -23 -138 -39q-82 -8 -106 -19q-76 -25 -76 -83q0 -33 35 -70l35 -33q27 20 65 37q18 10 40 17.5t32 10.5t42 10t62 13l25 4l61 -108q-12 12 -38 12 q-66 0 -209 -76q-115 -61 -115 -157q0 -66 41 -113q20 -20 47 -32.5t59 -12.5q53 0 99 33l18 18l-16 25l-8 36q0 41 30.5 69t69.5 28q37 0 61.5 -29t30.5 -76q1 -5 1 -11q0 -39 -38 -87q-35 -43 -51 -49l98 -197l-82 -28l-55 206q-23 -16 -53.5 -23t-79.5 -7q-80 0 -173 99 t-93 208q0 74 57 125l33 24q-27 6 -80 66q-56 62 -56 117q0 7 1 14z" />
<glyph unicode="u" horiz-adv-x="1007" d="M6 365q0 49 37 90t84 59l-35 39l37 27l70 -138q-16 -8 -43 -34q-37 -37 -37 -70q0 -55 59 -94q45 -29 72 -29l26 23l35 26l62 39q-29 29 -60.5 102.5t-31.5 120.5q0 117 116 201q78 53 162 70q80 12 117 30q69 31 69 86q0 29 -4 45l-8 31l49 19q16 -16 35 -66 q4 -10 9 -39t8 -41q0 -53 -43 -102q-55 -55 -168 -80q-113 -18 -183.5 -69.5t-70.5 -123.5q0 -88 55 -155q57 -63 145 -64q27 0 64 15q41 12 63 32q-10 10 -18 29l-6 37q0 47 33.5 74.5t82.5 27.5q41 0 71 -35.5t30 -87.5q0 -66 -39 -104q-14 -14 -49 -31l133 -286l-66 -27 l-88 215q-12 -23 -116 -100q-135 -94 -230 -95q-82 0 -154.5 42t-72.5 106q0 27 8 51l8 29h-2q-26 0 -110 55q-104 72 -105 150zM311 63q0 -37 39 -51t84 -14q74 0 178 98q93 87 93 107l-41 -10l-62 -5l-22 2q-47 6 -82 23q-20 6 -37 20q-3 1 -6 1q-25 0 -76 -44 q-68 -61 -68 -127z" />
<glyph unicode="v" horiz-adv-x="1085" d="M49 758q0 80 82 125q64 32 129 32h4q76 0 125 29l49 33l-22 47l53 23l61 -144l-38 -39q-47 -37 -115 -49l-139 -22q-84 -23 -84 -88q0 -39 23.5 -75t55.5 -50l46 22l83 33l70 14l51 4l74 -104q-3 6 -17 6q-40 0 -174 -51q-178 -68 -178 -162q0 -57 68 -92q59 -27 125 -27 q88 0 227 101q117 86 129 110v584l127 -105v-807q0 -37 27 -38q45 0 102 71l21 33l57 -78l-39 -51q-49 -53 -106 -53q-72 0 -129.5 55t-57.5 135v84q-31 -31 -159 -80q-91 -34 -164 -34h-4q-125 0 -217 65q-100 72 -101 176q0 53 43 115l47 47q-14 6 -69 70q-66 78 -66 135z " />
<glyph unicode="w" horiz-adv-x="786" d="M88 176q0 45 26.5 93t69.5 81l-26 43q-47 94 -47 156q0 113 94 188q70 55 138.5 63.5t121.5 39.5q67 36 67 87q0 24 -16 62l-8 19l49 18l27 -53q29 -68 28 -105q0 -72 -50 -115.5t-154 -68.5q-96 -18 -153.5 -67.5t-57.5 -120.5q0 -86 59 -148.5t143 -62.5q29 0 69 12 t52 22q-20 27 -20 76q0 45 31.5 77t80.5 32q43 0 72 -40t29 -91t-39 -97q-27 -31 -51 -38l139 -295l-62 -23l-57 121q-8 -10 -98 -57q-115 -55 -195 -56q-109 0 -185.5 71t-76.5 177zM188 133q0 -76 37 -104.5t129 -28.5q51 0 148 76q88 68 94 82l-23 67l-67 -16l-96 -10 q-37 0 -97 32l-55 37l-35 -41q-35 -51 -35 -94z" />
<glyph unicode="x" horiz-adv-x="794" d="M104 643q0 61 50 105q31 27 92 47l180 43q57 12 89 37.5t32 48.5q0 25 -29 41t-74 16q-35 0 -51 -4t-57 -19l-60 -24l-55 100l64 17q80 18 118 18q82 0 142 -59q61 -55 61 -148q0 -66 -86 -112q-59 -31 -192 -62q-61 -12 -99 -41q-37 -25 -36 -65q0 -68 63 -123l63 -39 l41 18l86 33l95 18l24 3l66 -111q-127 -18 -180 -41q-180 -68 -181 -203q0 -72 29 -108q41 -53 147 -54q49 0 104.5 22.5t76.5 39.5l-15 24l-8 35q0 41 31 69t78 28q35 0 65 -31q27 -33 27 -70q0 -104 -100 -162q-84 -47 -193 -47q-135 0 -233.5 94.5t-98.5 219.5 q0 59 49 133l52 59q-39 20 -54.5 30.5t-33.5 29.5q-88 82 -89 194z" />
<glyph unicode="y" horiz-adv-x="518" d="M57 918q0 90 84 165q23 23 86 58l78 -97l-67 -49q-70 -63 -70 -121q0 -61 41 -114l41 -41l22 12l58 23l51 12l41 6l39 -108q-61 -12 -81 -17.5t-44 -17.5q-125 -55 -125 -160q0 -55 43 -84t115 -29q80 0 174 76q31 25 75 76v-166l-59 -33q-82 -33 -164 -33q-84 0 -176 72 t-92 164q0 72 37 133l37 43q-45 45 -72 82q-72 94 -72 148z" />
<glyph unicode="z" horiz-adv-x="518" d="M57 918q0 90 84 165q23 23 86 58l78 -97l-67 -49q-70 -63 -70 -121q0 -61 41 -114l41 -41l22 12l58 23l51 12l41 6l39 -108q-61 -12 -81 -17.5t-44 -17.5q-125 -55 -125 -160q0 -55 43 -84t115 -29q80 0 174 76q31 25 75 76v-166l-395 -340l-106 100l254 174 q-78 12 -154 76q-90 74 -90 160q0 72 37 133l37 43q-45 45 -72 82q-72 94 -72 148z" />
<glyph unicode="{" horiz-adv-x="593" d="M33 649q0 20 18 39q16 12 41 17h617v-89h-379l12 -196q0 -18 -15.5 -32.5t-41.5 -16.5q-37 0 -144.5 116.5t-107.5 161.5z" />
<glyph unicode="|" horiz-adv-x="600" d="M37 649q0 20 18 39q16 12 41 17h617v-89h-379l12 -196q0 -18 -15.5 -32.5t-41.5 -16.5q-37 0 -144.5 116.5t-107.5 161.5zM141 123l572 287v-95l-490 -292z" />
<glyph unicode="}" horiz-adv-x="593" d="M57 819q0 63 83 101t179 38q129 0 236 -88q129 -106 150 -204v-113q-12 0 -93 -37q-39 -14 -71.5 -29.5t-63.5 -33.5l-90 -56l-49 -32l57 -142l4 -22q0 -31 -53 -64q-23 -12 -148.5 68t-125.5 129q0 39 149 115l152 69l190 76l117 45q-6 27 -94 104q-106 94 -168 95 q-43 0 -74 -11q-10 0 -33 -12l27 -57q12 -31 12 -53q0 -55 -59 -82q-25 -10 -129.5 69.5t-104.5 126.5z" />
<glyph unicode="~" horiz-adv-x="518" d="M27 831v189l39 12l75 15q47 0 98.5 -48.5t55.5 -74.5v-424q14 -39 29.5 -56.5t31.5 -17.5q84 0 187 51q80 39 88 58v-152l-74 -37q-10 -4 -46 -15.5t-62 -11.5q-117 0 -205 113q-68 86 -68 143v371l-6 23q-14 8 -25 8q-23 0 -72.5 -67.5t-45.5 -78.5z" />
<glyph horiz-adv-x="2048" />
<glyph unicode="&#xa1;" horiz-adv-x="575" d="M27 954q25 31 45 45q63 47 123 48q70 0 117.5 -41t47.5 -107v-399q4 -16 7.5 -29.5t15.5 -38.5q25 -29 70 -29q47 0 132 48.5t91 62.5v-119l-512 -315l-82 100l317 180l-28 23l-62 57l-49 64q-18 29 -22 49v350v39q-2 33 -27 35q-43 0 -82 -70l-31 -69z" />
<glyph unicode="&#xa2;" horiz-adv-x="815" d="M31 610l303 62q-66 39 -92 63q-92 74 -92 142q0 72 120.5 112.5t151.5 30.5l-23 35l62 35l84 -156q-39 0 -72 -5t-65 -14q-139 -31 -140 -88q0 -43 58 -92l57 -39h541v-92h-389q23 -6 86 -82q80 -96 79 -170q0 -123 -151 -180q-90 -33 -135 -33q-16 0 -23 2l158 -190 l-96 -53l-127 243q-33 6 -73 14.5t-71 20.5q-145 53 -145 135q0 31 18 49q31 31 86 31t123 -65q23 -20 58 -66l34 -2q82 0 140 23q88 35 88 114q0 55 -37 111q-53 82 -90 90l-369 -84z" />
<glyph unicode="&#xa3;" horiz-adv-x="788" d="M78 610l303 62q-66 39 -92 63q-92 74 -92 142q0 72 127 112.5t157 30.5l-22 35l61 35l84 -156q-39 0 -74.5 -5t-68.5 -14q-145 -31 -146 -88q0 -43 72 -94l72 -41l311 62l45 -109l-233 -41q23 -6 86 -82q80 -96 80 -170q0 -123 -152 -180q-90 -33 -135 -33q-16 0 -23 2 l158 -190l-96 -53l-127 243q-33 6 -73 14.5t-71 20.5q-145 53 -145 135q0 31 18 49q31 31 86 31t123 -65q23 -20 58 -66l34 -2q82 0 140 23q88 35 88 114q0 55 -37 111q-53 82 -90 90l-369 -84z" />
<glyph unicode="&#xa4;" horiz-adv-x="747" d="M57 352q0 35 32 52.5t71 17.5q49 0 119 -70l59 -71l18 -5h31q84 0 139 27q82 37 82 131q0 57 -53 125q-43 55 -63 64l-46 -232l-120 47l86 185l-314 -74l-41 104l289 62q-16 0 -48 22.5t-83 73.5q-57 57 -57 96q0 80 126 123t146 31l-31 47l54 27l84 -154q-6 6 -129 -32 t-123 -81q0 -33 65 -86l68 -51l309 70l45 -105l-229 -55l88 -80q88 -98 88 -178q0 -102 -105 -170q-78 -49 -141 -49l-65 -6l145 -191l-84 -47l-123 238h-29l-26 2q-94 12 -164 65.5t-70 126.5z" />
<glyph unicode="&#xa5;" horiz-adv-x="669" d="M31 680q0 123 52 206t136 126l-24 45l55 24l88 -153q-72 -12 -158 -125q-70 -94 -69 -213q0 -76 47 -129t118 -53q100 0 146 69q12 23 24 72q-35 12 -69.5 53t-34.5 84q0 47 33 80q16 16 34.5 24.5t47.5 8.5q74 0 108 -66q25 -47 25 -112l-2 -37l51 4q27 0 51.5 12 t50.5 39l25 29v-140l-33 -14q-33 -12 -63 -16q-27 0 -60 10q-14 0 -35 10q-14 -31 -28.5 -55.5t-24.5 -38.5q-82 -94 -203 -94q-133 0 -210.5 99t-77.5 251z" />
<glyph unicode="&#xa6;" horiz-adv-x="669" d="M31 680q0 123 52 206t136 126l-24 45l55 24l88 -153q-72 -12 -158 -125q-70 -94 -69 -213q0 -76 47 -129t118 -53q100 0 146 69q12 23 24 72q-35 12 -69.5 53t-34.5 84q0 47 33 80q16 16 34.5 24.5t47.5 8.5q74 0 108 -66q25 -47 25 -112l-2 -37q35 0 55 4q29 0 53.5 12 t51.5 39l24 29v-140l-33 -14q-33 -12 -63 -16q-8 0 -25.5 2t-38.5 8q-16 0 -37 10q-14 -31 -28.5 -55.5t-24.5 -38.5q-82 -94 -203 -94q-133 0 -210.5 99t-77.5 251zM215 123l557 237v-75l-475 -262z" />
<glyph unicode="&#xa7;" horiz-adv-x="884" d="M41 657q0 141 96 234.5t246 93.5q117 0 205 -69.5t88 -180.5v-127h311v-125h-315v-22q0 -66 -13.5 -92.5t-44.5 -30.5q-45 0 -134 105.5t-89 136.5q0 16 31 26l78 8q41 0 49 -4v201q0 43 -37 67.5t-90 24.5q-98 0 -193.5 -95t-95.5 -198q0 -150 117 -297q35 -43 119 -114 l-54 -35q-70 27 -188 225q-86 141 -86 268z" />
<glyph unicode="&#xa8;" horiz-adv-x="868" d="M41 657q0 141 96 234.5t246 93.5q117 0 205 -69.5t88 -180.5v-108h305v-125h-309v-23q0 -66 -13.5 -92.5t-44.5 -30.5q-45 0 -134 105.5t-89 136.5q0 16 31 27l78 8q41 0 49 -4v182q0 43 -37 67.5t-90 24.5q-98 0 -193.5 -95t-95.5 -198q0 -154 84 -297q25 -47 84 -114 l-41 -35q-53 20 -151 225q-68 141 -68 268zM430 123l551 285v-93l-469 -292z" />
<glyph unicode="&#xa9;" horiz-adv-x="589" d="M37 961q18 23 73.5 41t104.5 18q35 0 100 -72q68 -68 68 -94v-246h303v-125h-307v-32q0 -18 -4 -39q-12 -74 -56 -74q-45 0 -134 105.5t-89 136.5q0 20 39 28l72 6q41 0 49 -4v258q0 37 -11.5 49.5t-39.5 12.5q-16 0 -72 -49q-20 -20 -37 -41q-4 -6 -12 -17z" />
<glyph unicode="&#xaa;" horiz-adv-x="579" d="M37 961q18 23 73.5 41t104.5 18q35 0 100 -72q68 -68 68 -94v-233h303v-125h-307v-29v-21q-4 -12 -4 -16q-12 -68 -56 -68q-45 0 -134 99.5t-89 130.5q0 20 39 29l72 6q41 0 49 -4v245q0 37 -11.5 49.5t-39.5 12.5q-16 0 -72 -49q-20 -20 -37 -41q-4 -6 -12 -17zM137 123 l551 254v-86l-469 -268z" />
<glyph unicode="&#xab;" horiz-adv-x="499" d="M33 653q20 6 45.5 14.5t48.5 20.5q96 55 96 150q0 41 -23.5 74.5t-66.5 33.5q-41 0 -53 -4l4 66l43 12l45 4q61 0 119.5 -61.5t58.5 -135.5q0 -92 -59 -165q-70 -90 -137 -109l53 -72q53 -33 127 -32q61 0 133 34q109 51 137 86v-166q-53 -35 -104 -48t-123 -13 q-133 0 -220 89t-124 222z" />
<glyph unicode="&#xac;" horiz-adv-x="892" d="M-168 715v112q23 23 148 64q96 29 165 29q102 0 197.5 -81t95.5 -190q0 -88 -45 -133t-137 -70l-74 -10l-22 -2q6 -45 18 -69q39 -70 148 -70q61 0 123 24q74 31 98 62v637l125 -105v-807q0 -37 26 -38q41 0 82 47l33 49l66 -70l-39 -51q-49 -53 -107 -53q-72 0 -129 55 t-57 135v62l-39 -21q-88 -41 -148 -41q-145 0 -223 116t-78 208q0 33 9 57l18 -2h27q86 0 151 19q92 29 92 94q0 61 -56 98t-128 37q-98 0 -227 -45q-29 -8 -58.5 -21.5t-54.5 -25.5z" />
<glyph unicode="&#xad;" horiz-adv-x="706" d="M27 1004l82 18q33 6 73.5 13t75.5 7q143 0 247.5 -105.5t104.5 -244.5q0 -172 -125 -272q-43 -33 -127 -68q29 -70 56 -112q80 -115 194 -115q57 0 111 20l47 23l45 -127l-66 -23q-35 -10 -65.5 -16t-54.5 -6q-135 0 -248 174q-33 51 -84 176l-43 -4h-35q-47 0 -90 38 t-43 81t30.5 73.5t80.5 30.5q41 0 88 -39l38 -39q74 31 111 56q113 78 113 188q0 92 -60 146q-33 29 -79 43t-113 14q-49 0 -139 -25l-76 -24z" />
<glyph unicode="&#xae;" horiz-adv-x="706" d="M27 1004l82 18q33 6 73.5 13t75.5 7q104 0 201 -65q82 -57 125 -150l18 4q31 6 50.5 8.5t58.5 2.5q117 0 231.5 -108.5t114.5 -219.5q0 -135 -68 -246q-20 -33 -69 -82l-115 101q68 49 100 82q100 96 101 163q0 80 -69 140.5t-144 60.5q-41 0 -61.5 -2t-65.5 -14 q-20 -2 -26.5 -4t-29.5 -13l-2 -67q0 -41 -43 -119q-49 -86 -131 -131l-76 -31q29 -70 56 -112q80 -115 194 -115q57 0 111 20l47 23l45 -127l-66 -23q-35 -10 -65.5 -16t-54.5 -6q-135 0 -248 174q-33 51 -84 176l-43 -4h-35q-47 0 -90 38t-43 81t30.5 73.5t80.5 30.5 q41 0 88 -39l38 -39q74 31 111 56q113 78 113 188q0 92 -60 146q-33 29 -79 43t-113 14q-49 0 -139 -25l-76 -24z" />
<glyph unicode="&#xaf;" horiz-adv-x="706" d="M27 1004l82 18q33 6 73.5 13t75.5 7q152 0 252 -106.5t100 -263.5h123q25 66 74 104q57 45 141 45q123 0 223 -112q70 -78 125 -211l39 -115l-53 -25q-18 111 -49 166q-86 166 -266 166q-158 0 -207 -94l-8 -47q0 -47 22 -76q33 -39 90 -39q49 0 101 23l45 22l55 -102 l-35 -23q-45 -23 -96 -22l-39 4q-78 14 -131 80q-49 66 -49 159h-121q-35 -113 -139 -178l-97 -45q29 -70 56 -112q80 -115 194 -115q57 0 111 20l47 23l45 -127l-66 -23q-35 -10 -65.5 -16t-54.5 -6q-135 0 -248 174q-33 51 -84 176l-43 -4h-35q-47 0 -90 38t-43 81 t30.5 73.5t80.5 30.5q41 0 88 -39l38 -39q74 31 111 56q113 78 113 188q0 92 -60 146q-33 29 -79 43t-113 14q-49 0 -139 -25l-76 -24z" />
<glyph unicode="&#xb0;" horiz-adv-x="827" d="M86 115q0 127 131 127q47 0 88 -72l31 -72q41 0 63.5 5.5t53.5 19.5q119 55 118 196q0 47 -23.5 105.5t-53.5 87.5l-45 -14l-68 -21l-96 -16l-27 -4l-37 123l68 6q31 2 61.5 8t59.5 14q82 20 131 62q57 47 57 118q0 61 -60.5 94t-148.5 33q-39 0 -56.5 -2t-68.5 -14 q-76 -12 -104 -31l-35 125l78 21q61 12 121 12q143 0 246.5 -74.5t103.5 -201.5q0 -106 -62 -168l-67 -43q53 -35 101 -124t48 -169q0 -125 -107.5 -201t-201.5 -76q-12 0 -37 4q35 -59 58 -88q72 -88 141 -88q55 0 96 17l43 22l53 -123l-37 -18q-25 -8 -52 -14.5t-56 -6.5 q-123 0 -229 144q-82 113 -82 159l-60 9q-57 8 -97 41.5t-40 87.5z" />
<glyph unicode="&#xb1;" horiz-adv-x="610" d="M57 539q0 162 90 272q53 66 144 117l96 49l-22 39l53 22l100 -170l-65 -16q-68 -18 -115 -45q-86 -45 -145 -100q-86 -80 -87 -172q0 -150 95 -230q86 -70 213 -69l69 2l68 6l78 -123l-78 -17l-96 -4q-137 0 -258 115q-139 129 -140 324zM303 596l64 6q76 6 84 8 q37 10 53 13q41 8 67.5 14t75.5 25q33 8 64 22v-104l-166 -62q-8 -2 -41 -12q-82 -23 -105 -29l-43 -8z" />
<glyph unicode="&#xb2;" horiz-adv-x="653" d="M53 643q0 160 72 258q10 16 82 78l-23 49l54 21l81 -162q-78 -25 -135 -108t-57 -197q0 -92 56.5 -167t142.5 -75q78 0 114 70q27 57 27 147v39v27q-4 14 -6 34.5t-12 55.5l-3 30q0 100 43 181q61 117 203 116q18 0 35 -10l27 -24v-76l-23 33q-12 16 -51 16 q-57 0 -81 -49t-24 -127v-64q6 -33 9 -49l8 -69v-33q0 -121 -33 -193q-55 -125 -203 -125q-131 0 -217 113t-86 260z" />
<glyph unicode="&#xb3;" horiz-adv-x="1103" d="M53 670q0 162 72 258l82 76l-23 51l54 18l81 -162q-31 -12 -102 -102q-90 -115 -90 -213q0 -88 56.5 -159.5t142.5 -71.5q78 0 114 69q27 57 27 148l-6 90q-4 37 -10 53l-5 41q0 90 43 162q66 106 203 106q68 0 119 -39q70 -57 70 -98l2 -791q0 -37 26 -38q37 0 80 49 l33 51l68 -74l-39 -51q-49 -53 -107 -53q-70 0 -127 55t-57 135v731l-19 31q-25 31 -61 31q-57 0 -81 -45t-24 -115v-57q6 -31 9 -45l8 -66v-33q0 -121 -33 -192q-55 -125 -203 -125q-131 0 -217 112.5t-86 262.5z" />
<glyph unicode="&#xb4;" horiz-adv-x="514" d="M76 627q0 133 86 217q76 72 170 71q37 0 57.5 -2t61.5 -12q25 -4 51 -16l18 -117l-35 8q-92 25 -137 25q-68 0 -144.5 -58.5t-76.5 -138.5t61 -135q59 -49 152 -66q70 -6 180 50l94 61v-145q-20 -14 -29.5 -19.5t-33.5 -15.5q-86 -35 -180 -35q-115 0 -205 99.5 t-90 228.5z" />
<glyph unicode="&#xb5;" horiz-adv-x="514" d="M76 627q0 133 86 217q76 72 170 71q37 0 57.5 -2t61.5 -12q25 -4 51 -16l18 -117l-35 8q-92 25 -137 25q-74 0 -147.5 -52.5t-73.5 -144.5q0 -80 61 -135q59 -49 152 -66q70 -6 180 50l94 61v-145l-448 -322l-82 100l266 154q-63 -6 -160 80q-115 104 -114 246z" />
<glyph unicode="&#xb6;" horiz-adv-x="634" d="M72 356q0 39 30.5 70t77.5 31q33 0 62 -15q33 -12 43 -26l32 26l25 27l25 43l14 31q-25 -6 -133 75q-125 94 -125 193q0 90 53 143.5t139 53.5q98 0 164 -109q55 -92 56 -211q0 -190 -107 -317q-33 -39 -109 -90l25 -91q37 -88 105 -88q39 0 61 4l47 13l27 -117l-54 -6 l-81 -6q-63 0 -113 82q-63 111 -64 192l-55 -8l-37 -2q-41 0 -76 29q-33 33 -32 73zM223 788q0 -88 90 -153q27 -20 90 -51l21 45q22 71 22 147q0 70 -31.5 112t-72.5 42q-45 0 -84 -47q-35 -47 -35 -95z" />
<glyph unicode="&#xb7;" horiz-adv-x="700" d="M33 365l65 34l121 70l121 82l33 24q-51 43 -80 74q-82 92 -82 170q0 86 63.5 137.5t159.5 51.5q86 0 143.5 -67t57.5 -157q0 -92 -62 -176q-8 -12 -23 -26.5t-38 -32.5l43 -27l84 -43l115 -41l61 -18v-58l-82 27q-59 18 -92 31.5t-76 34.5l-80 41l-24 12l-60 -45 l-112 -82l-117 -70l-70 -39zM315 807q0 -66 52 -131q37 -49 59 -58q18 2 72 66q63 80 63 150q0 55 -37 86.5t-86 31.5q-51 0 -87 -44t-36 -101z" />
<glyph unicode="&#xb8;" horiz-adv-x="702" d="M33 365l65 34l121 70l72 49l82 57q-23 6 -84 74q-78 88 -78 170q0 86 63.5 137.5t159.5 51.5q86 0 143.5 -67t57.5 -157q0 -61 -37 -129q-23 -41 -44.5 -67.5t-45.5 -42.5l131 -84q59 -35 143 -64l35 -12l-2 -43l-80 -43q-84 -49 -170 -109l-116 -84l-107 -83l-78 96 l70 49q27 18 76 50t73 46l140 82l57 37l-45 20l-72 39l-82 54l-20 12l-60 -45l-114 -82l-82 -51l-103 -58zM315 807q0 -66 52 -131q37 -49 59 -58q18 2 72 66q63 80 63 150q0 55 -36 81.5t-87 26.5q-53 0 -90 -39q-33 -39 -33 -96z" />
<glyph unicode="&#xb9;" horiz-adv-x="806" d="M63 561q12 0 80 31l72 31l131 69q-41 18 -77 70.5t-36 105.5q0 68 59.5 115t156.5 47q74 0 137 -57.5t63 -126.5q0 -61 -67 -135l-68 -58l117 -57l74 35l36 6q31 0 43 -6l58 -86q-16 4 -25 4q-53 0 -139 -68q-74 -61 -74 -162q0 -49 32 -78.5t99 -29.5q68 0 133 63 q51 47 54 72v-166l-43 -26q-16 -6 -54.5 -16.5t-89.5 -10.5q-61 0 -139 68q-88 82 -88 192q0 61 37 117l43 49l-127 74l-58 -35l-110 -62l-100 -45l-70 -28zM338 858q0 -45 23.5 -82t50.5 -45l65 33q68 43 68 94q0 63 -22.5 83t-69.5 20q-49 0 -82 -23t-33 -80z" />
<glyph unicode="&#xba;" horiz-adv-x="542" d="M23 815v178l36 13l70 14q33 0 57 -16q27 -12 56 -46l364 -417l33 39l68 -123q-25 -37 -134 -95q-74 -37 -139 -36q-111 0 -203 116q-74 96 -73 154v315q0 20 -4 29.5t-9 9.5q-25 0 -77 -67zM281 514q0 -92 114 -92q29 0 53.5 8t59.5 33l53 43l-280 325v-317z" />
<glyph unicode="&#xbb;" horiz-adv-x="620" d="M18 457q0 37 32 64.5t77 27.5q25 0 55 -25l29 -37q66 12 127 82q57 70 57 166q0 84 -47 125q-43 43 -119 43q-39 0 -100 -26l-53 -27l-53 131l63 23q55 16 98 16q125 0 219 -121q84 -113 84 -227l-6 -43l-12 -41l51 -25l53 -10q43 0 89 22q27 14 40 22.5t17 12.5v-164 l-64 -8l-63 -4q-12 0 -78 45l-61 47l-35 -43l-64 -65l-53 -39l-47 -27q18 -72 37 -114q49 -115 115 -115q31 0 47 2t42.5 11t32.5 14l39 -140l-22 -4l-94 -10l-23 2q-104 12 -178 178q-25 55 -55 166h-66q-37 0 -76 33q-35 35 -35 82z" />
<glyph unicode="&#xbc;" horiz-adv-x="710" d="M41 977l76 18q55 12 106 13q131 0 217 -125q10 -16 28.5 -55.5t31.5 -73.5h153q41 0 103 -56q37 -35 59 -67v-117l-246 -272l-90 92l318 235q-14 14 -76 47q-16 8 -28.5 13.5t-33.5 9.5l-30 4h-13h-36q-20 -6 -29 -8l-39 -12l-23 -70q-16 -45 -30.5 -70.5t-34.5 -46.5 q-31 -33 -102 -69l-35 -15q-4 -33 47 -123q61 -111 135 -110l76 6l51 8l27 -139h-115q-111 0 -209 172q-31 55 -74 172l-65 -4q-43 0 -78 33q-33 37 -33 79q0 37 31 70t74 33q70 0 96 -66q80 12 129 92q43 68 43 148q0 78 -44 124t-114 46q-31 0 -45 -2t-45 -14 q-45 -12 -68 -39z" />
<glyph unicode="&#xbd;" horiz-adv-x="768" d="M72 580q0 27 6 58.5t22 76.5q6 27 8.5 33t20.5 40l33 -22l63 -39l90 -43q0 37 4.5 59.5t22.5 44.5q121 145 197 170l-70 66l39 33l78 -58q80 -66 80 -88q0 -16 -39 -43l-101 -75q-55 -49 -82 -91l-22 -40h436v-119h-301l-90 6q-55 6 -94 22q-47 16 -78 35l-80 51l-20 -69 q-18 -72 -19 -109q0 -145 116 -263t247 -140l28 47q37 49 72 49q39 0 70.5 -16.5t44.5 -53.5q12 -47 -40 -73.5t-110 -26.5q-182 0 -354 174q-178 182 -178 404z" />
<glyph unicode="&#xbe;" horiz-adv-x="915" d="M80 469q0 66 37 176l37 96l100 -102l-21 -47l-6 -23q-4 -16 -8 -20q57 -51 94 -74q121 -76 217 -76q162 0 162 127q0 45 -110.5 113t-124.5 61l157 234l-79 57l34 39l181 -129l-170 -225q29 -12 61.5 -29.5t42.5 -23.5q104 -72 104 -166q0 -84 -52 -123t-132 -39 q-92 0 -254 88q-139 78 -147 96v-61q0 -184 108 -281q96 -84 269 -84q80 0 145 23l51 22l-10 15q-12 18 -12 37q0 33 18 55q29 33 98 33q76 0 76 -78q0 -68 -118.5 -117t-252.5 -49q-231 0 -363 129t-132 346z" />
<glyph unicode="&#xbf;" horiz-adv-x="872" d="M66 395q0 127 100 226q33 33 102 67l-30 55q-31 61 -31 103q0 86 86 139q72 41 176 41q49 0 76.5 -4t42.5 -10l-15 61l54 12l49 -182l-66 6l-88 6q-102 0 -151 -16q-80 -25 -80 -92q0 -35 16 -62l27 -32l20 2l105 8q70 0 126 -12.5t99 -46.5q86 -68 123 -150 q31 -68 31 -149q0 -35 -4.5 -62t-16.5 -63l-20 -52l-156 70q33 29 45 47q47 63 47 113q0 80 -13 121t-40 67l-201 -336l-135 109l260 262l-12 4q-37 10 -76 10q-31 0 -47 -2t-61.5 -15t-102.5 -52t-92 -101.5t-35 -115.5q0 -127 150 -234q49 -33 151 -82l-55 -47 q-117 74 -178 123q-180 150 -180 266z" />
<glyph unicode="&#xc0;" horiz-adv-x="817" d="M63 457q0 74 56 151q18 25 57 58l-51 65q-51 78 -45 133q25 166 235 166l201 10l-16 50l57 12l59 -162l-251 -16q-80 0 -140.5 -21.5t-60.5 -79.5q0 -39 24 -92q16 -33 31 -47l55 23q80 25 172 24q115 0 211 -49q115 -59 115 -164q0 -86 -132 -146.5t-132 -117.5 q0 -31 35 -49q39 -16 84 -17q51 0 135 31l72 31l28 -117l-59 -20q-76 -20 -115 -21q-80 0 -178 68q-106 76 -107 151q0 88 143.5 150.5t145.5 83.5q0 35 -76 53q-37 8 -75.5 12t-91.5 4q-117 0 -193 -39q-96 -49 -96 -149q0 -109 119 -221q88 -82 223 -160q100 -55 121 -59 l-54 -47q-20 10 -34 18q-35 18 -97 57q-141 90 -241 191q-133 137 -134 252z" />
<glyph unicode="&#xc1;" horiz-adv-x="1226" d="M63 442q0 86 58 158l63 57q-33 16 -67 78q-33 66 -33 115q0 70 74.5 123t136.5 53l106 -2q43 0 60 -8l-23 65l62 9l53 -187l-64 6l-106 4h-42t-44 -4q-35 0 -80 -29.5t-45 -78.5q0 -37 27 -78l30 -35h332l109 -119v-131h215v580l123 -105v-807q0 -37 26 -38q37 0 82 51 l35 53l66 -78l-23 -33q-55 -72 -125 -71q-70 0 -127 55t-57 135v142h-215v-123q0 -12 -7.5 -17.5t-27.5 -9.5q-31 -6 -172 141q-72 76 -72 103q0 10 11.5 16t43.5 6h99v137h-234q-59 0 -97 -45t-38 -114q0 -119 156 -256q135 -117 160 -111l-50 -47q-39 0 -192 129 q-186 158 -187 311z" />
<glyph unicode="&#xc2;" horiz-adv-x="1196" d="M41 449q0 84 55 157l62 60q-16 8 -47 57q-39 66 -39 119q0 80 79.5 129t170.5 49l151 4l-16 53l55 8l68 -178l-54 2l-80 -2h-81q-84 0 -134 -20q-68 -29 -67 -90q0 -35 18 -72q12 -23 33 -37l41 12q78 18 131 19q129 0 215 -47q104 -55 105 -160q0 -92 -97 -158l-96 -47 l64 -31q57 -23 94 -22q57 0 114.5 45t61.5 61v658l125 -105v-807q0 -37 26 -38q39 0 82 49l33 51l66 -74l-39 -51q-49 -53 -107 -53q-72 0 -129 55t-57 135v19l-45 -27q-47 -23 -92 -22q-123 12 -244 120q-84 78 -102 121q12 -18 132.5 38t120.5 120q0 37 -38.5 49 t-118.5 12h-62q-92 0 -173 -62.5t-81 -139.5q0 -92 146 -236q47 -45 147 -123l-47 -43q-113 82 -174 141q-176 170 -176 302z" />
<glyph unicode="&#xc3;" d="M-426 -86l96 18q80 12 140 13q84 0 196 -150q92 -125 96 -160l-39 -26q0 25 -77 121q-92 115 -187 114q-31 0 -54.5 -4t-71.5 -19.5t-60 -27.5z" />
<glyph unicode="&#xc4;" d="M-641 -225l344 293l334 -324l-43 -47l-262 276l-285 -272z" />
<glyph unicode="&#xc5;" d="M-383 1270q0 37 29.5 64.5t66.5 27.5t64.5 -26.5t27.5 -65.5t-25.5 -67.5t-66.5 -28.5t-68.5 27.5t-27.5 68.5z" />
<glyph unicode="&#xc6;" d="M-561 1386l49 23q18 -82 82.5 -134t165.5 -52q102 0 174 73q47 53 59 115l43 -22q-29 -135 -86 -197q-72 -78 -190 -78q-111 0 -197 100q-43 53 -100 172zM-350 1458q0 33 25.5 60.5t60.5 27.5t61.5 -26.5t26.5 -61.5q0 -33 -24.5 -59.5t-63.5 -26.5q-37 0 -61.5 24.5 t-24.5 61.5z" />
<glyph unicode="&#xc7;" d="M-440 1305q0 86 53 137q49 53 160 53q45 0 102 -29q23 -8 49 -28v-47l-16 4l-66 6q-88 0 -129 -47q-43 -43 -43 -123q0 -94 54 -182q14 -25 55 -70l-60 16l-79 99q-80 117 -80 211z" />
<glyph unicode="&#xc8;" d="M-440 1305q0 86 53 137q49 53 160 53q45 0 102 -29q23 -8 49 -28v-47l-16 4l-66 6q-88 0 -129 -47q-43 -43 -43 -123q0 -94 54 -182q14 -25 55 -70l-60 16l-79 99q-80 117 -80 211zM-248 1204q0 37 26.5 64.5t65.5 27.5q37 0 65 -26.5t28 -65.5q0 -37 -27 -64.5 t-66 -27.5q-37 0 -64.5 26.5t-27.5 65.5z" />
<glyph unicode="&#xc9;" horiz-adv-x="442" d="M94 180v838l125 -105v-807q0 -37 27 -38q39 0 82 49l32 51l66 -74l-39 -51q-49 -53 -106 -53q-72 0 -129.5 55t-57.5 135z" />
<glyph unicode="&#xca;" horiz-adv-x="442" d="M94 180v1069q0 74 65.5 124t182.5 50q178 0 371 -106q133 -74 274 -203q103 -95 109 -115l-70 -6q-31 90 -278 221q-184 98 -375 99q-80 0 -117 -29q-25 -18 -37 -67v-1111q0 -37 27 -38q39 0 80 49l30 51l70 -74l-39 -51q-49 -53 -106 -53q-72 0 -129.5 55t-57.5 135z " />
<glyph unicode="&#xcb;" horiz-adv-x="442" d="M94 180v1069q0 74 65.5 124t182.5 50q178 0 371 -106q133 -74 274 -203q103 -95 109 -115l-70 -6q-31 90 -278 221q-184 98 -375 99q-80 0 -117 -29q-25 -18 -37 -67v-1111q0 -37 27 -38q39 0 84 53l35 55l61 -82l-39 -51q-49 -53 -106 -53q-72 0 -129.5 55t-57.5 135z M942 1346q0 33 20.5 53t57.5 24q33 0 56.5 -22t23.5 -55q0 -31 -21.5 -50.5t-54.5 -21.5q-31 0 -59 18q-23 18 -23 54z" />
<glyph unicode="&#xcc;" horiz-adv-x="442" d="M94 180v1069q0 74 65.5 124t182.5 50q188 0 395 -129q68 -43 168 -131l-18 49q-18 55 -19 93q0 96 52.5 148t154.5 52q61 0 111 -35q22 -14 45 -43l-4 -49l-49 23l-58 10q-82 0 -119.5 -50t-37.5 -130q0 -90 47 -166q10 -20 49 -66l-62 -6q-31 92 -260 221 q-176 98 -364 99q-80 0 -117 -29q-25 -18 -37 -67v-1111q0 -37 27 -38q39 0 80 49l30 51l70 -74l-39 -51q-49 -53 -106 -53q-72 0 -129.5 55t-57.5 135z" />
<glyph unicode="&#xcd;" horiz-adv-x="442" d="M94 180v1069q0 74 65.5 124t182.5 50q188 0 395 -129q68 -43 168 -131l-18 49q-18 55 -19 93q0 96 52.5 148t154.5 52q61 0 111 -35q22 -14 45 -43l-4 -49l-49 23l-58 10q-82 0 -119.5 -50t-37.5 -130q0 -90 47 -166q10 -20 49 -66l-62 -6q-31 92 -260 221 q-176 98 -364 99q-80 0 -117 -29q-25 -18 -37 -67v-1111q0 -37 27 -38q39 0 80 49l30 51l70 -74l-39 -51q-49 -53 -106 -53q-72 0 -129.5 55t-57.5 135zM1055 1208q0 37 28.5 62.5t67.5 25.5q41 0 67.5 -26.5t26.5 -67.5q0 -37 -26.5 -63.5t-65.5 -26.5q-41 0 -69.5 25.5 t-28.5 70.5z" />
<glyph unicode="&#xce;" horiz-adv-x="442" d="M92 1194q0 98 66 170q111 117 387 117q109 0 230.5 -24.5t260.5 -78.5q197 -74 410 -192q166 -93 174 -109l-88 -26q-10 14 -152 86q-88 45 -174 79.5t-206.5 73.5t-231.5 59.5t-219 20.5q-178 0 -262 -72q-68 -55 -68 -163v-1029q0 -37 27 -38q41 0 82 53l32 55l66 -82 l-39 -51q-49 -53 -106 -53q-72 0 -129.5 55t-57.5 135v989z" />
<glyph unicode="&#xcf;" horiz-adv-x="442" d="M92 1194q0 98 66 170q111 117 387 117q109 0 230.5 -24.5t260.5 -78.5q197 -74 410 -192q166 -93 174 -109l-88 -26q-10 14 -152 86q-88 45 -174 79.5t-206.5 73.5t-231.5 59.5t-219 20.5q-178 0 -262 -72q-68 -55 -68 -163v-1029q0 -37 27 -38q41 0 82 53l32 55l66 -82 l-39 -51q-49 -53 -106 -53q-72 0 -129.5 55t-57.5 135v989zM1458 1395q0 33 20.5 53t57.5 25q33 0 56.5 -22.5t23.5 -55.5q0 -31 -21.5 -50.5t-54.5 -21.5q-31 0 -59 18q-23 18 -23 54z" />
<glyph unicode="&#xd0;" horiz-adv-x="442" d="M92 1194q0 111 66 188q111 129 387 129q193 0 430 -81q178 -57 344 -152l141 -82l-24 43q-25 53 -25 111q0 88 58.5 137t148.5 49q55 0 113 -39l43 -39l-5 -43l-28 12q-47 14 -78 15q-80 0 -123 -45q-39 -45 -39 -111q0 -57 45 -121q14 -20 47 -51l-61 -33l-150 82 q-184 92 -368 154q-262 84 -465 84q-176 0 -262 -80q-68 -66 -68 -186v-1029q0 -37 27 -38q41 0 82 53l32 55l66 -82l-39 -51q-49 -53 -106 -53q-72 0 -129.5 55t-57.5 135v989z" />
<glyph unicode="&#xd1;" horiz-adv-x="442" d="M92 1194q0 111 66 188q111 129 387 129q193 0 430 -81q178 -57 344 -152l141 -82l-24 43q-25 53 -25 111q0 88 58.5 137t148.5 49q55 0 113 -39l43 -39l-5 -43l-28 12q-47 14 -78 15q-80 0 -123 -45q-39 -45 -39 -111q0 -57 45 -121q14 -20 47 -51l-61 -33l-150 82 q-184 92 -368 154q-262 84 -465 84q-176 0 -262 -80q-68 -66 -68 -186v-1029q0 -37 27 -38q41 0 82 53l32 55l66 -82l-39 -51q-49 -53 -106 -53q-72 0 -129.5 55t-57.5 135v989zM1597 1264q0 37 29 62.5t68 25.5q41 0 67.5 -27t26.5 -68q0 -37 -26.5 -63.5t-65.5 -26.5 q-41 0 -70 26t-29 71z" />
<glyph unicode="&#xd2;" horiz-adv-x="442" d="M-371 1182q0 119 70 176t188 57q168 0 269 -149q29 -47 63 -150v-1010q0 -37 27 -38q37 0 76 57l28 59l76 -90l-39 -51q-49 -53 -106 -53q-72 0 -129.5 55t-57.5 135v942q0 53 -49 138q-66 106 -160 106q-70 0 -106.5 -55.5t-36.5 -139.5q0 -37 4 -65.5t18 -73.5l25 -67 l-119 61l-20 49q-20 66 -21 107z" />
<glyph unicode="&#xd3;" horiz-adv-x="442" d="M-371 1182q0 119 70 176t188 57q168 0 269 -149q29 -47 63 -150v-1010q0 -37 27 -38q37 0 76 57l28 59l76 -90l-39 -51q-49 -53 -106 -53q-72 0 -129.5 55t-57.5 135v942q0 53 -49 138q-66 106 -160 106q-70 0 -106.5 -55.5t-36.5 -139.5q0 -37 4 -65.5t18 -73.5l25 -67 l-119 61l-20 49q-20 66 -21 107zM254 1346q0 35 24.5 60.5t59.5 25.5q33 0 56.5 -25.5t23.5 -60.5q0 -33 -25.5 -56.5t-58.5 -23.5t-58 22q-18 23 -22 58z" />
<glyph unicode="&#xd4;" horiz-adv-x="442" d="M-387 1174q0 109 60.5 179t142.5 70q111 0 176 -59q16 -16 41 -59q0 88 35.5 135t128.5 47q35 0 96 -31l53 -31v-43l-18 4l-68 7q-63 0 -93 -45t-30 -117q0 -55 25 -123q57 -160 57 -221v-781q0 -37 27 -38q37 0 76 57l28 59l76 -90l-39 -51q-49 -53 -106 -53 q-72 0 -129.5 55t-57.5 135v770q0 90 -47 219q-68 188 -182 189q-61 0 -100 -54.5t-39 -132.5q0 -59 4 -83.5t18 -65.5q6 -23 25 -57l-119 61l-21 37q-20 55 -20 111z" />
<glyph unicode="&#xd5;" horiz-adv-x="442" d="M-387 1174q0 109 60.5 179t142.5 70q111 0 176 -59q16 -16 41 -59q0 88 35.5 135t128.5 47q35 0 96 -31l53 -31v-43l-18 4l-68 7q-63 0 -93 -45t-30 -117q0 -55 25 -123q57 -160 57 -221v-781q0 -37 27 -38q37 0 76 57l28 59l76 -90l-39 -51q-49 -53 -106 -53 q-72 0 -129.5 55t-57.5 135v770q0 90 -47 219q-68 188 -182 189q-61 0 -100 -54.5t-39 -132.5q0 -59 4 -83.5t18 -65.5q6 -23 25 -57l-119 61l-21 37q-20 55 -20 111zM227 1208q0 31 24.5 55.5t63.5 24.5q86 0 86 -86q0 -29 -24.5 -55.5t-59.5 -26.5t-62.5 25.5t-27.5 62.5z " />
<glyph unicode="&#xd6;" d="M-655 -78l30 37q51 -78 93 -119q121 -121 260 -121q90 0 149 25q70 31 70 98q0 47 -46 66.5t-110 19.5q-49 0 -98 -28q-16 -6 -43 -31l-66 121l49 20q68 20 119 21q92 0 166 -43q92 -55 92 -168q0 -96 -69 -152q-74 -51 -191 -51q-147 0 -293 152q-43 45 -112 153z" />
<glyph unicode="&#xd7;" d="M-625 -119l269 187l268 -263l10 -18q6 -18 10 -57q0 -53 -69.5 -95.5t-171.5 -42.5q-104 0 -219 58q-23 10 -42.5 22.5t-54.5 36.5l17 23l71 -29q98 -31 218 -31q90 0 153.5 22.5t63.5 55.5q0 18 -29 30.5t-66 12.5q-47 0 -90 -14q-18 -4 -37 -17l-47 80q14 0 23 4 l106 15h23l-115 123l-205 -168z" />
<glyph unicode="&#xd8;" d="M-651 -207l20 21l66 -50q90 -49 217 -49q100 0 172 26t72 81q0 25 -46 43q-25 6 -47 10t-55 4q-37 0 -54.5 -3t-51.5 -13l-52 -19l-47 105l62 12l112 14q88 0 156 -49q64 -51 64 -131q0 -92 -68 -135t-178 -43q-119 0 -244 88q-41 31 -98 88z" />
<glyph unicode="&#xd9;" d="M-664 -211l29 23q27 -33 62 -54q94 -53 247 -53q86 0 154 25q84 31 84 82q0 41 -53 61q-25 8 -57.5 14.5t-63.5 6.5q-43 0 -109 -27l-26 -12l-66 120l53 13q61 12 101 12q98 0 168 -45q92 -59 92 -172q0 -88 -68 -135q-72 -45 -186 -45q-123 0 -256 92q-45 33 -105 94z " />
<glyph unicode="&#xda;" d="M-518 -141q0 68 57.5 118t147.5 50q190 0 301 -197q28 -56 71 -197l-34 -8q-31 92 -62 144q-94 143 -242 143q-39 0 -69.5 -6t-63.5 -23q-59 -31 -59 -67q0 -37 26.5 -57.5t73.5 -20.5t95 22l43 25l55 -104l-37 -21q-55 -20 -113 -20q-76 0 -133 63.5t-57 155.5z" />
<glyph unicode="&#xdb;" d="M-700 -207l344 275l266 -316l24 -49q25 -55 31 -94l-24 -10q-23 57 -45 86q-70 88 -179 88q-131 0 -131 -62q0 -45 76 -45q23 0 33 2t31 15l26 16l43 -74l-28 -14q-43 -14 -74 -14q-47 0 -92 33.5t-45 95.5q0 51 37.5 89t117.5 38l56 -7l-109 142l-281 -260z" />
<glyph unicode="&#xdc;" d="M-659 -207q0 84 61 133q61 45 156 45q172 0 299 -172q39 -53 88 -174l-43 -24q-31 90 -66 133q-98 133 -260 133q-88 0 -137 -24.5t-49 -69.5q0 -33 29.5 -50.5t74.5 -17.5q49 0 100 23l46 22l51 -94l-39 -21q-61 -23 -139 -22q-74 0 -123 50t-49 130z" />
<glyph unicode="&#xdd;" d="M-528 -166q0 70 51 119q51 45 143 45q178 0 289 -191q35 -57 76 -190l-35 -14q-29 88 -62 139q-90 141 -233 141q-76 0 -128 -25.5t-52 -60.5q0 -33 25.5 -52t74.5 -19q20 0 40 4t54 16l52 21l55 -105l-41 -16q-55 -18 -107 -19q-80 0 -141 60.5t-61 146.5z" />
<glyph unicode="&#xde;" d="M-492 -145q0 78 62 139q59 55 158 67l34 2l33 3l33 -3q14 0 22 -4l56 -92l-35 4h-51q-53 0 -80 -8q-78 -18 -119 -43q-61 -35 -61 -88q0 -57 56 -89t159 -32q35 0 74.5 6.5t84.5 20.5l35 12l54 -110l-60 -17q-39 -8 -71.5 -12t-71.5 -4q-102 0 -201 61q-111 72 -111 187z " />
<glyph unicode="&#xdf;" d="M-514 -178q0 121 115 160q43 14 116 14l33 -96h-82q-49 0 -95 -26t-46 -69q0 -41 51 -71q53 -27 119 -27q63 0 137 31l57 31l54 -103l-66 -26q-82 -29 -137 -29q-111 0 -182 59q-74 55 -74 152z" />
<glyph unicode="&#xe0;" d="M-668 1477l23 2l20 2h33l31 -8q111 -25 233 -254q31 -58 103 -228l-76 56q-18 53 -32.5 86.5t-26.5 56.5q-80 145 -177 153l-75 5z" />
<glyph unicode="&#xe1;" d="M-668 1477l23 2l20 2h33l31 -8q111 -25 233 -254q31 -58 103 -228l-76 56q-18 53 -32.5 86.5t-26.5 56.5q-80 145 -177 153l-75 5zM-276 1403q0 37 25.5 61.5t66.5 24.5q39 0 67.5 -25.5t28.5 -68.5q0 -35 -26.5 -61.5t-63.5 -26.5q-41 0 -69.5 25.5t-28.5 70.5z" />
<glyph unicode="&#xe2;" d="M-668 1477l23 2l20 2h33l49 -13q25 -4 70 -45q37 -31 80 -98q0 80 45 125t135 45q47 0 107 -39l49 -39l-13 -39l-24 17q-33 16 -72 16q-84 0 -125 -52t-41 -132q20 -39 41 -80q6 -10 37 -82l29 -74l-76 56q-18 53 -32.5 86.5t-26.5 56.5q-80 145 -177 153l-75 5z" />
<glyph unicode="&#xe3;" d="M-668 1477l23 2l20 2h33l49 -13q25 -4 70 -45q37 -31 80 -98q0 80 45 125t135 45q47 0 107 -39l49 -39l-13 -39l-24 17q-33 16 -72 16q-84 0 -125 -52t-41 -132q20 -39 41 -80q6 -10 37 -82l29 -74l-76 56q-18 53 -32.5 86.5t-26.5 56.5q-80 145 -177 153l-75 5z M-236 1227q0 33 26 56.5t58 23.5q37 0 61.5 -24.5t24.5 -61.5q0 -31 -24.5 -55.5t-56.5 -24.5q-33 0 -61 25.5t-28 60.5z" />
<glyph unicode="&#xe4;" d="M-680 1331l43 4l37 2q88 0 188 -149q33 -54 80 -150h-35q-29 55 -55 90q-68 90 -145 91l-41 -2l-27 -7zM-598 1534h102q121 0 211 -246q6 -20 21.5 -81t38.5 -165h-43q-23 123 -45 183q-68 182 -183 182l-57 2z" />
<glyph unicode="&#xe5;" d="M-680 1331l43 4l37 2q88 0 188 -149q33 -54 80 -150h-35q-29 55 -55 90q-68 90 -145 91l-41 -2l-27 -7zM-598 1534h102q121 0 211 -246q6 -20 21.5 -81t38.5 -165h-43q-23 123 -45 183q-68 182 -183 182l-57 2zM-225 1397q0 41 25.5 69.5t68.5 28.5t71.5 -28.5 t28.5 -73.5q0 -37 -26 -66q-29 -25 -68 -24q-43 0 -71.5 25.5t-28.5 68.5z" />
<glyph unicode="&#xe6;" d="M-680 1331l43 4l37 2q88 0 188 -149q33 -54 80 -150h-35q-29 55 -55 90q-68 90 -145 91l-41 -2l-27 -7zM-598 1534h102q41 0 75 -25.5t67 -72.5q14 31 54 54t97 23q55 0 113 -38l43 -39l-4 -50l-29 17q-18 8 -35.5 12t-42.5 4q-57 0 -91 -24.5t-52 -63.5q29 -76 57 -194 l19 -95h-43q-23 123 -45 183q-68 182 -183 182l-57 2z" />
<glyph unicode="&#xe7;" d="M-680 1331l43 4l37 2q88 0 188 -149q33 -54 80 -150h-35q-29 55 -55 90q-68 90 -145 91l-41 -2l-27 -7zM-598 1534h102q41 0 75 -25.5t67 -72.5q14 31 54 54t97 23q55 0 113 -38l43 -39l-4 -50l-29 17q-18 8 -35.5 12t-42.5 4q-57 0 -91 -24.5t-52 -63.5q29 -76 57 -194 l19 -95h-43q-23 123 -45 183q-68 182 -183 182l-57 2zM-211 1229q0 31 22.5 49t55.5 20q76 1 76 -75q0 -31 -21.5 -50.5t-54.5 -21.5q-35 0 -56.5 21.5t-21.5 56.5z" />
<glyph unicode="&#xe8;" d="M-623 1618h62q37 -88 63 -133q86 -133 193 -133q70 0 123 20q14 6 20 10l47 -135l-45 -12q-55 -12 -123 -12q-127 0 -247 196q-20 35 -41 79t-52 120z" />
<glyph unicode="&#xe9;" d="M-623 1618h62q37 -88 63 -133q86 -133 193 -133q70 0 123 20q14 6 20 10l47 -135l-45 -12q-55 -12 -123 -12q-127 0 -247 196q-20 35 -41 79t-52 120zM-356 1540q0 33 22.5 57.5t54.5 24.5q33 0 56.5 -22.5t23.5 -55.5q0 -31 -18.5 -57.5t-52.5 -26.5q-35 0 -59.5 23.5 t-26.5 56.5z" />
<glyph unicode="&#xea;" d="M-662 1481l39 18q6 -61 19 -92q31 -94 104 -94h29h16q10 4 15 4l24 12q8 80 39 115q51 57 148 57q45 0 118 -37l64 -37l-4 -49l-49 23l-58 10q-82 0 -117.5 -51t-35.5 -129q0 -70 29.5 -140.5t72.5 -113.5l-72 18l-36 58l-78 153l-35 -8l-29 -4l-24 2q-109 18 -154 152 q-12 45 -25 133z" />
<glyph unicode="&#xeb;" d="M-662 1481l39 18q6 -61 19 -92q31 -94 104 -94h29h16q10 4 15 4l24 12q8 80 39 115q51 57 148 57q45 0 118 -37l64 -37l-4 -49l-49 23l-58 10q-82 0 -117.5 -51t-35.5 -129q0 -70 29.5 -140.5t72.5 -113.5l-72 18l-36 58l-78 153l-35 -8l-29 -4l-24 2q-109 18 -154 152 q-12 45 -25 133zM-223 1208q0 31 25.5 54.5t60.5 23.5q37 0 60.5 -23.5t23.5 -60.5q0 -31 -24.5 -55.5t-57.5 -24.5q-37 0 -62.5 26t-25.5 60z" />
<glyph unicode="&#xec;" horiz-adv-x="536" d="M-297 504l6 6l6 -6l-6 -6z" />
<glyph unicode="&#xed;" horiz-adv-x="147" d="M-342 643l6 6l6 -6l-6 -6z" />
<glyph unicode="&#xee;" horiz-adv-x="102" d="M-295 467l6 6l6 -6l-6 -6z" />
<glyph unicode="&#xef;" horiz-adv-x="90" d="M-104 504l6 6l6 -6l-6 -6z" />
<glyph unicode="&#xf0;" horiz-adv-x="178" d="M-436 731l6 6l6 -6l-6 -6z" />
<glyph unicode="&#xf1;" horiz-adv-x="71" d="M-276 647l6 6l6 -6l-6 -6z" />
<glyph unicode="&#xf2;" horiz-adv-x="120" d="M-440 995l6 6l6 -6l-6 -6z" />
<glyph unicode="&#xf3;" horiz-adv-x="49" d="M-481 840l6 6l6 -6l-6 -6z" />
<glyph unicode="&#xf4;" horiz-adv-x="32" d="M-240 432l7 6l6 -6l-6 -6z" />
<glyph unicode="&#xf5;" horiz-adv-x="51" d="M-297 422l6 6l6 -6l-6 -6z" />
<glyph unicode="&#xf6;" horiz-adv-x="71" d="M-244 952l6 6l7 -6l-7 -6z" />
<glyph unicode="&#xf7;" horiz-adv-x="153" d="M-297 504l6 6l6 -6l-6 -6z" />
<glyph unicode="&#xf8;" horiz-adv-x="430" d="M-297 504l6 6l6 -6l-6 -6z" />
<glyph unicode="&#xf9;" horiz-adv-x="696" d="M-297 504l6 6l6 -6l-6 -6z" />
<glyph unicode="&#xfa;" horiz-adv-x="116" d="M-375 692l6 6l7 -6l-7 -6z" />
<glyph unicode="&#xfb;" horiz-adv-x="40" d="M-195 504l7 6l6 -6l-6 -6z" />
<glyph unicode="&#xfc;" horiz-adv-x="40" d="M-297 504l6 6l6 -6l-6 -6z" />
<glyph unicode="&#xfd;" horiz-adv-x="706" d="M27 1004l82 18q33 6 73.5 13t75.5 7q143 0 247.5 -105.5t104.5 -244.5q0 -172 -125 -272q-43 -33 -127 -68q29 -70 56 -112q80 -115 194 -115q57 0 111 20l47 23l45 -127l-66 -23q-35 -10 -65.5 -16t-54.5 -6q-135 0 -248 174q-33 51 -84 176l-43 -4h-35q-47 0 -90 38 t-43 81t30.5 73.5t80.5 30.5q41 0 88 -39l38 -39q74 31 111 56q113 78 113 188q0 92 -60 146q-33 29 -79 43t-113 14q-49 0 -139 -25l-76 -24z" />
<glyph unicode="&#xfe;" horiz-adv-x="2048" />
<glyph unicode="&#xff;" horiz-adv-x="2048" />
<glyph unicode="&#x2000;" horiz-adv-x="811" />
<glyph unicode="&#x2001;" horiz-adv-x="1622" />
<glyph unicode="&#x2002;" horiz-adv-x="811" />
<glyph unicode="&#x2003;" horiz-adv-x="1622" />
<glyph unicode="&#x2004;" horiz-adv-x="540" />
<glyph unicode="&#x2005;" horiz-adv-x="405" />
<glyph unicode="&#x2006;" horiz-adv-x="270" />
<glyph unicode="&#x2007;" horiz-adv-x="270" />
<glyph unicode="&#x2008;" horiz-adv-x="202" />
<glyph unicode="&#x2009;" horiz-adv-x="324" />
<glyph unicode="&#x200a;" horiz-adv-x="90" />
<glyph unicode="&#x2010;" horiz-adv-x="614" d="M57 471v84h498v-84h-498z" />
<glyph unicode="&#x2011;" horiz-adv-x="614" d="M57 471v84h498v-84h-498z" />
<glyph unicode="&#x2012;" horiz-adv-x="614" d="M57 471v84h498v-84h-498z" />
<glyph unicode="&#x2013;" horiz-adv-x="1140" d="M57 471v84h1024v-84h-1024z" />
<glyph unicode="&#x2014;" horiz-adv-x="2164" d="M57 471v84h2048v-84h-2048z" />
<glyph unicode="&#x202f;" horiz-adv-x="324" />
<glyph unicode="&#x205f;" horiz-adv-x="405" />
<glyph unicode="&#xe000;" horiz-adv-x="1064" d="M0 0v1065h1065v-1065h-1065z" />
</font>
</defs>
</svg>
