<?xml version="1.0" standalone="no"?>
<!DOCTYPE svg PUBLIC "-//W3C//DTD SVG 1.1//EN" "http://www.w3.org/Graphics/SVG/1.1/DTD/svg11.dtd" >
<svg xmlns="http://www.w3.org/2000/svg">
<metadata></metadata>
<defs>
<font id="av-web-ben1normal" horiz-adv-x="8" >
<font-face units-per-em="2048" ascent="1638" descent="-410" />
<missing-glyph horiz-adv-x="499" />
<glyph horiz-adv-x="2048" />
<glyph horiz-adv-x="2048" />
<glyph unicode="&#xd;" horiz-adv-x="499" />
<glyph unicode=" "  horiz-adv-x="499" />
<glyph unicode="&#x09;" horiz-adv-x="499" />
<glyph unicode="&#xa0;" horiz-adv-x="499" />
<glyph unicode="!" horiz-adv-x="593" d="M254 74q0 31 21.5 49t50.5 22q32 1 55 -22q18 -18 18 -47t-22.5 -48.5t-50.5 -23.5q-31 0 -49.5 18.5t-22.5 51.5zM270 829q0 47 49 48q60 -1 60 -46q0 -225 -19 -425l-20 -164h-23l-22 159q-25 215 -25 428z" />
<glyph unicode="&#x22;" horiz-adv-x="370" d="M98 905q0 51 46 101.5t106 74.5l22 -18q-41 -20 -84 -58t-43 -77q0 -43 27 -58q18 25 41 25q29 0 47.5 -17t18.5 -42q0 -31 -21.5 -52.5t-56.5 -21.5q-49 0 -76 40t-27 103z" />
<glyph unicode="#" horiz-adv-x="987" d="M78 371l69 12q12 -74 44.5 -131t91.5 -102l-45 -54q-70 53 -111 121q-37 68 -49 154zM78 492q12 84 48 151.5t112 124.5l47 -51q-27 -18 -49.5 -43t-42.5 -60q-35 -57 -48 -135zM338 35l29 67q63 -29 133 -28q37 0 68.5 6t68.5 22l27 -69q-80 -31 -160 -31q-86 0 -166 33 zM338 831q80 31 162 31q84 0 164 -31l-27 -69q-68 27 -139 26q-78 0 -136 -28zM717 145q57 45 93 109.5t48 130.5l70 -14q-25 -172 -162 -277zM717 715l49 53q59 -43 108 -121q44 -73 56 -155l-72 -15q-25 145 -141 238z" />
<glyph unicode="$" horiz-adv-x="944" d="M10 705l66 -33q98 -256 241 -410q137 -143 271 -143q86 0 146.5 48t60.5 124q0 39 -18.5 60.5t-57.5 41.5q-27 -31 -64 -39q-8 -2 -22 -2q-20 0 -43 13q-43 23 -43 79q0 33 18.5 62t61.5 37l35 -2l38 -21q20 14 35 45t19 70q0 49 -43 81t-99 32q-61 0 -129.5 -50.5 t-74.5 -101.5q35 -8 52 -31.5t17 -58.5q0 -41 -31.5 -66.5t-74.5 -25.5q-47 0 -82 35q-10 12 -19 28q-14 29 -14 66q0 84 94 180q104 109 230 108q98 0 168 -77q33 -37 48 -76t15 -86q0 -72 -51 -148q49 -47 75.5 -98t26.5 -102q0 -104 -75.5 -176t-188.5 -72 q-180 0 -350 231q-139 186 -238 478zM383 1167l39 -18q53 -123 156 -123q55 0 93 35t38 90l34 16q0 -100 -34 -153q-41 -63 -123 -64q-68 0 -127 66q-55 68 -76 151zM520 1167q0 23 16.5 36.5t38.5 17.5q56 -1 56 -54q0 -25 -14.5 -38t-36.5 -15q-20 0 -40 13.5t-20 39.5z " />
<glyph unicode="%" horiz-adv-x="1019" d="M-66 864h1117l57 -57h-203v-813l-47 47q0 53 -43 142t-90 122h-12q-33 -53 -90 -84q-53 -25 -115 -24q-137 0 -287 176q-137 166 -203 381l41 -11q68 -188 191 -320t248 -132q68 0 123 49t55 123l-2 33q-16 96 -84 141q-18 12 -64 25l9 -48q0 -45 -32 -72.5t-71 -27.5 q-41 0 -73.5 26.5t-32.5 71.5q0 49 38.5 88t88.5 39q-6 27 -46 47.5t-73 20.5h-344zM459 807q12 -8 28 -37l13 -33q88 0 161.5 -86t73.5 -205l-2 -36l58 -80q33 -47 53 -90l4 14l-12 125v428h-377z" />
<glyph unicode="&#x26;" horiz-adv-x="1632" d="M-43 864h715l26 -16q66 -43 99 -100q45 53 110 96q72 43 144 43q102 0 190 -70q106 -82 221 -293l-18 107v375q25 -12 39 -35l41 -84q4 -6 51 -23q43 -10 55 -57h-112v-821l-74 55v405q-12 39 -24.5 69t-35.5 65q-35 55 -67 82l-318 -349l-94 43l47 52q31 29 31 104 q0 35 -25.5 59.5t-68.5 24.5q-25 0 -39 -4q-22 0 -45 -10q-14 -37 -66.5 -69t-101.5 -32q-109 0 -215 115q-33 37 -86 117q-25 -104 -59.5 -155.5t-106.5 -51.5q-31 0 -65.5 22.5t-73.5 69.5l26 35q25 -47 68 -47q55 0 107.5 72.5t52.5 148.5h-285zM342 807q35 -72 68 -115 q86 -115 178 -114q78 0 123 32.5t45 102.5q0 27 -25 51l-61 43h-328zM868 672l23 2q51 0 95 -62.5t44 -130.5l240 240q-29 39 -78 63.5t-105 24.5q-82 0 -141 -34t-78 -103z" />
<glyph unicode="'" horiz-adv-x="370" d="M94 1008q0 31 21.5 52t56.5 21q49 0 75.5 -40t26.5 -103q0 -55 -44 -102.5t-107 -73.5l-23 20q47 18 82 54q45 41 45 79q0 43 -26 58q-25 -25 -41 -25q-33 0 -49 17q-12 16 -17 43z" />
<glyph unicode="(" horiz-adv-x="489" d="M104 528q0 168 85 317.5t251 272.5q-117 -111 -179 -265.5t-62 -317.5q0 -164 59 -304.5t182 -244.5q-135 82 -235.5 241.5t-100.5 300.5z" />
<glyph unicode=")" horiz-adv-x="583" d="M82 1122q158 -113 244 -266t86 -315q0 -150 -93.5 -306.5t-234.5 -242.5q115 98 176.5 246.5t61.5 304.5q0 164 -59.5 313.5t-180.5 265.5z" />
<glyph unicode="*" horiz-adv-x="718" d="M422 57v820l70 -70v-809z" />
<glyph unicode="+" horiz-adv-x="686" d="M-63 864h573q12 29 18 66q4 25 -18.5 48t-69.5 23l-20 -2l-113 -6l-129 -6q-82 0 -127 53q-41 53 -41 121q0 27 4 37l21 47l24 -16q-16 -27 -16 -55q0 -41 36 -73t114 -32l200 10q90 0 137.5 -37.5t47.5 -103.5l-19 -74h131l58 -57h-420q27 -47 26 -82q80 0 165 -58.5 t85 -150.5q0 -174 -217 -235l6 -17q96 -33 197 -117q82 -68 133 -141v-49q-156 145 -295 213q-88 41 -276 74l-58 151l96 -33l74 -8q102 0 191.5 50.5t89.5 113.5q0 53 -34 86t-87 33l-31 -4l-43 -15q-29 -133 -137 -133q-37 0 -61 23q-35 29 -35 76q0 53 53 100t129 47 l-6 29q-2 16 -25 28l-37 19h-239z" />
<glyph unicode="," horiz-adv-x="335" d="M66 109q0 31 21.5 52t55.5 21q47 0 75 -38.5t28 -104.5q0 -53 -47 -102q-43 -49 -105 -74l-22 20q47 18 82 54q45 41 45 81q0 41 -27 56q-18 -25 -41 -25q-33 0 -49 17q-12 16 -16 43z" />
<glyph unicode="-" horiz-adv-x="456" d="M94 311v68h320v-68h-320z" />
<glyph unicode="." horiz-adv-x="188" d="M35 59q0 18 8 33q16 25 51 25q58 -1 58 -58q0 -23 -16.5 -41t-41.5 -18q-27 0 -43 16q-12 16 -16 43z" />
<glyph unicode="/" horiz-adv-x="419" d="M31 -117l346 1147h55l-340 -1147h-61z" />
<glyph unicode="0" horiz-adv-x="817" d="M117 422q0 104 93 205.5t208 101.5q121 0 198.5 -73t77.5 -214q0 -115 -96 -202q-80 -74 -172 -86l-55 -4q-117 0 -185.5 72.5t-68.5 199.5zM213 406q0 -80 51 -123q43 -33 105 -33q88 0 167.5 78t79.5 164q0 70 -42 104.5t-117 34.5q-88 0 -166 -78t-78 -147z" />
<glyph unicode="1" horiz-adv-x="684" d="M80 731q0 37 27.5 71t68.5 34q29 0 55.5 -18.5t26.5 -51.5q0 -16 -12 -39q-6 -6 -7 -11t-3 -11q143 -102 238 -202t95 -202q0 -100 -67 -197q-74 -104 -183 -104q-57 0 -95 24.5t-50 86.5q-6 63 31 106q41 43 106 43l21 -2l30 -8q49 -18 72 -19l23 5l24 14q18 18 21 51 q0 84 -211 217t-211 213z" />
<glyph unicode="2" horiz-adv-x="776" d="M74 473l151 -45q35 -6 64.5 -10t54.5 -4q72 0 124 18.5t52 65.5q0 61 -185 148t-185 165q0 37 24.5 61.5t54.5 24.5q70 0 70 -98q102 -49 195 -129q86 -74 86 -174q0 -92 -78 -144q-49 -31 -144 -47q51 -18 164 -108q129 -103 201 -205l-37 -23q-72 104 -247 213 t-330 137z" />
<glyph unicode="3" horiz-adv-x="831" d="M39 666l53 -13q49 -195 150 -315q113 -131 247 -131q96 0 158 63q57 63 58 150q0 92 -50 172q-55 88 -125 76q-14 -2 -26 -18.5t-6 -28.5l18 -21q12 -18 12 -43q0 -104 -114 -125q-53 -6 -101 29q-59 43 -59 123q0 68 51 127q59 66 148 65q156 0 243 -127 q74 -108 74 -258q0 -115 -76 -209t-180 -94q-172 0 -301 166q-113 145 -174 412z" />
<glyph unicode="4" horiz-adv-x="782" d="M98 219q0 53 49 109q41 45 109 80q-63 31 -98 73.5t-47 102.5q-2 8 -2 24q0 72 67 146q80 84 213 84q109 0 185.5 -69t76.5 -151l-2 -20q-12 -59 -47 -100q-27 -33 -96 -74q61 -25 102 -77.5t41 -113.5q0 -84 -91 -158.5t-189 -74.5q-104 0 -181 51q-90 61 -90 168z M188 215q0 -70 68 -106q57 -29 129 -29q61 0 119.5 40t58.5 93t-80 100q-53 27 -123 41q-51 -10 -106 -50t-66 -89zM209 618l2 -20q8 -49 80 -90q55 -31 125 -43q49 25 84 59q37 31 43 64q6 70 -48.5 118t-125.5 48q-59 0 -109.5 -38t-50.5 -98z" />
<glyph unicode="5" horiz-adv-x="800" d="M78 291q0 160 143 323q121 139 246 183l65 -54q-43 -47 -43 -86l7 -26q16 -35 61 -53q43 -12 125 -13l31 -24q-117 -66 -193 -164t-76 -168q0 -55 45 -98q45 -39 125 -64l4 -20q-35 -10 -100 -21l-82 -6q-135 0 -241 76q-117 84 -117 215zM172 276q0 -84 80 -138t168 -54 q-41 29 -58.5 74t-17.5 98q0 108 180 268q-47 18 -71 39q-27 31 -27 88q-115 -63 -184.5 -163.5t-69.5 -211.5z" />
<glyph unicode="6" horiz-adv-x="847" d="M31 594l45 -10q47 -195 139 -314q125 -162 307 -161q74 0 145.5 66.5t71.5 143.5q0 59 -49 113q-57 -66 -121 -98q-23 -10 -48 -18.5t-48 -8.5q-53 0 -96 43q-43 49 -62 150q-25 178 -53 178l-24 -8q-43 6 -43 53q0 35 21.5 50t55.5 15q47 0 84 -73.5t37 -222.5 q0 -70 10.5 -88.5t32.5 -18.5q43 0 106.5 53.5t106.5 116.5q61 -43 96 -117q16 -37 24.5 -72.5t8.5 -84.5q0 -113 -75.5 -197t-178.5 -84q-203 0 -352 231q-106 170 -141 363z" />
<glyph unicode="7" horiz-adv-x="770" d="M90 569q0 74 80 150t149 76q121 0 179.5 -96.5t58.5 -268.5l6 -194q0 -31 5 -60t14 -47q6 -6 40.5 -13t34.5 -50q0 -29 -20.5 -49.5t-52.5 -20.5q-63 0 -83 79t-20 296l-94 -9l-68 -2h-26q-12 0 -37 5.5t-47 21.5q-63 45 -84 75t-31 64zM172 549q0 -49 40 -67.5 t105 -18.5q74 -1 154 26q0 123 -35 177q-31 53 -88 53t-116.5 -53.5t-59.5 -116.5z" />
<glyph unicode="8" horiz-adv-x="813" d="M43 680q0 29 17.5 43t45.5 18q33 0 71 -25.5t38 -58.5v-206q41 18 66 24l55 8q25 0 49.5 -2t56 -10t64.5 -45q29 25 54.5 38t64.5 13h24q47 0 74 6t33 31h16q0 -90 -108.5 -113.5t-122.5 -48.5q10 -27 10 -67q0 -94 -95.5 -183.5t-189.5 -89.5q-37 0 -71 41 q-29 39 -45 88v463q-43 0 -78 19q-29 18 -29 57zM223 143q6 -31 31 -34q68 0 144.5 58t76.5 130q0 55 -30.5 79.5t-90.5 24.5q-66 0 -131 -34v-224z" />
<glyph unicode="9" horiz-adv-x="802" d="M102 723q0 47 29 70.5t53 23.5q33 0 55.5 -19.5t22.5 -47.5q0 -20 -7 -39t-22 -27q23 -27 67 -49.5t162 -60t191 -123.5q64 -76 64 -148q0 -92 -64 -170q-53 -61 -131 -90q-35 -10 -76 -10l7 22l4 41q0 86 -37 164q-18 37 -42 56.5t-52 19.5q-43 0 -82 -39 q-35 -39 -35 -94l6 -33q6 -12 27 -27l26 15q8 4 25 4q35 0 55 -23q23 -18 23 -59q0 -31 -26 -57.5t-66 -26.5q-68 0 -111 67q-18 31 -25.5 53.5t-7.5 55.5q0 94 61.5 162.5t135.5 68.5q84 0 144.5 -69.5t60.5 -167.5q37 0 64.5 21.5t39.5 58.5l4 33q0 72 -94 145 q-72 53 -173.5 87t-168.5 75q-106 66 -107 137z" />
<glyph unicode=":" horiz-adv-x="393" d="M113 162q0 31 23.5 54.5t56.5 23.5q29 0 53 -23.5t24 -54.5q0 -33 -20.5 -53.5t-56.5 -24.5q-33 0 -56.5 22.5t-23.5 55.5zM113 528q0 31 23.5 54.5t56.5 23.5q29 0 53 -23.5t24 -54.5t-20.5 -51t-56.5 -24q-33 0 -56.5 22.5t-23.5 52.5z" />
<glyph unicode=";" horiz-adv-x="464" d="M117 569q0 33 23.5 56.5t56.5 23.5q29 0 53 -23.5t24 -56.5q0 -31 -20.5 -51t-56.5 -24q-33 0 -56.5 22.5t-23.5 52.5zM125 -18q37 14 92 64t55 89q0 37 -20 58l-27 -15l-28 -4q-61 6 -62 68q0 27 19.5 50t52.5 25q66 0 102 -55q25 -41 25 -104q-6 -59 -56.5 -112.5 t-115.5 -78.5z" />
<glyph unicode="&#x3c;" horiz-adv-x="839" d="M-66 864h666q27 0 45.5 17.5t20.5 46.5q0 37 -46.5 56.5t-119.5 19.5l-72 -5l-174 -12q-102 0 -166 39q-78 47 -78 145l8 39q8 23 21 35l22 -20q-10 -12 -14 -21l-6 -30q0 -39 40 -69t116 -30l110 8l123 9q129 0 205 -52q88 -59 88 -176h133l53 -57h-700l35 -37l20 -39 q84 0 144 -43q72 -53 71 -162q35 47 92 92l146 97l94 -74q-86 -66 -128 -148.5t-54 -185.5q0 -47 2 -73.5t13 -90t36 -135.5l-31 17q-16 29 -29.5 58.5t-23.5 66t-17.5 75.5t-11.5 64q0 72 21.5 147.5t62.5 145.5q-33 -31 -87 -92.5t-132 -153.5q-92 -115 -162 -115 q-45 0 -92 49q-41 47 -51 107l31 12q6 -27 35 -49q27 -16 51 -21q37 0 88 51.5t96 127.5q0 145 -109 145l-38 -6q6 -6 6 -37q0 -35 -31 -63q-31 -25 -70 -25q-35 0 -63.5 25.5t-28.5 74.5q0 41 43 78q31 25 78 39q-10 31 -47 52.5t-70 25.5h-108z" />
<glyph unicode="=" horiz-adv-x="899" d="M-63 864h753l6 43l-2 25q-2 29 -14 39q-29 29 -109 28h-51q-27 -6 -55.5 -10t-42.5 -6t-45 -8l-31 -2q-80 0 -130 50t-50 122l6 57l12 45l33 -16l-8 -66q0 -49 18 -67q31 -27 115 -27h31q16 0 45 4l131 15q102 0 166 -82q51 -70 51 -144h141l56 -57h-508v-305 q0 -47 39 -47q29 0 73.5 45t112.5 149q127 -92 127 -241q0 -137 -84 -236.5t-215 -99.5q-170 0 -307 237q-121 209 -148 447l45 -21q43 -240 156 -396.5t246 -156.5q109 0 182.5 65.5t73.5 162.5q0 41 -11 63q-8 27 -43 51q-59 -84 -116 -131q-23 -16 -49.5 -25.5 t-49.5 -9.5q-39 6 -69 45q-23 35 -27 68v336h-399z" />
<glyph unicode="&#x3e;" horiz-adv-x="995" d="M-63 864h792l16 31q6 12 7 33q0 41 -40 62.5t-130 21.5q-31 0 -65 -6.5t-56 -10.5q-94 -16 -127 -16q-121 0 -197 51t-76 113l2 53q0 14 17 47l24 -16q-12 -27 -8 -62q12 -88 205 -88q45 0 92 8l166 23q127 0 205 -74q68 -68 67 -170h175l55 -57h-524v-293q0 -33 26 -39 q43 0 108.5 54.5t102.5 111.5q61 -37 95 -111.5t34 -154.5q0 -111 -86 -203q-98 -104 -252 -104q-213 0 -366 196q-141 184 -142 441l4 67l29 -14q0 -174 72 -336q86 -195 246 -254q-123 117 -179 291q-20 68 -32.5 145.5t-12.5 157.5l33 -19q29 -258 122 -407.5t230 -149.5 q113 0 195 59.5t82 157.5q0 41 -7.5 67t-31.5 48q-51 -61 -109 -98q-70 -47 -127 -47q-31 0 -69 51q-35 51 -35 96v287h-475z" />
<glyph unicode="?" horiz-adv-x="626" d="M123 690q0 55 57 111q57 51 99 57l65 4q88 0 138 -56t50 -140q0 -109 -144 -215.5t-144 -147.5q0 -10 18 -35l23 -24h-29q-20 10 -34.5 30.5t-18.5 53.5v18l182 205q78 88 78 154q0 47 -30 77.5t-73 30.5l-38 -4q-18 -2 -57.5 -31.5t-51.5 -58.5q37 6 55.5 -11.5 t20.5 -45.5q0 -72 -78 -72q-37 0 -62.5 28.5t-25.5 71.5zM213 82q0 23 18.5 43t47.5 22q23 0 43 -18t20 -47q0 -23 -18.5 -43.5t-44.5 -20.5q-29 0 -47.5 16.5t-18.5 47.5z" />
<glyph unicode="@" horiz-adv-x="929" d="M25 727q0 35 17 62.5t50 31.5q35 0 51 -16q14 -10 17 -35q0 -31 -19 -43l13 -6l16 -4q43 0 102 51q51 43 68 76q68 -25 112 -60.5t78 -97.5v205l70 -62v-350q51 -41 88 -90q33 -39 55 -82v584l70 -62v-720l-35 34q-20 90 -76 158q-47 66 -102 84v-399l-39 39 q-20 125 -152.5 235.5t-246.5 110.5l-74 90q72 61 188 123q45 25 98.5 47t106.5 43l-30 43q-23 23 -58 31q-111 -115 -248 -115q-49 0 -84 26q-31 29 -36 68zM233 440q115 -41 173 -90q80 -61 135 -178l-11 86v336q-84 -27 -172 -72t-125 -82z" />
<glyph unicode="A" horiz-adv-x="931" d="M47 360q0 106 33 203q10 35 33 74l32 -14l-12 -31q-33 -88 -33 -182q0 -90 72 -142q78 -51 166 -51l41 2l172 23q94 0 130 -9.5t79 -70.5l-12 65v480q0 33 -11 53q-16 33 -53 33q-109 0 -184 -84q-63 -70 -64 -177l25 23q33 23 67 23q35 0 55.5 -27t20.5 -76 q0 -51 -46 -79.5t-114 -28.5q-49 0 -93 47t-44 118q0 150 129 252q109 84 232 84q61 0 102 -32q29 -23 47 -76v-772l-43 41q-12 61 -68.5 92t-136.5 31q-16 0 -36.5 -2.5t-43.5 -8.5q-31 -4 -45 -6t-38 -10l-58 -4q-119 0 -207 63q-94 70 -94 176z" />
<glyph unicode="B" horiz-adv-x="964" d="M47 360q0 106 33 203q10 35 33 74l32 -14l-12 -31q-33 -88 -33 -182q0 -90 72 -142q78 -51 166 -51l41 2l172 23q94 0 130 -9.5t79 -70.5l-12 65v480q0 18 -3.5 28t-15.5 33t-45 25q-109 0 -184 -84q-63 -70 -64 -177l25 23q33 23 67 23q35 0 55.5 -27t20.5 -76 q0 -51 -46 -79.5t-114 -28.5q-49 0 -93 47t-44 118q0 150 129 252q109 84 232 84q63 -6 98 -33.5t51 -74.5v-90q51 0 66 12q47 31 47 92q0 47 -31 96q-31 43 -145 80q-307 90 -379 135q-39 25 -70 70q-26 45 -26 91q0 50 34 87q25 29 76 49l27 -36q-35 -12 -61.5 -39 t-26.5 -60q0 -49 73 -86l279 -74q133 -37 205 -92q90 -74 90 -200q0 -74 -43 -133.5t-115 -81.5v-592l-43 41q-12 63 -67.5 93t-137.5 30q-16 0 -36.5 -2.5t-43.5 -8.5q-31 -4 -45 -6t-38 -10l-58 -4q-119 0 -207 63q-94 70 -94 176z" />
<glyph unicode="C" horiz-adv-x="952" d="M18 705l64 -33q98 -256 242 -410q137 -143 270 -143q86 0 146.5 48t60.5 124q0 39 -18.5 60.5t-57.5 41.5q-27 -31 -63 -39q-8 -2 -23 -2q-20 0 -43 13q-43 23 -43 79q0 31 18.5 62t61.5 37l35 -2l39 -21q20 14 34.5 45t18.5 70q0 49 -43 81t-99 32q-61 0 -129.5 -50.5 t-74.5 -101.5q35 -8 52 -31.5t17 -58.5q0 -41 -31.5 -66.5t-74.5 -25.5q-45 0 -79 37.5t-34 91.5q0 84 94 180q103 108 226 108h2q98 0 165.5 -74.5t67.5 -164.5q0 -70 -53 -148q49 -47 75.5 -98t26.5 -102q0 -104 -75.5 -176t-188.5 -72q-180 0 -350 231q-137 190 -236 478 z" />
<glyph unicode="D" horiz-adv-x="942" d="M-2 709l65 -31q98 -252 238.5 -399.5t273.5 -147.5q88 0 144.5 44t56.5 122q0 37 -19.5 60.5t-51.5 37.5l-37 -26l-31 -11q-7 -1 -15 -1q-24 0 -49 14q-43 25 -43 80q0 31 21.5 62.5t62.5 37.5l41 -6l33 -21q23 12 36 46t13 73q0 43 -42 75t-97 32q-61 0 -129 -49.5 t-76 -100.5q35 -8 53 -33q8 -10 12.5 -22.5t4.5 -34.5q0 -41 -32 -66.5t-75 -25.5q-39 0 -74.5 38t-35.5 91q0 84 92 182q106 106 227 107q98 0 166 -75t68 -165v-12q78 61 78 149q0 115 -105 164l-465 152q-51 27 -80.5 64.5t-29.5 88.5l4 41q4 25 28.5 54.5t73.5 54.5 l47 -27q-29 -12 -62.5 -42t-33.5 -54q0 -70 176 -123l311 -88q94 -37 142 -100q51 -62 51 -150t-55 -178q-37 -57 -123 -148q92 -92 92 -194q0 -98 -75 -173t-187 -75q-174 0 -348 231q-145 199 -240 478z" />
<glyph unicode="E" horiz-adv-x="700" d="M-68 864h990l53 -57h-397v-51h20q98 0 193.5 -91.5t95.5 -207.5q0 -68 -43 -125.5t-105 -57.5q-45 0 -68.5 22.5t-29.5 57.5q0 33 19.5 58.5t58.5 25.5q53 0 67 -41q47 0 48 66q0 90 -97 147q-37 23 -70.5 34t-66.5 11h-22v-665l-56 53q-33 141 -157.5 243.5 t-241.5 102.5l-84 98q109 98 224.5 167t246.5 102v51h-522zM195 479q106 -33 176 -94q83 -77 149 -233l-12 114v387q-76 -14 -184 -80q-94 -57 -129 -94z" />
<glyph unicode="F" horiz-adv-x="784" d="M20 707q0 39 21.5 62.5t48.5 29.5q29 4 56.5 -7.5t35.5 -41.5q39 0 84 43t56 81l10 5q80 -55 129 -129q41 -59 41 -105q0 -68 -49 -123q-33 -35 -103 -71q63 -27 146 -111l102 -129v768q16 0 29.5 -45t23.5 -55q33 0 49.5 -4.5t46.5 -15.5t44 -52h-123v-819l-56 55 q-18 111 -151 223q-141 123 -293 123l-88 123q133 0 242.5 43t109.5 100q0 23 -22.5 50.5t-61.5 48.5q-41 -45 -105.5 -93.5t-111.5 -48.5q-51 0 -81 26t-30 69z" />
<glyph unicode="G" horiz-adv-x="792" d="M139.5 796.5q73.5 82.5 177.5 82.5q84 0 169 -68t137 -174l-17 119v223q16 0 29.5 -45t23.5 -55q33 0 49.5 -4.5t46.5 -15.5t44 -52h-123v-819l-70 69v535q-25 74 -100.5 136.5t-167.5 62.5q-55 0 -104.5 -44.5t-49.5 -105.5l45 18q18 6 47 7q80 0 132.5 -47.5 t52.5 -133.5q0 -68 -74 -135q-59 -53 -119 -71l-106 77q72 16 135 60q86 55 86 114q0 74 -64 74q-53 0 -124 -63q-35 -31 -62 -31q-67 0 -67 103q0 101 73.5 183.5z" />
<glyph unicode="H" horiz-adv-x="755" d="M-68 864h818l55 -57h-166v-819l-39 39q-25 104 -157 192t-255 88l-82 101l168 149l-6 4l-41 -6q-68 0 -125 41t-57 109q0 59 49 102h-106zM184 641q31 -27 66 -27l47 2q20 2 57 25l39 29l82 -54l-223 -208q100 -18 197.5 -99.5t138.5 -169.5l-19 140v528h-340 q-71 -29 -71 -88q0 -49 26 -78z" />
<glyph unicode="I" horiz-adv-x="684" d="M74 705l49 -27q31 -236 96 -367q101 -200 293 -200h2q80 0 139.5 52t59.5 118q0 49 -13.5 72.5t-46.5 41.5q-31 -49 -90 -87t-114 -38q-72 0 -105 82q-25 61 -25 168l3 58q0 33 4 51q-53 35 -95 67q-61 55 -106 131l88 35q0 -53 49 -114q37 -43 74 -60q25 76 65.5 117 t114.5 53q8 1 16 1q52 0 99 -34q43 -35 43 -112q0 -20 -10.5 -44t-45.5 -46q-47 -31 -135 -31q-31 0 -67 12l-19 8v-77q0 -74 6.5 -114t34.5 -42q31 0 86.5 37t87.5 96q82 -53 117 -102q45 -64 45 -148q0 -100 -74.5 -181t-183.5 -81q-217 0 -346 279q-96 211 -96 426z M401 664q47 -14 82 -15q61 0 99.5 22.5t40.5 53.5q0 47 -68 47l-43 -6q-27 -4 -55.5 -26.5t-55.5 -75.5z" />
<glyph unicode="J" horiz-adv-x="391" d="M37 864h596l57 -57h-549v-41q25 -119 203 -173t178 -173q0 -104 -110.5 -241.5t-210.5 -137.5q-16 0 -58 31l-34 32l-25 50l-10 57v596zM143 197q0 -12 18.5 -33t41.5 -25q61 0 142 89.5t81 189.5q0 23 -4 34t-45 23q-121 31 -223 129l-11 -8v-399z" />
<glyph unicode="K" horiz-adv-x="546" d="M33 864h661l58 -57h-613v-31q37 -90 195 -90l80 6q74 0 126 -64.5t52 -148.5q0 -92 -49 -151.5t-150 -100.5q70 -29 156 -103.5t143 -160.5l-10 -41q-127 135 -254 196.5t-285 61.5l-45 131l52 -18l51 -8l45 -4q113 0 194.5 59t81.5 154q0 59 -24.5 95t-67.5 36 q0 -117 -96 -199q-78 -66 -141 -66q-29 0 -74 37t-45 66v344zM143 471q12 -31 43 -35q41 0 95.5 62.5t54.5 101.5q0 15 -12 27l-72 10q-68 12 -109 55v-221z" />
<glyph unicode="L" horiz-adv-x="1028" d="M-70 864h1104l56 -57h-537q-31 -18 -31 -51t31 -70q29 -29 72 -40t88 -11q55 0 98 13.5t76 39.5l106 -121l-6 -14q-51 -25 -82 -102q-26 -77 -26 -178v-7q0 -72 8 -128t31 -132l-50 19l-28 84q-31 104 -31 190v75t5 74.5t30 110.5l-58 -8l-57 -4l-53 2q-16 0 -47 14 q-45 14 -90 49q-49 43 -107 131q-59 -45 -106 -102q-53 -70 -54 -115l7 -30q6 -18 38 -33l64 -10q25 0 49.5 7t52.5 23q49 29 70 66h16l74 -68q31 -37 43 -84l6 -39l2 -36q0 -109 -68.5 -175.5t-179.5 -66.5q-166 0 -282 192q-104 174 -133 449l47 -25q20 -197 112 -336 q101 -159 244 -159h2q63 0 123 32q76 41 76 107q0 49 -55 98q-43 -37 -86 -61q-45 -20 -93 -21q-29 0 -69 13q-111 37 -129 153l-2 35q0 68 39 139q14 29 75 111h-329z" />
<glyph unicode="M" horiz-adv-x="665" d="M-70 864h631v-411q39 -12 68.5 -46t56.5 -92v664q10 0 29 -47l22 -53l54 -11q47 0 65 -61h-100v-701l-39 39q-12 72 -49 131q-47 76 -107 76v-364l-41 41q0 82 -119 221q-135 158 -272 158l-80 98q68 68 220.5 157t219.5 103v41h-503zM207 492q76 -29 170 -130 q78 -83 115 -163v460q-41 -12 -79 -30.5t-81 -46.5q-33 -20 -64.5 -43t-60.5 -47z" />
<glyph unicode="N" horiz-adv-x="804" d="M-43 864h1237l47 -57h-1241zM31 760l41 -17q98 -297 243 -444q127 -129 271 -129q102 0 157.5 30.5t55.5 78.5q0 35 -11 51q-6 16 -36 39q-12 -23 -38 -35t-59 -17q-35 0 -57.5 19.5t-22.5 66.5q0 39 31 71t66 32q37 0 61 -25q16 16 29 45q6 18 10 54q0 49 -38 84.5 t-99 35.5q-72 0 -150 -55q-59 -47 -84 -102q31 0 50.5 -20.5t19.5 -55.5q0 -33 -22.5 -57.5t-65.5 -24.5t-72 29q-25 31 -24 75q0 94 104.5 176.5t206.5 82.5q104 0 168 -64q57 -57 57 -147l-2 -21q45 61 70 82q41 35 92 35q68 0 115 -62q37 -53 37 -127q0 -57 -32 -98 t-93 -41q-20 0 -45 19q-20 20 -21 53q0 25 14 39q14 10 43 14q31 0 50 -16q20 -10 22 -41q8 4 17.5 20.5t9.5 57.5q0 47 -35 68.5t-92 21.5q-35 0 -76 -19q-53 -27 -100 -92l-21 -37l21 -16q45 -49 45 -121q0 -82 -64.5 -134t-171.5 -52q-195 0 -340 188q-123 160 -235 502z " />
<glyph unicode="O" horiz-adv-x="385" d="M-20 1130l6 39q2 14 18 39l37 -18q-25 -23 -29 -55q0 -29 33 -60q30 -24 89 -24h5l27 2h33q23 6 30 8l107 18q98 0 159.5 -55t61.5 -121l-2 -39h84l57 -57h-551v-592q18 -31 43 -49q23 -10 48 -14q53 0 118 67q74 80 74 176q0 25 -14 25q-18 -12 -39 -12q-12 0 -29.5 4 t-35 23.5t-17.5 74.5q6 35 37.5 56.5t70.5 21.5q57 0 99 -53q36 -41 36 -90q0 -7 -1 -15q-25 -164 -129 -285q-92 -102 -173 -102q-41 0 -88 45q-53 51 -71 127v592l-45 57h473l4 47q-6 45 -37 70q-14 10 -34.5 16.5t-47.5 6.5l-41 -3q-18 0 -47 -6t-49 -10l-84 -14 q-88 0 -137 47t-49 112z" />
<glyph unicode="P" horiz-adv-x="497" d="M-68 864h332q-49 49 -80.5 83t-44.5 50q-66 88 -65 172l2 25q0 35 37 82q12 20 59 57l61 -41q-49 -33 -69 -57q-31 -31 -35 -66q0 -61 61.5 -140t180.5 -165h325l58 -57h-348q90 -94 135 -202.5t45 -203.5q0 -145 -94.5 -245.5t-198.5 -100.5q-98 0 -168 73t-70 161l4 51 q111 39 199 147.5t88 225.5q0 25 -8 47l-25 47h-325zM160 238l4 -43q6 -25 49 -50q31 -18 57 -18q127 0 185 88q45 72 45 172l2 37q0 76 -19.5 145.5t-46.5 89.5q0 -113 -87 -226.5t-183 -147.5q-6 -18 -6 -47z" />
<glyph unicode="Q" horiz-adv-x="686" d="M-68 864h934l58 -57h-494v-287q0 -23 8 -37t33 -18q31 0 83 44t118 142q61 -43 95 -108.5t34 -134.5q0 -133 -93.5 -234.5t-224.5 -101.5q-193 0 -329 243q-117 209 -117 435l43 -17q27 -236 136.5 -395.5t260.5 -159.5q113 0 194 65.5t81 166.5q0 33 -13 63 q-8 29 -43 53l-96 -90q-74 -57 -137 -57q-35 6 -72 43q-31 35 -33 65v320h-370z" />
<glyph unicode="R" horiz-adv-x="391" d="M41 864h594l57 -57h-547v-592q16 -27 43 -47q20 -12 48 -16q53 0 118 67q74 80 74 178q0 20 -14 23l-60 -6q-35 10 -48 34.5t-13 61.5q0 35 34.5 57.5t73.5 22.5q59 0 101 -53q18 -25 25.5 -51.5t7.5 -63.5q0 -74 -32 -141.5t-93 -137.5q-92 -100 -177 -100q-41 0 -90 43 q-53 51 -69 129v592z" />
<glyph unicode="S" horiz-adv-x="722" d="M53 623v22q0 98 67.5 156.5t166.5 58.5q92 0 164 -65q35 -35 94 -129l-8 86v227q16 0 29.5 -45t23.5 -55q33 0 49 -4.5t46 -15.5t44 -52h-123v-819l-69 69v492q-10 74 -60 133q-65 82 -176 82q-70 0 -110.5 -36t-40.5 -107q0 -53 24.5 -84t54.5 -31q-6 12 -6 29 q0 31 28 59.5t62 28.5q43 0 68 -31t25 -80q0 -39 -35 -74t-88 -35q-92 0 -161 64.5t-69 155.5z" />
<glyph unicode="T" horiz-adv-x="759" d="M-80 864h1014l57 -57h-1018zM10 760l64 -23q66 -223 174 -375q133 -184 278 -184q100 0 173 66.5t73 169.5q0 94 -54 153.5t-118 59.5q-23 0 -45 -13q16 -10 35 -39q12 -20 16 -43q0 -53 -37 -88q-36 -30 -81 -30h-3q-51 0 -91 37.5t-40 97.5q0 59 56.5 111.5t124.5 52.5 q133 0 212.5 -87.5t79.5 -230.5q0 -123 -84 -223t-215 -100q-197 0 -346 266q-57 102 -172 422z" />
<glyph unicode="U" horiz-adv-x="800" d="M72 659q0 72 70.5 139.5t158.5 67.5q104 0 166.5 -68.5t62.5 -176.5q0 -63 -61 -125q-51 -51 -137 -88l2 -7q72 -12 164 -94q49 -43 127 -141l-9 86v727q10 0 29 -45q12 -45 23 -55l65 -11q58 0 74 -61h-121v-819l-53 51q-45 113 -171 198t-269 85l-78 153 q145 0 246.5 43t101.5 127q0 66 -38 101.5t-81 35.5q-84 0 -117 -82q37 -23 37 -79q0 -31 -28.5 -53.5t-65.5 -22.5q-39 0 -68.5 32.5t-29.5 81.5z" />
<glyph unicode="V" horiz-adv-x="630" d="M-57 864h698l57 -57h-559v-358q10 -4 19 -3q84 102 177 173t163 90l102 -72q-72 -88 -104 -150q-39 -78 -39 -153q0 -96 8 -148q16 -113 63 -190l-53 24q-43 59 -67.5 161t-24.5 194q0 49 5 75.5t9 39t21 42.5l-96 -69q-88 -88 -146 -191q-27 10 -64.5 44t-41.5 63v428 h-70z" />
<glyph unicode="W" horiz-adv-x="520" d="M23 461l104 84l115 82q-55 0 -109 39q-49 41 -49 98q0 55 43 98t86 43q53 0 83 -23.5t30 -58.5t-21.5 -55t-50.5 -20q-63 0 -72 65l-16 -14q-18 -18 -19 -37q0 -35 14.5 -53.5t49.5 -34.5l39 -10h31l57 30l59 37l105 57v76h180l55 -57h-166v-821l-41 41q-45 131 -182 231 q-125 90 -235 90zM170 440q82 -29 158 -84q108 -77 186 -196l-12 76v430q-59 -25 -146 -82q-104 -68 -186 -144z" />
<glyph unicode="X" horiz-adv-x="704" d="M-70 864h799l57 -57h-196v-821l-37 49q0 240 -119 377q-91 108 -188 108h-2q-25 0 -33 -8l31 -20q31 -29 30 -70q0 -47 -38.5 -80t-86.5 -33q-51 0 -93 44t-42 96q0 74 68 126q29 20 55.5 30.5t59.5 10.5q98 0 188 -71.5t143 -212.5l-6 86v389h-532z" />
<glyph unicode="Y" horiz-adv-x="890" d="M18 598l2 23q8 63 105 143q106 90 215 90q115 0 219 -106q55 -55 154 -216l2 27l-6 47v379q14 0 30.5 -50t22.5 -56q33 0 49 -4.5t46 -15.5t44 -52h-123v-821l-69 69v375q-10 35 -34 71t-77 99l-295 -301l-102 45l47 39q28 24 28 74q0 29 -4 41q0 18 -26 43 q-23 27 -53 26q-14 0 -33 -10l-39 -22q-12 -6 -39 -11l-23 4q-41 10 -41 70zM170 641q80 0 119 -39t39 -96q0 -33 -4 -43l206 205q-27 35 -80 68.5t-94 33.5q-33 0 -56.5 -8t-55.5 -33q-55 -41 -74 -88z" />
<glyph unicode="Z" horiz-adv-x="722" d="M-88 864h1020l55 -57h-776l221 -191l-184 -176q102 -25 188 -123q66 -76 123 -200l-22 141v473l53 2q125 0 206 -56t81 -159q0 -66 -34 -105.5t-83 -39.5q-39 0 -66 20q-18 18 -22 56q0 27 17.5 48t49.5 25q39 0 56 -12h16q8 6 10 10q0 47 -44 79t-113 32l-58 -6v-637 l-63 65q-55 131 -158.5 205t-208.5 74l-92 92l238 211l-74 65q-12 10 -41 17.5t-68 7.5q-78 0 -106 82h-66z" />
<glyph unicode="[" horiz-adv-x="544" d="M-72 864h768l58 -57h-164v-819l-47 47q-43 135 -175 242.5t-249 107.5l-105 104q82 70 228 156q80 45 149.5 75t132.5 46v41h-542zM203 473q117 -41 219 -154q71 -80 110 -174l-12 125v383q-78 -23 -174 -78t-143 -102z" />
<glyph unicode="\" horiz-adv-x="733" d="M-72 864h987l58 -57h-991zM10 739l47 -14q66 -229 168 -381q135 -209 301 -209q127 0 200 72t73 174q0 47 -37 96l-39 35q-106 -131 -252 -131q-76 0 -135.5 52t-59.5 128q0 53 35 90t56 43l28 4h13q74 0 94 -71l8 -37q0 -20 -13.5 -35.5t-45.5 -28.5q0 -31 38 -30 q51 0 129 61t91 121q147 -98 147 -297q0 -137 -72 -236q-86 -123 -256 -122q-141 0 -254 127q-82 90 -163 288q-45 109 -101 301z" />
<glyph unicode="]" horiz-adv-x="739" d="M-72 864h832l57 -57h-192v-819l-56 53q0 96 -50 168t-132 117q-23 -31 -65.5 -57.5t-81.5 -26.5q-63 0 -99.5 41t-36.5 94q0 49 34 90t95 41q33 0 74 -21q18 16 19 43q0 35 -16.5 65t-41.5 42l-106 35q-117 31 -117 135h-63zM150 788l2 -22q125 -74 202.5 -139.5 t77.5 -155.5q0 -33 -12 -63q47 -27 88 -80q32 -45 59 -113l-12 125v467h-391q-10 -6 -14 -19z" />
<glyph unicode="^" horiz-adv-x="722" d="M-66 864h768l58 -57h-154v-821l-63 63q-14 115 -113 213q-104 104 -242 105l-92 110l230 176l-37 31q-41 33 -58 39l-120 27q-55 12 -64 57h-57zM217 807l213 -168l6 -14l-190 -160q106 -31 184 -114.5t117 -198.5l-10 114v541h-320z" />
<glyph unicode="_" horiz-adv-x="862" d="M-68 864h914l57 -57h-155v-817l-72 67v437q-8 37 -37 73q-37 53 -86 54q-27 0 -49 -29q-33 -39 -33 -100l4 -43l-26 6q-59 166 -205 166q-63 0 -106.5 -41t-43.5 -103l2 -22q8 -66 72 -97l59 -12q-18 27 -22 64q0 35 25.5 60.5t62.5 29.5q86 0 86 -97q0 -47 -39 -82.5 t-92 -35.5l-21 -2q-82 0 -140 62.5t-58 146.5t59 156.5t152 72.5q72 0 118 -25q27 -16 66 -67q12 45 44 64.5t64 19.5q43 0 89 -47q29 -29 67 -95l-12 95v141h-688z" />
<glyph unicode="`" horiz-adv-x="811" d="M-63 864h133q53 0 98 -32.5t86 -102.5q47 57 86 94q51 41 92 41q39 0 92 -51q16 -16 44 -48t48 -60l11 -15v289q16 0 29.5 -45t23.5 -55q33 0 49 -4.5t46 -15.5t44 -52h-123v-819l-69 69v533q-25 51 -76 108q-59 63 -98 64q-49 0 -95 -66q25 -14 52.5 -32.5t35.5 -26.5 q51 -45 70 -105l4 -26q0 -43 -29.5 -73t-76.5 -30l-35 5q-25 6 -55 36q-4 4 -20.5 24.5t-33.5 49.5q-23 -49 -50 -80.5t-75 -40.5q-37 -6 -77 23q-37 31 -37 76l2 18q8 51 76 113l106 78q-18 37 -53 50t-94 13h-66z" />
<glyph unicode="a" horiz-adv-x="821" d="M-68 864h887l55 -57h-169v-821l-70 69v398q0 20 -32 54t-66 34q-55 0 -150.5 -132.5t-148.5 -132.5q-43 0 -99 70l-57 80l57 23q39 -43 72 -46q29 0 79 53.5t60 112.5q0 39 -11 64.5t-40 44.5q-55 37 -133 37l-33 -2q-29 0 -48 15t-38 79h-59zM268 807q53 -25 94 -78 q43 -49 44 -111q0 -6 2 -9t4 -5q49 37 86 37q39 0 72.5 -25.5t64.5 -70.5v262h-367z" />
<glyph unicode="b" horiz-adv-x="765" d="M-80 864h848l55 -57h-172v-821l-57 55q-18 111 -182 211q-146 89 -239 89q-11 0 -21 -1l-62 90l248 238q-27 29 -66 53q-41 20 -88 20l-28 -2h-29q-35 0 -61.5 12.5t-57.5 55.5h-35zM238 426h6q50 0 166 -84q123 -90 172 -188v307q-59 61 -168 143l-107 -106zM276 807 q33 -10 56 -27l28 -24l156 -154q41 -37 66 -41v246h-306z" />
<glyph unicode="c" horiz-adv-x="555" d="M-66 864h785l55 -57h-477q6 -14 35 -39q12 -12 16 -37q102 0 170 -37q90 -49 107 -172l2 -33q0 -104 -88 -167q-78 -55 -211 -80q113 -39 213 -131q76 -70 159 -193l-16 -35q-131 158 -287 244q-121 66 -303 106l-76 162l11 8q53 -23 121 -43q66 -16 104 -20 q109 0 207 49q106 57 106 133q0 55 -44 86t-109 31q-39 0 -72 -10q-12 -68 -52 -108t-97 -40q-41 0 -78 31q-33 33 -33 80q0 49 55.5 92t134.5 43q6 20 -22 47q-29 23 -80 33h-180z" />
<glyph unicode="d" horiz-adv-x="698" d="M151.5 796q77.5 81 176.5 81q86 0 144 -54.5t58 -124.5q0 -76 -34 -123q-43 -61 -134 -61q-68 0 -116.5 56.5t-48.5 129.5l-35 -57q-10 -29 -15 -63q0 -53 62 -109q51 -43 127 -70q129 -45 209 -110q125 -103 125 -244l-52 23q0 117 -172 172l-190 63q-61 20 -113 88 q-69 91 -69 206q0 116 77.5 197zM242 733q8 -47 49 -82q25 -18 61 -30l33 -5q29 0 55.5 18.5t26.5 45.5q0 35 -35 64.5t-84 29.5q-31 0 -57 -10q-25 -6 -49 -31z" />
<glyph unicode="e" horiz-adv-x="536" d="M115 705q0 63 50 116t126 53q66 0 108.5 -48t42.5 -111q0 -68 -47 -118t-116 -50q-72 0 -119 47q-45 51 -45 111zM119 387v127q111 -80 208 -203t160 -270v-98q-45 104 -155.5 243.5t-212.5 200.5zM184 688l4 -22q6 -12 29 -25.5t37 -13.5q57 0 90 34.5t33 73.5 q0 27 -21.5 42.5t-50.5 19.5q-51 0 -86 -32t-35 -77z" />
<glyph unicode="f" horiz-adv-x="524" d="M102 184q0 66 44 118t116 52q66 0 106 -47t40 -110q0 -70 -41 -117t-115 -47q-66 0 -109 45q-20 23 -30.5 47.5t-10.5 58.5zM102 670q0 66 44 118t116 52q66 0 106 -47.5t40 -110.5q0 -70 -41 -117t-115 -47q-66 0 -109 45q-20 23 -30.5 47.5t-10.5 59.5zM162 670 q0 -14 7 -31.5t46 -30.5l29 -6q31 0 74 28q37 24 37 61q0 7 -1 14q-6 31 -28.5 42t-53.5 15q-43 0 -76.5 -28.5t-33.5 -63.5zM166 182l6 -26q6 -18 35 -27q33 -6 37 -10q4 -1 9 -1q27 0 60 21q41 26 41 64q0 8 -2 16q-6 31 -26.5 44t-53.5 13q-47 0 -76.5 -26.5t-29.5 -67.5 z" />
<glyph unicode="g" d="M-352 1221l39 -17q49 -125 153 -125q51 0 92 36t41 91l35 15q0 -98 -35 -152q-41 -63 -123 -63q-68 0 -126 64.5t-76 150.5zM-215 1221q0 23 18 39q12 14 35 16q58 0 58 -55q0 -25 -15.5 -38.5t-38.5 -13.5q-16 0 -36.5 12.5t-20.5 39.5z" />
<glyph unicode="h" horiz-adv-x="653" d="M-63 864h921l55 -57h-368v-47q92 0 173 -64.5t81 -154.5v-19q0 -37 -29 -61q-18 -18 -68 -29q18 -16 39 -63t21 -90q0 -25 -31 -54q-30 -24 -71 -24h-3q-20 0 -39.5 15t-25.5 36q-4 29 7 49.5t44 24.5q41 0 53 -25l17 -4l6 12q0 55 -51.5 99.5t-120.5 44.5v-455l-45 43 q-37 106 -131 170q-72 47 -187 70l-75 75l49 37l59 37q-10 16 -37 23l-55 6l-92 92q127 96 219 141q109 55 225 70v45h-485zM164 522l53 -28l45 -39l74 39q65 31 141 49v135q-82 -10 -190 -70q-94 -49 -123 -86zM233 336q86 -23 148.5 -67.5t95.5 -114.5v299 q-70 -6 -131 -41q-53 -25 -113 -76zM547 543q29 0 47 -11l39 -24q0 27 16 41q23 14 41 14q16 0 29.5 -7t15.5 -30l17 -4q8 15 8 23q0 47 -61.5 91t-151.5 44v-137z" />
<glyph unicode="i" horiz-adv-x="653" d="M-74 864h938l58 -57h-392v-41q104 0 186.5 -85t82.5 -196q0 -70 -35 -115.5t-94 -45.5q-35 0 -64 24q-22 26 -22 59q0 34 19.5 59.5t58.5 25.5q63 0 75 -54q12 6 15 23l4 24q0 82 -66.5 137.5t-159.5 55.5v-705l-45 47q-41 98 -143 166q-82 49 -192 72l-58 82 q37 33 105 76q-10 10 -39 21.5t-60 6.5l-88 97q55 49 198.5 128t254.5 99v39h-483zM133 514q35 -16 57 -33l50 -37l108 56l113 37v135q-96 -16 -181 -59.5t-147 -98.5zM205 319q174 -54 256 -204v336q-45 -10 -67.5 -18.5t-77 -35t-111.5 -78.5z" />
<glyph unicode="j" horiz-adv-x="950" d="M-68 864h1010l57 -57h-163v-830l-72 72v170q-14 23 -51 41.5t-80 18.5q-29 0 -130.5 -97.5t-142.5 -97.5t-84 57l-57 107l23 53l37 -63q35 -51 67 -52q18 0 62 41l51 47q-31 94 -131.5 161t-212.5 67l-62 86q31 27 75 57.5t100.5 64t108.5 53t91 19.5v25h-440zM170 569 q133 -12 270 -184l-12 80v242q-35 0 -126 -47.5t-132 -90.5zM489 303l68 51q29 16 57 21q49 -8 97 -39q24 -16 65 -53l-12 79v445h-275v-25q70 0 148 -62.5t78 -144.5q0 -68 -41 -106q-31 -31 -70 -31q-31 0 -52.5 16.5t-21.5 45.5q0 18 12.5 35.5t37.5 21.5q35 0 47 -25 l8 -24q14 0 27.5 9t13.5 32q1 5 1 10q0 51 -57 97q-63 51 -131 51v-404z" />
<glyph unicode="k" horiz-adv-x="530" d="M-68 864h678q12 31 13 51q0 43 -43 55.5t-105 12.5l-184 -10q-127 0 -203 47q-76 51 -76 119l6 39q6 16 27 39l27 -13l-15 -33l-4 -28q0 -37 33 -58q44 -28 137 -28h6l58 2l114 10q141 0 213 -61q57 -51 58 -144h102l57 -57h-366v-39q86 0 159.5 -73.5t73.5 -157.5 q0 -39 -29.5 -78t-68.5 -39q-33 0 -53.5 18.5t-24.5 53.5q0 29 17.5 46t46.5 17q43 0 69 -45l9 27q0 47 -63.5 98t-135.5 51q0 -215 -56.5 -315.5t-189.5 -157.5q12 -41 47 -59q18 -8 35.5 -12.5t40.5 -4.5q68 0 118 26.5t64 63.5q-18 0 -37.5 10.5t-21.5 38.5q0 66 61 78 q6 1 11 1q31 1 59 -27q33 -32 33 -90q0 -59 -78 -115.5t-182 -56.5q-80 0 -146 49q-76 63 -76 166q78 27 116 48t81 64q-31 47 -111 86q-76 41 -141 41l-65 82q78 59 194 115q51 23 101.5 37t85.5 14v39h-420zM162 578q29 -8 57.5 -23.5t59.5 -42.5q61 -49 81 -88 q29 41 39 111l9 149q-74 -12 -132 -41q-63 -25 -114 -65z" />
<glyph unicode="l" horiz-adv-x="833" d="M-66 864h1133l55 -57h-401v-145q106 0 186 -44q96 -53 97 -143q0 -63 -35 -114.5t-80 -59.5q-8 -1 -16 -1q-25 0 -54 13q-37 23 -37 68q0 39 22.5 64.5t57.5 26.5l27 -5q12 0 37 -18l20 -9q14 2 15 23q0 12 -3 18q-12 27 -63 56.5t-117 29.5q-43 0 -55 -4v-575l-51 49 q0 90 -45 180q-55 106 -144 131q0 -49 -28.5 -80.5t-77.5 -31.5q-43 0 -78 26q-31 29 -31 74q0 43 24.5 79t72.5 36l20 2q20 0 43 -9l2 28q0 70 -41 110q-37 43 -121 43l6 -25l2 -31q-10 -90 -100 -90q-51 0 -82 30t-31 73q0 37 31 72.5t80 43.5q0 23 -27 62q-23 39 -47 47 h-110zM184 807q31 -18 43.5 -42t22.5 -65q88 0 160 -69q82 -82 82 -201q53 -12 93.5 -51t67.5 -88v270q-96 0 -172 78q-61 66 -90 168h-207zM477 807q0 -82 35 -119t92 -37l51 6v150h-178z" />
<glyph unicode="m" horiz-adv-x="958" d="M6 741l47 -12q78 -236 219 -401q154 -184 310 -185q86 0 151.5 46.5t65.5 115.5q0 35 -21 57q-31 -43 -86 -43q-35 0 -65.5 23t-30.5 70q0 43 27.5 67.5t62.5 28.5q51 0 86 -41q41 18 41 90q0 23 -29.5 71t-74.5 89l-37 -152l-35 17q-25 72 -70 118q-61 68 -151 68 q-37 0 -82 -35t-51 -82l63 15l49 6q92 0 133 -68l9 -29l4 -34q0 -43 -38 -96.5t-89 -98.5l-86 76q51 23 94 65q53 49 53 88q0 43 -43 43q-23 0 -45 -6t-57 -22q-57 -27 -92 -55q-25 14 -38.5 51t-13.5 69q0 68 66.5 126.5t142.5 58.5q59 0 122 -34t118 -118l16 66l21 92 l114 -144q78 -106 78 -178q0 -35 -16 -61q-12 -27 -45 -60q16 -20 28.5 -57t12.5 -70q0 -86 -56 -157q-66 -80 -174 -80q-205 0 -395 254q-154 207 -213 448z" />
<glyph unicode="n" horiz-adv-x="700" d="M-78 864h989l58 -57h-750q72 -49 137 -123q20 -25 35 -43t25 -37l-82 -67l-66 -54q74 -12 138 -59q66 -41 106 -105v424h106q68 0 117 -28.5t74 -73.5t25 -100q0 -51 -26 -90t-67 -56l-26 -4q-33 0 -54.5 15.5t-27.5 46.5q-4 23 10 46t37 29l31 7q23 0 47 -17 q12 16 16 41q0 31 -35 57q-10 8 -26 15q-31 12 -70 12l-37 -2l-24 -10v-656l-45 74q-12 41 -59.5 94.5t-80.5 53.5q-18 0 -36.5 -19.5t-18.5 -62.5l2 -27l-18 4q-37 109 -142 109q-43 0 -79.5 -27t-36.5 -76q0 -29 16 -47t55 -18h13l8 2q-12 18 -17 43q0 25 19.5 38t48.5 17 q27 0 45 -19.5t18 -52.5q0 -37 -25.5 -61.5t-68.5 -24.5q-9 -1 -17 -1q-57 0 -97 36q-45 45 -46 115q-1 7 -1 13q0 48 39 92q44 50 114 51q53 0 88 -19q20 -12 47 -47q8 33 31.5 46t48.5 13q27 0 66 -38q25 -25 61 -76v90q-45 63 -139 108q-45 20 -90 32.5t-92 12.5l-35 -2 l-70 78l119 82l98 74q-6 25 -69 55q-80 37 -177 37l-47 80h-35z" />
<glyph unicode="o" d="M-459 188l4 33q35 135 199 135q119 0 201 -96q27 -33 55 -96v319l70 33v-536l-29 22q-31 119 -93.5 191.5t-113.5 72.5h-47q-25 -2 -33 -26q12 -31 13 -58q0 -43 -31 -78q-32 -28 -81 -28h-3q-49 0 -80 31.5t-31 80.5z" />
<glyph unicode="p" horiz-adv-x="661" d="M-63 864h1085l57 -57h-618l-35 -27l-20 -18l71 -117l82 -133q23 88 97.5 159.5t138.5 71.5q68 0 104.5 -48t36.5 -111q0 -43 -23 -78q-10 -16 -57 -60q43 -33 68 -71q10 -16 18 -38t8 -40q0 -45 -34.5 -84t-102.5 -47q-7 -1 -15 -1q-44 0 -93 30q-51 35 -103 98 q-18 -82 -76 -127q-57 -41 -137 -41q-164 0 -268 215q-86 184 -86 416l41 -15q0 -217 89 -358t224 -141q66 0 123 36.5t57 92.5q0 47 -37 88q-25 -25 -84 -48.5t-106 -23.5q-63 0 -109.5 56.5t-46.5 119.5q0 61 35 123q29 49 90 121h-319zM248 551q0 -31 15.5 -50.5 t55.5 -35.5l15 -2h8q45 0 81.5 22.5t65.5 57.5l-120 192q-57 -39 -89 -94t-32 -90zM606 414q18 -72 82 -127q55 -45 96 -45q47 0 79 22.5t32 61.5q0 47 -61 88l-27 -19q-10 -6 -31 -10q-27 0 -51 18q-16 16 -20 50q0 31 19 53t54 22l27 -6q10 -2 29 -24q67 34 67 88 q0 31 -25.5 55.5t-72.5 24.5q-68 0 -121 -56.5t-76 -136.5v-59z" />
<glyph unicode="q" horiz-adv-x="944" d="M-72 864h1030l56 -57h-520l-27 -10q16 -61 65.5 -93t122.5 -32q35 0 72 10l70 27l96 -105q-72 -88 -102 -158q-25 -66 -25 -127q0 -217 35 -333l-33 32q-12 37 -48 51.5t-77 14.5l-49 -2l-47 -2l-111 -8l-121 -9q-109 0 -174 54q-92 74 -92 237l31 -10q0 -100 63 -151 q55 -43 150 -43l69 6l138 14q90 0 123 -8q76 -16 129 -72l-35 141l-8 93q0 150 59 274l-39 -2q-47 0 -84 8t-86 33q-92 47 -137 133q-70 -45 -115 -98q-39 -51 -39 -90q0 -31 17 -45q12 -6 39 -11q37 0 102 33l80 51q55 -31 88 -84q18 -29 25.5 -51t7.5 -55 q0 -78 -60.5 -141.5t-144.5 -63.5q-176 0 -270 170q-80 145 -80 375l30 -19q18 -193 70 -282q74 -141 244 -142q63 0 117.5 32t54.5 77q0 25 -17 51q-12 29 -34 39q-33 -25 -78 -45q-43 -16 -80 -16q-68 0 -118 41t-50 116q0 53 33 107q23 37 80 88h-342z" />
<glyph unicode="r" horiz-adv-x="395" d="M-53 864h532q6 4 10 21v51q0 37 -46 71.5t-103 34.5q-20 0 -33 -4l-37 -10l-45 -10l-43 -2q-78 0 -127 49q-45 51 -45 117l6 35l13 36l32 -10l-8 -22l-10 -35q0 -51 24.5 -78t65.5 -27h60h22l55 6l56 9q80 0 139 -60q35 -29 60.5 -80t25.5 -92h115l47 -57h-217 q27 -18 46 -52t19 -87q0 -98 -210 -233.5t-210 -192.5q0 -47 27 -76q35 -37 106 -37q63 0 131 27.5t68 56.5q0 18 -4 23l-6 6l-19 -9l-20 -4q-29 0 -50.5 22.5t-21.5 61.5q6 41 39 61.5t66 20.5q51 0 86 -35q37 -31 37 -90t-79 -123.5t-192 -64.5l-69 6q-84 12 -134.5 50 t-50.5 81q0 39 15.5 74t52.5 69q23 18 78 54q-29 0 -47 6q-106 25 -107 129q0 61 56.5 145t129.5 111h-241zM115 545q0 -41 26.5 -61.5t67.5 -20.5q23 0 45 3t56 18t73 48l-172 173q-55 -43 -75.5 -84t-20.5 -76zM240 731l172 -170q47 29 67 70q15 37 15 74q0 45 -27 65.5 t-66 20.5q-51 0 -86.5 -15.5t-74.5 -44.5z" />
<glyph unicode="s" horiz-adv-x="532" d="M47 690q0 76 70.5 130t150.5 54q121 0 152 -126q25 47 75 88t97 41q55 0 85 -33t30 -82l-7 -45q-12 -41 -45 -68q33 -20 58 -61q10 -18 14 -35.5t4 -36.5q-10 -86 -117 -86q-70 0 -129 58.5t-84 138.5q-12 -12 -20 -35l-10 -39q0 -70 94 -133.5t94 -145.5q0 -63 -49 -98 t-148 -47q84 -18 175.5 -81.5t187.5 -162.5l12 -59q-141 129 -267 191.5t-288 80.5l-67 113l98 -23l72 -6q72 0 129 29q74 33 82 88q4 29 -9.5 42t-56.5 32q-6 -35 -51 -72q-43 -31 -107 -31q-80 0 -140 55.5t-60 118.5l8 33q14 20 29 31l161 88q106 70 107 143 q0 35 -19.5 56.5t-60.5 21.5q-51 0 -98 -33.5t-66 -83.5l21 7q18 0 32.5 -15.5t14.5 -36.5q0 -14 -13 -30q-23 -27 -57 -27q-31 0 -57.5 25.5t-26.5 66.5zM133 410q-1 -5 -1 -9q0 -26 32 -41q18 -6 38.5 -10t45.5 -4q43 0 78 19l45 38q-18 31 -25 52q-12 35 -12 90 q-37 -37 -158 -94q-37 -18 -43 -41zM430 659q16 -76 60.5 -121.5t97.5 -45.5q37 0 61.5 16t34.5 45q1 3 1 7q0 28 -46 56q-16 -34 -53 -34h-2q-25 0 -47 14q-16 14 -21 49q0 25 18.5 45.5t40.5 22.5q35 0 60 -23q25 18 33 41q6 31 -12.5 52.5t-55.5 21.5q-39 0 -80 -27 q-53 -35 -90 -119z" />
<glyph unicode="t" horiz-adv-x="899" d="M49 571l51 -26q0 -166 80 -290t205 -124q57 0 98 27q23 14 36 33.5t13 44.5q0 31 -6 52t-30 40l-60 -39q-49 -27 -90 -27l-45 4q-25 4 -60.5 49t-35.5 93q0 55 35 108q20 29 67 70l94 71q45 41 45 84q0 25 -24.5 43.5t-61.5 18.5q-33 0 -70.5 -23.5t-56.5 -58.5 q-8 -16 13 -41q25 -18 24 -37q0 -31 -19.5 -56.5t-49.5 -25.5q-33 0 -62 14q-23 14 -35 41l-8 46q0 80 86 157q35 29 73 44.5t95 15.5q29 0 75 -22.5t67 -59.5h8l78 55q33 23 81 35l27 2q39 0 68.5 -22.5t42.5 -65.5l4 -39q0 -27 -3 -39t-15.5 -38t-41.5 -54 q25 -18 50.5 -61.5t25.5 -80.5q0 -20 -11 -41.5t-36 -41.5l47 -50l-47 -67q-47 -76 -47 -117q0 -76 39 -154q8 -16 18.5 -32.5t22.5 -34.5l-21 2l-20 -6l-45 67q-47 78 -58 129l-6 86l6 70q6 31 27 78q-63 0 -111 39q-49 31 -79 82l-41 86q-41 -12 -109 -82 q-63 -70 -63 -113l6 -22q6 -12 37 -13q33 0 86 24.5t67 47.5h8q47 -31 74 -74q35 -51 35 -98q0 -98 -61.5 -161.5t-143.5 -63.5q-147 0 -232 139t-110 403zM506 629q18 -68 61 -121q43 -47 103 -47q27 0 49.5 14t28.5 39q0 20 -5 31l-12 16q-10 8 -16 8l-53 -16 q-33 0 -52.5 19.5t-19.5 50.5q0 27 11 45t32 26l63 -6q18 0 33 17q6 6 8 26q0 18 -11 39t-30 21q-63 0 -116 -46q-43 -37 -74 -98v-18z" />
<glyph unicode="u" horiz-adv-x="686" d="M47 635l2 35l12 51l29 -21l-2 -51q0 -92 49 -139q41 -35 119 -35h29l30 4l33 2q131 0 203 -96l-10 68v340q0 12 -9 22q-18 18 -45 12q-45 -12 -91 -51t-62 -82l-4 -22q0 -18 20 -21q8 27 41 29q31 0 43 -21.5t17 -52.5q0 -29 -27 -52.5t-62 -23.5q-51 0 -88 37 q-33 39 -32 99q0 68 86 145.5t157 77.5q49 0 88 -41q31 -35 31 -66v-63q37 59 72 92q57 57 108 57q49 0 82 -38.5t34 -86.5l-3 -20q-2 -27 -18 -51l-45 -54q29 -25 51 -64.5t22 -72.5q0 -43 -26.5 -76.5t-79.5 -33.5v-375l-35 35q0 45 -49 106.5t-113 83.5v-291l-29 31 q-27 66 -116.5 120t-159.5 54l-68 82q61 47 140 88q33 18 74.5 35.5t84.5 30.5q-17 30 -77 30h-4h-31l-35 -4l-43 -2l-76 -10q-94 0 -147 47q-70 63 -70 203zM342 197q57 -23 109.5 -60t99.5 -96l-14 74v178q-37 -8 -55.5 -15.5t-49.5 -25.5zM610 283q99 -58 148 -160 l-19 84v174q-27 6 -59.5 42t-69.5 99v-239zM610 590q68 -139 160 -139q45 0 64 16q10 6 24 33q6 14 -6 43.5t-35 46.5l-14 -19q-12 -12 -43 -16q-18 0 -41 18q-12 16 -17 43q0 41 12.5 58.5t43.5 17.5q12 0 24.5 -7t28.5 -26q41 33 53 66q2 7 2 13q0 20 -14 38 q-18 24 -59 23q-51 0 -99 -39q-18 -14 -47 -49q-18 -23 -37 -43v-78z" />
<glyph unicode="v" horiz-adv-x="430" d="M-74 864h576l2 25l2 22q-6 45 -37 70q-14 10 -34.5 16.5t-47.5 6.5l-41 -3q-18 0 -47 -6t-49 -10l-84 -14q-88 0 -137 47t-49 112l6 39q2 14 18 39l37 -18q-25 -23 -29 -55q0 -29 33 -60q30 -24 89 -24h5l27 2h33q23 6 30 8l107 18q98 0 159.5 -55t61.5 -121l-2 -39h139 l58 -57h-535v-434q4 -33 33 -64q29 -23 55 -26q68 0 129.5 79.5t61.5 182.5l-19 -13l-20 -4q-37 0 -60 29q-16 27 -16 64q6 33 25.5 55t66.5 22t81 -44t34 -101q0 -53 -19 -113q-8 -27 -19 -52.5t-28 -51.5q6 -12 12.5 -32.5t16.5 -57.5l14 -88q0 -82 -62.5 -132.5 t-152.5 -50.5q-106 0 -200 115q-78 100 -119 254l39 -10q31 -123 99.5 -199t168.5 -76q82 0 130 35t48 76q0 20 -12 49l-31 51q-78 -92 -149 -92q-53 0 -104.5 52.5t-72.5 140.5v436h-167z" />
<glyph unicode="w" horiz-adv-x="772" d="M-76 864h969l55 -57h-968zM14 737l49 -18q98 -279 250 -420q129 -123 273 -123q82 0 124 30t42 58q0 33 -11 43l-32 29q-31 -37 -84 -37q-37 0 -70 27q-29 29 -29 69q0 35 23.5 67t60.5 38l41 -2q27 -2 41 -15q35 25 35 66q0 14 -4 37.5t-53 47t-101 23.5q-55 0 -108 -36 q-43 -35 -47 -62l2 -16q45 -18 45 -70q0 -31 -25.5 -54.5t-64.5 -23.5q-43 0 -72 35t-29 80q0 92 87 159.5t208 67.5q92 0 152.5 -66.5t60.5 -150.5q0 -41 -8 -63q-27 -37 -37 -60l49 -63q21 -37 21 -70q0 -86 -56.5 -142t-154.5 -56q-164 0 -326 192q-154 184 -252 479z " />
<glyph unicode="x" horiz-adv-x="856" d="M27 684q0 68 44 124t113 56q37 0 72 -34.5t61 -90.5l103 142q63 -39 98 -97q45 -72 45 -149q0 -53 -46 -115.5t-138 -126.5q39 -14 78 -36.5t82 -59.5q76 -63 147 -156l-16 121v717q16 0 29.5 -45t23.5 -55q33 0 49 -4.5t46 -15.5t44 -52h-123v-834l-45 47 q-39 102 -186 201q-70 47 -137.5 71.5t-130.5 24.5l-27 -2l-70 121q145 0 255 77t110 146q0 35 -23.5 69t-48.5 44l-104 -143q-23 61 -66 112.5t-82 51.5q-29 0 -49 -20.5t-24 -57.5l2 -19q10 -14 18 -22l27 4q27 0 45 -19q12 -16 16 -43q0 -35 -21.5 -53t-52.5 -22 q-53 0 -85.5 45t-32.5 98z" />
<glyph unicode="y" horiz-adv-x="811" d="M-70 864h871l57 -57h-872zM2 459q0 63 6 94t25 76l47 -27l-12 -45q-12 -49 -13 -74q0 -59 12.5 -104t41.5 -82q53 -70 139 -70l170 9l41 2q104 0 180 -101l-12 62v393q0 43 -15.5 63.5t-48.5 22.5q-68 0 -133 -43q-88 -63 -88 -180l25 20q35 23 69 23q76 0 76 -101 q0 -47 -49 -78q-47 -26 -107 -26h-4q-55 6 -93 49t-38 113q12 139 119 225q92 74 209 74q61 0 98 -31t49 -78v-659l-43 43q-12 57 -64 80.5t-134 23.5l-189 -6q-113 0 -188.5 104.5t-75.5 227.5z" />
<glyph unicode="z" horiz-adv-x="702" d="M-74 864h1000l55 -57h-403v-37q119 0 204.5 -76t85.5 -168q0 -68 -34.5 -123t-90.5 -55q-41 0 -64.5 25.5t-23.5 52.5q0 20 13.5 46t48.5 26q18 0 34.5 -8.5t22.5 -32.5q45 20 45 84q-6 63 -84 102t-155 39v-709l-52 52q0 35 -9 64.5t-27 60.5q-31 53 -76 53 q-55 0 -56 -64l7 -37l-50 21q-23 53 -58.5 73.5t-76.5 20.5q-43 0 -77.5 -28.5t-34.5 -63.5q0 -20 18 -39q16 -12 39 -16q0 25 15.5 42t37.5 17q63 0 64 -66q0 -35 -25.5 -54t-64.5 -19q-53 0 -95 41q-39 45 -39 100q0 63 40 111.5t112 48.5q25 0 40 -3t36 -12 q35 -18 63 -49l37 45q12 12 43 13q41 0 74 -35q27 -27 65 -98v79q-27 66 -141.5 138.5t-212.5 72.5l-31 -2l-75 111q70 66 198 135q145 78 240 86v35h-526zM201 524q86 -14 176 -73q82 -54 145 -136l-14 76v289q-74 -12 -162 -55t-145 -101z" />
<glyph unicode="{" horiz-adv-x="854" d="M-61 864h907l57 -57h-166v-836l-51 54l-2 69q0 16 -2 34.5t-8 39.5q-23 100 -107 100q-35 0 -61.5 -40t-38.5 -85l-29 11q-27 57 -73 102q-59 53 -125 53l-19 -2q-39 0 -70.5 -25.5t-44.5 -66.5q-2 -8 -2 -25q0 -23 15.5 -48t40.5 -29l18 6q-6 27 10.5 50.5t32.5 29.5 l37 6q78 0 78 -88q0 -45 -35 -80t-88 -35h-33q-16 6 -22 8q-23 8 -51.5 32t-49.5 67q-16 43 -16 79q0 51 22.5 97.5t61.5 72.5l-21 17q-29 23 -46 62.5t-17 80.5q0 88 59.5 148.5t141.5 60.5l22 -2q53 -6 107 -43q37 -27 71 -72q8 16 16.5 31.5t26.5 40.5q31 37 82 37 q25 0 54 -21l47 -43v152h-674zM104 526q0 -35 16.5 -59.5t39.5 -24.5l18 7q-6 27 9.5 49t32 29.5t42.5 11.5q29 0 53 -27q20 -27 21 -66q0 -31 -21 -63q41 -16 76 -45q25 -20 51 -55q12 41 47 71.5t82 30.5q23 0 53 -18.5t44 -38.5v182q-12 90 -99 90q-29 0 -65 -43 q-31 -43 -37 -86l-29 10q-29 57 -73 103q-57 53 -123 53l-21 -2q-39 0 -71.5 -25.5t-40.5 -48.5z" />
<glyph unicode="|" horiz-adv-x="667" d="M31 242q0 45 27.5 96t74.5 82l33 18q-29 10 -53 29q-31 27 -54 80q-8 27 -12 49t-4 57q0 76 71.5 139.5t153.5 63.5q76 0 129 -47q39 -35 86 -119v289q16 0 29.5 -45t22.5 -55l65 -11q58 0 74 -61h-121v-840l-53 53v27q0 66 -6.5 104.5t-31 90t-75.5 81t-108 29.5 q-106 0 -166 -86q-14 -25 -15 -59q0 -27 10.5 -45.5t34.5 -24.5q12 31 58.5 65t79.5 38q37 0 56 -27t19 -61l-2 -25q-6 -37 -45 -62.5t-90 -25.5q-55 0 -102 35q-86 68 -86 168zM106 604q0 -31 12.5 -57.5t43.5 -32.5q0 39 30.5 76t88.5 37q37 0 59 -22.5t22 -63.5l-6 -37 q-2 -29 -45 -53q41 -6 80 -43q20 -16 64 -72l28 -51v297q0 29 -8 45l-18 43q-18 39 -62.5 63.5t-93.5 24.5q-57 0 -100 -21.5t-78 -68.5q-16 -23 -17 -64z" />
<glyph unicode="}" horiz-adv-x="819" d="M-68 864h899l58 -57h-901zM35 463v92l43 -18v-72q0 -72 65 -127q57 -47 142 -47h22l80 10l62 8q66 0 105.5 -16.5t78.5 -63.5v336q0 23 -27 47q-66 -74 -127 -111.5t-127 -37.5q-70 0 -110 35q-49 41 -49 120q0 37 30.5 76t77.5 39q41 0 65.5 -18.5t36.5 -59.5v-39 q0 -12 -12 -30q63 0 119 55q41 43 59 107q43 -16 88 -63.5t45 -84.5v-588l-40 43q0 66 -50.5 108t-119.5 42l-99 -15l-76 -8q-104 0 -176 58q-92 74 -106 223z" />
<glyph unicode="~" horiz-adv-x="718" d="M-82 864h799l55 -57h-170v-825l-51 53l-6 43l-13 39q-43 88 -106 129q-43 29 -107 37q-45 0 -55 -5.5t-16 -29.5l6 -21l2 -20q0 -41 -35 -68.5t-84 -27.5q-39 0 -71 34q-29 39 -29 88l2 21q12 63 70.5 100t140.5 37t178 -65q74 -49 104 -99v195q-45 90 -106 133 q-43 29 -107 37q-41 0 -51 -6t-20 -31l6 -20l2 -21q0 -41 -35 -68.5t-84 -27.5q-39 0 -71 35q-29 39 -29 88l2 20q12 63 70.5 100t140.5 37q86 0 178 -65q74 -49 104 -101v275h-561z" />
<glyph horiz-adv-x="1394" d="M-37 864h1454l35 -57h-989l-21 -8q31 -61 95 -99q35 -16 63.5 -24t65.5 -8q104 0 190 80q66 -88 105 -125q53 -43 126 -43q43 0 78 8t82 33l101 -95q-53 -72 -74 -131t-21 -149q0 -55 13 -160l12 -94h-35l-18 92q-8 49 -14.5 106.5t-6.5 98.5q0 78 12.5 141.5t30.5 93.5 l-59 -10h-39q-88 0 -143 35q-31 18 -109 96q-76 -49 -112.5 -101t-36.5 -91q0 -80 65 -80q49 0 100.5 28.5t73.5 59.5q61 -37 95 -88t34 -117q0 -76 -65.5 -120t-153.5 -44q-111 0 -189.5 67.5t-111.5 180.5q-6 -49 -53 -88q-57 -47 -135 -47q-170 0 -279 160 q-94 147 -94 356l33 -12q23 -211 112 -320q80 -98 209 -98q84 0 132 34.5t48 86.5q0 61 -53 86q-84 -51 -168 -52q-57 0 -95 32t-38 110q0 68 21.5 111.5t91.5 107.5h-328zM262 584q0 -37 12.5 -54.5t42.5 -19.5q47 0 95 22q35 12 73 43q78 -41 121 -186q27 -84 92 -143 q82 -70 199 -70q68 0 121 32t53 91q0 23 -13.5 45.5t-45.5 42.5q-68 -78 -152 -78q-74 0 -114.5 47t-40.5 111q0 94 67 154l-76 -7q-51 0 -87 8.5t-74 32.5q-70 41 -123 119q-70 -37 -110 -95t-40 -95z" />
<glyph horiz-adv-x="874" d="M-43 864h920l38 -57h-737v-293q33 43 61.5 75t65.5 60q90 72 189 90l84 -65q-66 -53 -103 -146q-31 -86 -31 -182v-29q33 45 60.5 76t64.5 60q86 72 187 90l82 -66q-66 -57 -86.5 -114.5t-20.5 -174.5q0 -20 2 -52t8 -70q0 -23 13 -78l-27 -31l-18 96q-6 39 -13.5 88 t-7.5 88q0 100 9.5 145.5t31.5 86.5q-96 -45 -166 -115q-74 -68 -100 -139l-45 29l-8 161v25q0 63 12 123.5t45 116.5q-86 -43 -165 -122t-105 -147q-29 12 -54.5 46t-25.5 67v301h-117z" />
<glyph horiz-adv-x="667" d="M-43 864h981l39 -57h-424v-295q20 16 59 29l154 43l88 -74q-63 -76 -88 -145.5t-25 -163.5q0 -63 47 -135q14 -29 48 -62l-15 -41l-67 82q-68 98 -68 182q0 98 23 187l24 75l-86 -22q-74 -18 -94 -41v-440l-37 43q-49 119 -188 145l-154 21l-63 75q31 41 106 90 q-25 35 -59 52q-31 18 -68 18l-72 86q115 96 216.5 143.5t244.5 71.5v76h-479zM119 485q35 -16 67 -45q16 -14 28.5 -24t33.5 -35l98 55q67 36 133 56v163q-109 -14 -209 -59t-151 -111zM209 258q55 -12 91 -23.5t52.5 -17.5t48 -22.5t78.5 -49.5v269q-35 -10 -70.5 -25.5 t-76.5 -40.5q-82 -49 -123 -90z" />
<glyph horiz-adv-x="1540" d="M-41 864h657l31 -33q18 -25 29 -45q4 -10 24 -53q45 63 109 105q74 49 152 49q127 0 243 -119q74 -78 168 -244l-20 107v375q25 -12 39 -35l41 -84q4 -6 51 -23q43 -10 55 -57h-113v-821l-73 55v405q-12 39 -24.5 69t-35.5 65q-35 55 -67 82l-318 -349l-94 43l49 52 q31 31 31 104q0 35 -25.5 59.5t-70.5 24.5q-27 0 -56 -10l-36 -8q-16 -55 -64.5 -93.5t-124.5 -38.5q-39 0 -74.5 19.5t-68.5 56.5q-92 98 -137 131l4 -28l2 -27q0 -47 -24.5 -80t-76.5 -33q-41 0 -78 25q-33 27 -32 70q0 49 31.5 82.5t82.5 33.5l37 -2q0 29 -28.5 70 t-55.5 43h-94zM170 807l43 -62q12 -20 23 -53l161 -104q63 -41 119 -41q61 0 98 38t37 97q0 72 -67 125h-414zM776 672l23 2q51 0 95 -62.5t44 -130.5l240 240q-70 88 -181 88q-82 0 -142 -34t-79 -103z" />
<glyph horiz-adv-x="272" d="M-262 307l203 117l-91 123l31 45l139 -189l-178 -100q109 -25 156 -51q59 -35 115 -125l-31 141v453l80 4q123 0 200 -66q80 -61 80 -174q0 -68 -35.5 -108.5t-87.5 -40.5q-37 0 -61 26q-18 25 -22 62q0 33 18 51.5t55 18.5q25 0 43.5 -18.5t24.5 -45.5q12 12 18 33.5 t6 52.5q-6 53 -61 96q-55 39 -129 39l-53 -6v-643q-68 104 -99 135q-88 94 -241 94zM-127 864h616l41 -57h-614z" />
<glyph horiz-adv-x="718" d="M-45 864h1008l43 -57h-271q25 -12 56 -55q10 -14 21 -37t11 -51q0 -82 -43 -125q-33 -29 -71 -29q16 -18 42.5 -51t30.5 -39q45 -78 45 -172q0 -59 -12 -104.5t-41 -82.5q-70 -88 -213 -88q-166 0 -311.5 164t-210.5 463l41 -6q61 -250 183 -381t274 -131q104 0 175.5 52 t71.5 120q0 72 -32 111l-19 14q-47 -55 -112 -96q-63 -35 -146 -35q-63 0 -104 39q-39 43 -39 90q0 31 25.5 62.5t64.5 31.5t63.5 -18.5t24.5 -61.5q0 -29 -33 -49q72 0 138.5 49t74.5 117q-74 0 -135 61q-74 76 -133 97q0 -53 -31 -86t-80 -33q-39 0 -61 16q-33 23 -33 62 q0 100 143 100q-6 25 -28 53l-31 29h-301zM356 807q16 -10 37 -53l15 -41l165 -80q55 -20 89 -21q94 0 94 70q0 41 -22.5 73.5t-63.5 51.5h-314z" />
<glyph horiz-adv-x="935" d="M-63 864h1003l47 -57h-156v-811l-38 35q0 45 -49.5 106.5t-112.5 83.5v-291l-31 31q-25 66 -115 120t-161 54l-68 82q53 41 144.5 89t164.5 69v190l-35 2q-79 13 -124 66q-16 16 -35 53l-19 57q-2 25 -18 19q-96 -49 -96 -109q0 -16 18 -36.5t37 -20.5l31 6l22 8 q16 0 33 -18l10 -23l14 -53l9 -74q0 -51 -44 -91t-100 -40q-115 0 -180 90q-63 96 -63 261v34l4 39l34 -28q0 -197 68 -271q45 -45 131 -45q41 0 73 15.5t36 37.5q0 37 -17 60q-23 31 -67 31q-66 0 -97 36q-18 25 -18 78q0 45 29 86l55 62q2 6 0 8l-6 2h-258zM369 197 q55 -20 110 -62q56 -37 101 -94l-15 74v178q-59 -12 -106 -41zM383 807l2 -37q14 -82 88 -125q16 -12 68 -12q68 0 94 14v-364q96 -57 149 -160l-18 84v600h-383z" />
<glyph horiz-adv-x="935" />
<glyph unicode="&#xa1;" horiz-adv-x="790" d="M-66 864h1100l56 -57h-381v-133q39 8 65 26l55 50h19l84 -97l-10 -139l-2 -117l2 -100l12 -94q6 -49 24 -99l-67 68l-19 78l-12 119l-2 125v84l2 90l-65 -50q-31 -16 -86 -32v-596l-45 45q0 98 -50 190q-55 100 -149 125q-12 -43 -44 -68.5t-69 -25.5q-39 0 -63.5 21.5 t-32.5 60.5q0 41 21.5 72.5t70.5 40.5q16 2 25 2q18 0 41 -7q0 86 -35 129q-41 51 -129 52l4 -27v-18q0 -29 -29.5 -61t-70.5 -32q-39 0 -70 31q-27 33 -27 68q0 37 29 71.5t76 40.5q0 23 -7.5 39.5t-25.5 38.5q-23 23 -47 29h-92zM168 807q23 -10 41 -39q16 -20 24 -61 l58 -7l55 -16q119 -33 215 -33q47 1 78 13v143h-471zM422 616q23 -27 41 -81q6 -27 10 -51.5t4 -53.5q47 -12 96 -63l66 -84v295l-35 -5l-33 2q-29 0 -63.5 9.5t-52 15.5t-33.5 16z" />
<glyph unicode="&#xa2;" horiz-adv-x="577" d="M35 690q0 68 51 120t127 52l23 -2q72 -6 196 -160q10 23 -8 74l-23 49q-154 135 -204 216t-50 161q0 39 36 81t69 52l76 -71q-43 0 -81 -29t-38 -64q0 -76 92 -180q53 -57 141 -125h334l58 -57h-349q90 -96 135.5 -200.5t45.5 -205.5q0 -147 -87 -246.5t-204 -99.5 q-109 0 -180.5 75t-71.5 169l4 49q113 23 192 90q98 80 99 197q0 23 -49 78q-54 55 -99 65l-34 4q-55 0 -82 -33.5t-27 -80.5q0 -43 20.5 -77t69.5 -34q-23 23 -22 59q0 31 15 48.5t44 21.5q45 0 63 -43q6 -16 7 -39q0 -29 -36 -58.5t-91 -29.5q-82 0 -122 54.5t-40 119.5z M227 246l2 -23q10 -49 45 -73q16 -10 36 -16.5t40 -6.5q96 0 152 53q66 62 80 207q0 82 -28 189.5t-65 144.5q0 -205 -81 -311q-55 -72 -175 -117q-6 -18 -6 -47z" />
<glyph unicode="&#xa3;" horiz-adv-x="892" d="M37 702l53 -16q100 -293 219 -430q102 -119 211 -119t160 45q41 37 41 94q0 35 -25 58q-6 -18 -30.5 -31.5t-49.5 -13.5q-35 0 -61.5 26.5t-26.5 67.5q2 33 24.5 57.5t65.5 24.5t72 -35q43 31 43 84l2 35q0 63 -37 129q-31 -109 -63 -146q-20 82 -49 146q-35 74 -72 74 q-27 0 -38 -10.5t-19 -32.5q92 -61 92 -142q0 -31 -23.5 -54.5t-60.5 -23.5q-29 0 -51 25q-12 12 -31 55q-8 -35 -34.5 -61.5t-63.5 -26.5q-68 0 -68 80q0 35 24.5 76t69.5 72q-6 33 -37.5 44t-74.5 11q-27 0 -54 -14l-71 75l53 9q78 0 142.5 -23t97.5 -84q41 106 112 107 q45 0 88 -43q35 -37 62 -101l22 72l17 65q49 -68 87 -155.5t38 -165.5l-2 -25q0 -27 -17 -57l-33 -57l23 -48q6 -23 6 -53q0 -90 -62.5 -164.5t-156.5 -74.5q-164 0 -315 221q-119 178 -199 454z" />
<glyph unicode="&#xa4;" horiz-adv-x="833" d="M-41 864h877l53 -57h-182l32 -53q16 -33 17 -68q-1 -139 -105 -186q27 -18 46.5 -45t19.5 -49v-441l-43 41q-39 70 -119 70q-45 0 -92 -8l-131 -25l-35 -2q-88 0 -156 68q-74 76 -88 219l-2 43l2 49l43 -17v-71q0 -80 58.5 -130t144.5 -50h20l189 28q41 0 74.5 -12 t64.5 -49v268q-2 6 -3 11t-12 25.5t-26 27.5q-45 -98 -102.5 -151.5t-120.5 -53.5q-72 0 -113 24q-53 31 -53 109q0 43 28.5 74.5t76.5 31.5q80 0 94 -69l6 -49l-4 -21q47 0 90 45q31 31 55 94q-86 0 -174 88q-59 59 -115 97l5 -27l2 -27q0 -53 -26 -87.5t-81 -34.5 q-45 0 -74.5 28.5t-29.5 73.5q0 53 32 86q16 16 35 24.5t47 8.5l37 -2q0 31 -25.5 62.5t-54.5 31.5h-137zM213 807l39 -45q12 -18 22 -53q35 -6 132 -70q84 -53 153 -53q66 0 100.5 32t34.5 89q0 33 -15 52t-52 48h-414z" />
<glyph unicode="&#xa5;" horiz-adv-x="716" d="M-59 864h788l57 -57h-634v-299q31 39 61.5 72.5t65.5 62.5q104 94 167 94q49 0 103 -65q37 -45 49 -86v-633l-51 51q-25 72 -107 123q-47 31 -95 45t-109 14l-58 64q39 39 82 75.5t94 73.5q86 63 168 101v69l-18 41q-14 20 -43 27q-47 8 -152 -105q-72 -80 -151 -196 l-37 41q-14 14 -27 33q-4 4 -10 14v383h-88zM307 250q80 -18 139 -66q50 -36 95 -102l-21 133v182q-45 -12 -108 -55q-49 -37 -105 -92z" />
<glyph unicode="&#xa6;" horiz-adv-x="841" d="M-72 864h1223l57 -57h-966v-16q0 -31 37 -50l83 -24q63 -12 83 -28.5t20 -55.5q25 29 66.5 48t74.5 24q49 0 87 -43.5t38 -79.5v-90q49 80 82 112q57 63 102 64q55 0 95.5 -39t40.5 -101l-4 -45q-4 -27 -13.5 -49t-38.5 -45q23 -20 44.5 -67.5t21.5 -81.5q0 -43 -37 -75 t-94 -32q-51 0 -103.5 49t-95.5 125v-334l-47 50q0 63 -43 90.5t-109 27.5l-100 -6l-108 -12q-125 0 -191 59q-80 68 -80 226l6 41l15 57l32 -25l-8 -24l-2 -37l-2 -31q0 -80 60.5 -125t144.5 -45l47 6l76 8q84 0 129 -14q88 -25 129 -102l-16 123v346q0 20 -7.5 35.5 t-33.5 17.5q-49 0 -111 -53q-59 -47 -84 -119q-4 -18 10 -49q18 37 60 37q27 0 44 -19.5t17 -60.5q0 -23 -20.5 -43.5t-51.5 -24.5q-51 0 -86 25q-41 31 -41 92q-51 -63 -96 -64q-37 10 -61.5 40t-24.5 61v346h-196zM236 451q6 -16 18 -23q12 -2 22 2q49 37 80 74 q42 45 54 98q6 23 -15 35l-59 16q-27 6 -56.5 32t-43.5 48v-282zM731 375q92 -160 176 -160q49 0 74 17t31 44v29q-6 25 -41 47l-35 -26q-10 -4 -33 -4q-31 6 -50 25.5t-19 55.5q0 31 23.5 51.5t49.5 20.5q20 0 60 -33l32 33q12 16 13 35q0 37 -17.5 54.5t-70.5 17.5 q-53 -6 -97 -37q-23 -18 -96 -115v-55z" />
<glyph unicode="&#xa7;" horiz-adv-x="743" d="M-66 864h828l57 -57h-829zM35 549q0 68 53 133.5t123 65.5q43 0 102 -50q41 -35 66 -84l102 136q90 -92 123 -160q27 -57 27 -107q0 -37 -14.5 -67.5t-51.5 -69.5q-61 -66 -155 -96q86 -37 177 -110.5t177 -174.5v-63q-88 109 -246 196q-170 96 -350 125l-62 144l84 -23 l93 -6q113 0 196.5 52t83.5 126t-63 125l-115 -152q-47 104 -79 136t-73 32q-68 0 -83 -86q61 0 83 -28q14 -23 15 -62q0 -27 -31 -51q-31 -20 -67 -20q-49 0 -84 41q-31 43 -31 98z" />
<glyph unicode="&#xa8;" horiz-adv-x="577" d="M-76 864h854l58 -57h-369v-72q76 0 147 -57q86 -68 86 -166q0 -45 -36 -82q-33 -29 -64 -33q-78 0 -78 66q0 35 13 53q8 8 51 8q23 -2 35 -24l6 -33q16 6 23 16.5t12 34.5q0 57 -62.5 101.5t-132.5 44.5v-420l-39 32q-25 78 -117 138q-45 29 -92 43t-108 14l-70 86 q66 49 173.5 109.5t186.5 70.5v70h-424zM168 535q61 -6 131 -48t113 -116l-11 73v213q-20 2 -100 -36q-43 -23 -69.5 -40.5t-63.5 -45.5z" />
<glyph unicode="&#xa9;" horiz-adv-x="706" d="M-96 864h1048l58 -57h-414v-109l29 2q80 0 140 -55t60 -127q0 -53 -31.5 -94t-91.5 -41q-20 0 -41.5 14.5t-27.5 30.5l-2 31q0 33 17.5 50t37.5 17q23 2 39 -5t29 -27q31 6 30 43q0 31 -37.5 55t-123.5 24l-27 -2v-399l-41 41q-12 57 -66 102q-41 33 -92 45 q-6 -29 -28.5 -55t-63.5 -33q-41 0 -72 21q-33 27 -32 74q0 35 27.5 62.5t70.5 27.5l39 -6l4 32q0 55 -41 90q-37 37 -100 31q0 -47 -19 -78q-29 -47 -88 -47q-31 0 -59.5 25.5t-28.5 75.5q0 39 31 71.5t76 40.5q0 35 -19.5 48.5t-52.5 23.5h-82zM111 807q23 -6 37 -23.5 t18 -48.5q76 0 153 -67q88 -82 89 -193q33 -12 69 -47q20 -18 31 -29.5t29 -38.5l-9 58v194q-70 0 -149 62q-74 61 -88 133h-180zM367 776q0 -35 36 -59q37 -19 125 -19v109h-157l-4 -19v-12z" />
<glyph unicode="&#xaa;" horiz-adv-x="389" d="M12 549q41 72 88 119q63 63 127 71q72 10 152 -65q66 -62 115 -162l-33 -37q-45 84 -78 117q-45 51 -102 63l-35 2q-45 0 -75 -19.5t-42 -51.5h86q39 -6 68.5 -36t29.5 -77l-6 -31q-4 -29 -22 -55l-43 -61l-78 45l-2 30q2 10 59 41q23 10 29 31q2 12 -19.5 33.5 t-46.5 17.5l-55 -24q-45 -20 -68 -17q-20 6 -36 25q-12 18 -13 41z" />
<glyph unicode="&#xab;" horiz-adv-x="430" d="M-37 864h336h43q39 0 68.5 -19.5t29.5 -68.5l-2 -24q-12 -59 -86 -95l-73 -18v-35q0 -43 30 -43q18 0 72 31l96 57q27 -25 41 -60.5t14 -66.5v-24l-4 -31q-12 -94 -64 -152.5t-145 -58.5q-129 0 -209.5 140.5t-80.5 369.5l45 -31q0 -176 76 -284q70 -100 163 -101 q57 0 104.5 38t63.5 99l2 25l2 35q0 33 -8 41q-10 6 -26 -8l-27 -27l-88 -53l-49 -15l-43 39q-43 49 -43 109q0 33 2 51t14 60.5t37 62.5h-254zM272 717q0 -18 19 -19q27 0 59.5 20.5t42.5 43.5q6 18 -1 32.5t-30 22.5q-16 0 -53 -39q-31 -37 -37 -61z" />
<glyph unicode="&#xac;" horiz-adv-x="391" d="M-80 864h739l58 -57h-549v-33q49 -80 162 -117l162 -53q16 -8 28 -35l8 -53q0 -80 -117.5 -209t-201.5 -129q-37 0 -73 46t-36 87v496h-127zM168 268q6 -12 22 -20l17 -2q55 0 130 92.5t93 155.5q4 18 -4 30q-6 18 -16 25l-138 72q-66 39 -104 84v-437z" />
<glyph unicode="&#xad;" horiz-adv-x="935" d="M-63 864h1003l47 -57h-156v-811l-38 35q0 45 -49.5 106.5t-112.5 83.5v-291l-31 31q-25 66 -115 120t-161 54l-68 82q53 41 144.5 89t164.5 69v190l-35 2q-79 13 -124 66q-16 16 -35 53l-19 57q-2 25 -18 19q-96 -49 -96 -109q0 -16 18 -36.5t37 -20.5l31 6l22 8 q16 0 33 -18l10 -23l14 -53l9 -74q0 -51 -44 -91t-100 -40q-115 0 -180 90q-63 96 -63 261v34l4 39l34 -28q0 -197 68 -271q45 -45 131 -45q41 0 73 15.5t36 37.5q0 37 -17 60q-23 31 -67 31q-66 0 -97 36q-18 25 -18 78q0 45 29 86l55 62q2 6 0 8l-6 2h-258zM369 197 q55 -20 110 -62q56 -37 101 -94l-15 74v178q-59 -12 -106 -41zM383 807l2 -37q14 -82 88 -125q16 -12 68 -12q68 0 94 14v-364q96 -57 149 -160l-18 84v600h-383z" />
<glyph unicode="&#xae;" horiz-adv-x="413" d="M-68 864h588l4 47q0 43 -31.5 68t-89.5 25l-34 -3q-20 0 -60 -10l-125 -20q-88 0 -136 47t-48 112q0 41 25 78l36 -18q-25 -20 -28 -55q0 -29 30 -60q31 -25 95 -24l26 2h33q23 6 31 8l106 18q98 0 164 -57q59 -49 60 -119l-3 -39h123l58 -57h-588v-485q0 -18 28.5 -44 t51.5 -26q47 0 110.5 92t79.5 180q-12 8 -22 8l-29 5q-27 6 -44 26.5t-17 50.5q2 14 2 23q18 70 104 70q43 0 76 -46.5t33 -99.5q0 -102 -86 -229q-94 -137 -201 -129q-63 16 -102 49t-52 100v455h-112z" />
<glyph unicode="&#xaf;" horiz-adv-x="577" d="M-84 864h854l57 -57h-493v-207q0 -29 12 -43t35 -14q23 6 57 30q39 33 113 125q59 -37 87 -98t28 -135q0 -84 -71 -159t-179 -75q-152 0 -250 162q-78 131 -103 359l35 -17q31 -184 99 -282q80 -121 211 -121q88 0 146 35.5t58 99.5q0 66 -10 88q-6 29 -24 37 q-23 -37 -82 -84q-72 -55 -129 -55q-16 0 -48 32l-26 35l-19 33l-8 29v225h-297z" />
<glyph unicode="&#xb0;" horiz-adv-x="479" d="M39 623q0 111 65 174q33 31 75 47t95 16q109 0 191 -94q25 -27 96 -156v-110q0 33 -20.5 73.5t-55.5 81.5q-86 109 -198 109q-68 0 -109 -36t-41 -107q0 -57 30 -93t77 -36q-6 12 -11 43q0 35 23 59t57 24q41 0 63.5 -23.5t22.5 -64.5l-4 -43q0 -25 -41 -52t-100 -27 q-92 0 -153.5 61t-61.5 154z" />
<glyph unicode="&#xb1;" horiz-adv-x="610" d="M-53 864h837l56 -57h-838zM25 694l57 -35q63 -141 151 -225q109 -102 242 -102q176 0 176 153q0 74 -42 123t-103 49q-31 0 -55 -30q18 -6 29.5 -23.5t15.5 -46.5q0 -43 -30 -63.5t-65 -20.5q-41 0 -72.5 28.5t-31.5 80.5q0 49 44 95t108 46q104 0 181 -75.5t77 -190.5 q0 -127 -64 -189q-53 -49 -166 -49q-123 0 -231 105q-115 111 -221 370z" />
<glyph unicode="&#xb2;" horiz-adv-x="518" d="M-63 864h669l58 -57h-496v-295q43 55 143.5 127t188.5 102l84 -86q-59 -74 -86 -156.5t-27 -156.5q0 -33 4 -53l8 -41l-51 35l-4 18q-10 55 -10 100v68q6 27 8 39q10 51 41 106q-49 -23 -125 -84q-96 -76 -160 -155q-23 6 -50.5 43t-31.5 65v324h-108z" />
<glyph unicode="&#xb3;" horiz-adv-x="372" d="M-72 864h455l57 -57h-452zM12 551q0 74 68 121q53 35 115 35q129 0 217 -119q25 -33 59 -121v-92h-27q-12 88 -47 143q-49 92 -135 92q-25 0 -55 -10q14 -6 18 -16q20 -31 21 -68q0 -43 -33 -74q-33 -27 -80 -26q-51 0 -88 39q-33 43 -33 96z" />
<glyph unicode="&#xb4;" horiz-adv-x="509" d="M6 664q0 23 12 34q47 72 95 109q57 45 120 45q66 0 156 -98q55 -65 121 -176l-23 -64l-26 41l-23 29l-14 8l-21 2l-174 -174l-34 10q-12 4 -26.5 10t-25.5 13q-12 12 -14 22q0 12 21 35q47 49 53 65q2 31 -13.5 51.5t-44.5 20.5q-18 0 -39.5 -21.5t-37.5 -25.5 q-18 0 -38 18.5t-24 45.5zM150 723q2 -12 4 -14q41 -8 69 -37q29 -25 29 -70q8 -8 14 -10l105 92l-9 12q-18 35 -52 65t-68 23q-31 -6 -47.5 -16t-44.5 -45z" />
<glyph unicode="&#xb5;" horiz-adv-x="604" d="M-45 864h913l47 -57h-399v-279q43 18 80 30.5t90 29.5l102 -88l-24 -115l-8 -111q0 -33 2 -68.5t8 -80.5t10 -68.5t19 -70.5q-61 55 -86 137t-25 190v48.5t8 68.5l15 90l-191 -74v-481q-102 143 -182 191.5t-170 48.5l-88 76q61 49 170 114q90 51 200 105v35 q-39 59 -74.5 89.5t-58.5 34.5q-43 0 -71 -14l-19 -14l21 -17q20 -27 20 -61q0 -37 -34.5 -68.5t-84.5 -31.5q-49 0 -84 30q-29 33 -28 101q0 66 59.5 112.5t130.5 46.5q70 0 135 -47q47 -31 88 -90v201h-446zM203 270q78 -27 133 -63q76 -49 135 -131l-25 106v236l-131 -70 q-10 -6 -52 -34.5t-60 -43.5z" />
<glyph unicode="&#xb6;" horiz-adv-x="630" d="M-45 864h876l35 -57h-192l41 -62q20 -41 20 -81q0 -100 -47 -153.5t-127 -53.5l-49 6q-66 12 -126 95t-95 101l8 -30l6 -33q0 -51 -33 -84q-33 -29 -86 -29q-45 0 -79.5 32t-34.5 85q0 51 33.5 90t82.5 39h39l4 21q0 18 -13 37.5t-36 19.5h-182zM264 807q10 -10 17 -29 l4 -28v-31q47 -16 99 -77.5t110 -76.5l36 -4q51 0 91.5 38t40.5 85q0 74 -64 123h-334z" />
<glyph unicode="&#xb7;" horiz-adv-x="481" d="M-61 864h663l57 -57h-665zM33 500q0 86 47 153q55 80 139 80q49 0 96 -31q29 -18 52 -53q12 33 39.5 57.5t54.5 26.5q43 0 70.5 -18.5t60.5 -85.5v-99l-8 -6q-14 39 -46 75t-63 38q-27 0 -55.5 -32t-38.5 -87l-31 23q-18 98 -117 98q-53 0 -95 -48t-42 -112q0 -39 29 -73 q31 -31 72 -39h16q6 0 8 4t-3 19.5t12.5 38t48.5 24.5q35 0 57 -25q20 -18 22 -53q0 -43 -34.5 -72t-85.5 -29q-78 0 -141.5 67t-63.5 159z" />
<glyph unicode="&#xb8;" horiz-adv-x="499" d="M-29 864h121q57 0 107 -47q27 -25 57 -76q14 18 31 39q25 29 47 47q43 37 84 37q37 0 101.5 -55t94.5 -113v-78q-12 39 -75.5 95.5t-102.5 56.5q-25 0 -42 -12.5t-44 -44.5q16 -10 35 -21q29 -18 45 -33q43 -37 62 -94l4 -26q0 -37 -27 -62.5t-70 -25.5l-34 2 q-14 2 -42 28.5t-51 71.5q-18 -47 -42.5 -71.5t-69.5 -37.5q-33 -2 -70 19q-33 27 -33 65l4 39q6 27 66 82l94 72q-12 33 -46 44t-85 11h-59z" />
<glyph unicode="&#xb9;" horiz-adv-x="505" d="M-63 864h442q39 -23 57 -41q59 -59 60 -143q0 -39 -4.5 -59.5t-20.5 -57.5q-25 -61 -98.5 -97t-151.5 -36q-74 6 -123 47q-68 49 -67 135q0 59 18.5 101.5t56.5 85.5q0 2 3 4v2l-117 2zM111 588q0 -39 34.5 -67.5t77.5 -28.5q53 0 94 26q15 9 31 29l-186 190 q-23 -23 -37 -67.5t-14 -81.5zM203 776l182 -188l23 43q23 51 22 92q0 27 -7.5 44.5t-27.5 31.5q-33 23 -69 22q-43 0 -103 -30z" />
<glyph unicode="&#xba;" horiz-adv-x="442" d="M-82 864h569l58 -57h-404q-12 -12 -14 -35q0 -35 74 -94l112 -84l64 37q31 18 49 18l18 -4q31 -14 66 -67l12 -23v-55l-8 -11q-8 20 -29.5 36t-48.5 20q-45 0 -136 -96.5t-118 -96.5q-16 0 -69 51l-80 80l14 13l27 18q16 0 45 -27q29 -23 53 -16q27 10 47 31q10 16 14 45 q0 51 -55 92l-72 27q-59 23 -79 57q-10 16 -15 39l-6 45h-35z" />
<glyph unicode="&#xbb;" d="M-45 864h121l41 -57h-117z" />
<glyph unicode="&#xbc;" d="M-418 104q16 14 46 34t76 46.5t82 44t64 27.5l84 -41v-324l-40 29q-4 18 -13 31q-29 35 -93 58.5t-136 23.5zM-297 94q41 -6 96.5 -35.5t75.5 -62.5v188q-35 -6 -92 -37q-18 -10 -42 -23t-38 -30z" />
<glyph unicode="&#xbd;" horiz-adv-x="249" d="M-322 53q0 53 39 87t88 34q98 0 189 -76l69 -75v784h-59l-57 57h317l55 -57h-186v-957l-55 46q0 23 -10.5 47t-26.5 49q-31 43 -78 57l-37 6l-37 2q6 -39 -18.5 -79.5t-79.5 -40.5q-45 0 -74 26q-39 33 -39 90z" />
<glyph unicode="&#xbe;" horiz-adv-x="770" d="M-66 864h828l57 -57h-829zM-4 575q0 70 49 125.5t141 55.5q35 0 70 -17.5t113 -89.5l73 66l76 73l96 -104q41 -49 48 -90v-594l-80 59q-88 58 -129 52q-27 -2 -111 -37q-12 -4 -53 -15.5t-74 -11.5q-70 0 -125 47q-66 55 -65 144l4 45l28 -13l-2 -16v-12q0 -55 47 -90 q41 -27 93 -27l20 2q12 0 115 39q45 16 86 16q59 0 125 -43l49 -43v510l-12 35q-6 18 -29 41l-158 -135q-41 55 -88 90q-29 18 -76 35l-24 4q-31 0 -60 -25q-20 -25 -18 -55q31 0 56.5 -17.5t25.5 -52.5q4 -35 -21.5 -64.5t-79.5 -29.5q-49 0 -79.5 41t-30.5 102z" />
<glyph unicode="&#xbf;" horiz-adv-x="378" d="M-272 213q0 53 38.5 87t90.5 34q119 0 239 -101q23 -18 54 -51q20 -20 45 -51v676h-191l-57 57h446l58 -57h-187v-825l-55 47q-10 37 -53 85t-103 79q-8 4 -29.5 9t-37.5 7h-45q4 -20 0 -37.5t-17 -38.5q-25 -35 -78 -35q-41 0 -79.5 28t-38.5 87z" />
<glyph unicode="&#xc0;" d="M-772 70q0 68 51 126t129 58q63 0 103 -23q25 -14 53 -53q12 35 39 53q23 10 55 15q35 0 82 -45q39 -37 76 -88v153l69 21v-361l-49 62q-18 49 -69 104q-59 66 -95 66q-18 0 -41 -19q-27 -27 -26 -76l4 -36l-23 6q-25 72 -62.5 100.5t-103.5 28.5q-49 0 -96 -35 q-41 -27 -41 -88q0 -43 23.5 -58.5t56.5 -15.5h19l8 2q-18 25 -19 47q0 23 17 39q27 27 65 27q72 0 72 -84q0 -39 -32 -68.5t-77 -29.5l-22 -2q-70 0 -118 50t-48 124z" />
<glyph unicode="&#xc1;" horiz-adv-x="415" d="M-205 53q0 53 39 87t90 34h10l-8 25q-12 33 -35 51q-29 29 -67 51l-17 8l31 35l35 -18q39 -25 74 -62q27 -33 47 -80l6 -18q51 0 95 -22.5t85 -65.5q23 -23 58 -80v809h-234l-57 57h491l56 -57h-187v-959l-59 48q-35 113 -121 153l-43 14l-43 5h-16l-11 -2l9 -31 q0 -39 -29 -68.5t-82 -29.5q-43 0 -80 28.5t-37 87.5z" />
<glyph unicode="&#xc2;" d="M-571 90q0 47 39 84q39 33 90 33t87 -8.5t74.5 -32t98.5 -88.5l14 -21v146h53v-273l-39 39q-6 43 -72.5 100.5t-109.5 57.5l-31 -2q-14 0 -20 -12q12 -12 10 -41q0 -37 -23.5 -61.5t-70.5 -24.5q-43 0 -71.5 30.5t-28.5 73.5z" />
<glyph unicode="&#xc3;" horiz-adv-x="602" d="M-82 864h787l57 -57h-791zM-8 752l55 -29q61 -174 148 -277q98 -121 237 -141q37 -6 103.5 22.5t66.5 92.5q0 20 -9 31.5t-32 23.5q-31 -31 -63 -31l-35 9q-16 6 -29 26l-8 39q0 49 47 74l27 6l22 -4q12 0 23 -10l22 34q6 14 11 46q0 25 -14.5 38t-41.5 19 q-57 6 -133 -31t-76 -72l6 -12q41 -12 50 -45q6 -37 -23 -63q-12 -8 -30.5 -12.5t-34.5 -4.5q-39 6 -56 35q-8 12 -12 26.5t-4 37.5q0 55 37 97t84 65.5t84 29.5l55 4q66 0 113 -35.5t47 -99.5l-8 -41q-6 -31 -17 -45l-20 -37q37 -37 51 -72q12 -31 12 -59q0 -68 -59.5 -118 t-143.5 -50q-139 0 -245.5 123t-206.5 410z" />
<glyph unicode="&#xc4;" horiz-adv-x="649" d="M23 709q0 55 58 109t128 54q78 0 133 -55q51 -57 51 -139q0 -53 -43 -104.5t-114 -75.5q66 -18 145 -88q57 -51 102 -119l-20 88v600q16 0 29.5 -45t23.5 -55q33 0 49.5 -4.5t46 -15.5t43.5 -52h-123v-662l-51 54q-16 84 -127.5 155.5t-228.5 71.5l-53 127 q115 0 191.5 38t76.5 101q0 47 -29.5 77t-66.5 30q-31 0 -55.5 -13.5t-41.5 -50.5q33 -16 33 -61q0 -25 -20.5 -42.5t-55.5 -17.5q-29 0 -55 27t-26 68z" />
<glyph unicode="&#xc5;" horiz-adv-x="122" d="M-66 864h197l55 -57h-196z" />
<glyph unicode="&#xc6;" d="M-403 -418q0 53 36 90q35 31 91 31q74 0 122 -25l4 64l-2 82q-2 18 -4 28.5t-12 36.5l49 -22q4 -18 8.5 -40t4.5 -44l2 -100v-37q33 -20 68.5 -45t64.5 -47q53 -44 141 -136l-31 -14q-37 35 -131 102q-39 29 -70.5 49.5t-60.5 34.5q-12 -37 -29 -53q-43 -55 -116 -55 q-55 0 -95 25.5t-40 74.5zM-346 -381q0 -86 94 -86q43 0 76 45l24 47l-57 29q-23 6 -39 10t-33 4q-25 0 -43 -10t-22 -39z" />
<glyph unicode="&#xc7;" d="M-360 -236q0 53 32.5 85t79.5 32l49 -6l49 -18v28v31l-2 59v43q-6 25 -8 35l35 -12l19 -127l8 -90q59 -39 116 -94q68 -59 105 -109l2 -59q-45 55 -119 114q-31 25 -55.5 42.5t-54.5 35.5q-23 -41 -58 -71q-37 -27 -80 -27q-47 0 -82.5 28.5t-35.5 79.5zM-313 -236 q0 -43 55 -49q37 -6 63 21q17 16 29 51l-37 27l-51 8q-25 0 -43 -19q-12 -16 -16 -39z" />
<glyph unicode="&#xc8;" d="M-340 -424q0 61 33 101t108 40l58 -4v142h26l27 -205l-57 10l-48 2q-53 0 -83.5 -13.5t-30.5 -49.5q0 -47 39 -72q29 -16 65 -16q41 0 76 12t59 51l275 -106l-29 -56l-221 92l-35 -28q-47 -29 -104 -29q-61 0 -109.5 35t-48.5 94z" />
<glyph unicode="&#xc9;" d="M-338 -211q0 43 37 80q37 33 78 33l53 -4v178l51 -6l19 -242q-16 6 -52 10q-55 0 -93 -14t-38 -51q6 -25 68 -25q10 0 26.5 2t38.5 8q41 6 66 19l193 -156l20 -61l-209 147l-53 -16l-55 -10q-55 0 -97 20q-53 29 -53 88z" />
<glyph unicode="&#xca;" d="M-397 -158l227 168v66l37 -4l18 -125l-159 -121l215 -164l-9 -55z" />
<glyph unicode="&#xcb;" d="M-109 -29l213 -209v-34l-213 180v63z" />
<glyph unicode="&#xcc;" d="M182 106q0 33 22.5 55.5t57.5 22.5q33 0 53.5 -20.5t24.5 -57.5q0 -31 -20.5 -51t-57.5 -24q-35 0 -57.5 19.5t-22.5 55.5z" />
<glyph unicode="&#xcd;" d="M-233 -84q0 33 22.5 55.5t56.5 22.5q33 0 53.5 -20.5t24.5 -57.5q0 -33 -20.5 -53.5t-57.5 -24.5q-35 0 -57 19.5t-22 58.5z" />
<glyph unicode="&#xce;" d="M-580 88l5 41l24 -23q-6 -66 45 -96q33 -16 115 -28l59 6l117 16q109 0 176 -70v168h43v-243l-29 28q-2 25 -38 33l-56 6l-39 2l-73 -8l-123 -18q-86 0 -152 43q-74 49 -74 143z" />
<glyph unicode="&#xcf;" d="M-451 170l5 41q0 29 4 39l32 -19l-6 -32l-2 -25q0 -18 4 -29q16 -31 62 -30q35 0 114 20q33 8 63 15.5t44 7.5q16 0 41 -17q25 -12 33 -26v170l63 69v-368l-43 43q-6 25 -24 41q-16 10 -45 14l-25 -2q-14 -2 -25.5 -5t-56.5 -18l-88 -20q-53 0 -91 22.5t-54 69.5z" />
<glyph unicode="&#xd0;" d="M-698 283v28l28 -22q-6 -63 37 -109q33 -33 74 -43l65 -8q39 0 56 4l76 19l43 6q80 0 153 -74l31 -37l4 -33q-18 25 -37 37q-49 37 -106 37q-29 0 -66 -12q-80 -27 -135 -27q-84 0 -150 49q-29 23 -53 72q-20 51 -20 113z" />
<glyph unicode="&#xd1;" d="M-494 82l5 45l28 -14l-2 -17v-12q0 -61 57 -92q45 -23 97 -23q29 0 121 37q55 20 86 21q61 0 114 -33q16 -10 37 -33v201l53 -27v-278l-36 28q-4 31 -35 51.5t-70 20.5q-23 0 -39 -4t-93 -33t-132 -29q-72 0 -125 46q-66 55 -66 145z" />
<glyph unicode="&#xd2;" d="M-887 305q0 25 4 39l11 43l41 -27q-12 -37 -13 -65q0 -66 62 -109q61 -39 151 -39q39 0 58.5 2.5t70.5 16.5t115 14q115 0 191.5 -52t76.5 -134l-31 31q-25 72 -131 71q-49 0 -120 -12l-138 -29l-75 -8q-94 0 -169 50t-96 145l-6 41z" />
<glyph unicode="&#xd3;" horiz-adv-x="272" d="M-129 473v51q41 -59 88 -96q14 -10 36.5 -21.5t51.5 -11.5q133 0 133 111q0 37 -21.5 50t-52.5 13l5 -26q0 -16 -19 -35q-16 -12 -39 -12q-25 0 -47 20q-16 20 -20 55q0 31 19.5 59.5t60.5 28.5q72 0 110.5 -45t38.5 -125q0 -76 -34 -128t-105 -52q-53 0 -115 56 q-33 29 -90 108zM-55 864h334l57 -57h-338z" />
<glyph unicode="&#xd4;" horiz-adv-x="268" d="M-143 457v53q41 61 86 100q55 49 118 49q78 0 126.5 -43.5t48.5 -115.5q0 -74 -41 -126t-111 -52q-35 0 -55.5 26.5t-24.5 61.5q0 29 21.5 52t46.5 23t42 -13t17 -32q0 -20 -4 -28q66 0 66 82q0 37 -32 65.5t-95 28.5l-33 -2q-92 -12 -176 -129zM-53 864h323l56 -57h-334 z" />
<glyph unicode="&#xd5;" horiz-adv-x="309" d="M-119 324v86q33 -82 99.5 -138.5t117.5 -56.5q47 0 78 22.5t31 55.5q0 29 -12.5 58.5t-36.5 45.5q-35 -31 -60 -30q-31 0 -54.5 16t-29.5 57q0 33 19.5 58.5t54.5 25.5q43 0 72 -28q41 29 47 65q6 39 -23.5 74t-89.5 35q-25 0 -53.5 -13.5t-60.5 -40.5q-59 -45 -99 -120 v79q31 72 91.5 124.5t123.5 52.5q74 0 116 -57.5t42 -129.5q0 -23 -2 -33t-14 -30q-12 -29 -41 -60q29 -31 51 -77.5t22 -83.5q0 -61 -45 -107q-45 -41 -114 -41q-61 0 -129 58.5t-101 132.5z" />
<glyph unicode="&#xd6;" horiz-adv-x="210" d="M-158 500v104l80 29q53 18 74 18q45 0 62.5 -49t17.5 -104l-8 -113l-9 -104q0 -33 2 -67t10 -85.5t31 -110.5l-61 60l-35 88q-8 29 -11 48t-3 40l6 121l10 104l6 39l2 23q0 18 -18 37q-6 6 -70 -25q-20 -10 -44.5 -23.5t-41.5 -29.5zM-139 807v57h315l57 -57h-372z" />
<glyph unicode="&#xd7;" horiz-adv-x="323" d="M-70 864h195l-49 68q-12 29 -19 69q0 80 103.5 155t201.5 75q123 0 250 -70q106 -59 195 -160v-45q-41 41 -121 92.5t-151 75.5l-66 17l-68 6q-100 0 -181 -56.5t-81 -125.5q0 -31 21 -66l26 -35h146l55 -57h-186v-830l-70 70v760h-145z" />
<glyph unicode="&#xd8;" horiz-adv-x="673" d="M-43 864h942l41 -57h-207l33 -41q35 -57 35 -117q0 -72 -39 -125q-49 -66 -137 -65q-106 0 -187 98q-47 59 -84 158q-49 -205 -166 -205q-55 0 -139 92l27 35l33 -35q23 -12 41 -12q57 0 113 68.5t56 148.5h-319zM369 807q55 -127 118 -189q49 -47 125 -59q45 -6 87 25 t42 88q0 59 -34 102l-37 33h-301z" />
<glyph unicode="&#xd9;" horiz-adv-x="323" d="M-70 864h195q-33 41 -47.5 66.5t-20.5 68.5q0 80 103.5 155t201.5 75q123 0 250 -70q106 -59 195 -160v-47q-43 43 -121 94.5t-151.5 75t-133.5 23.5q-100 0 -181 -56.5t-81 -125.5q0 -20 7.5 -38t39.5 -61h146l55 -57h-186v-836l-70 70v766h-145zM674 1284l41 -18 q53 -123 153 -123q51 0 92 34.5t41 92.5l35 14q0 -96 -37.5 -155.5t-121.5 -59.5q-66 0 -123.5 63.5t-79.5 151.5zM811 1284q0 25 16.5 38t38.5 17q58 0 58 -55q0 -23 -13.5 -35t-40.5 -18q-20 0 -39.5 13t-19.5 40z" />
<glyph unicode="&#xda;" d="M-561 166q0 70 48 136.5t124 66.5q59 0 102 -31q25 -18 58 -64q12 43 37.5 67t52.5 28q55 0 94 -82l43 -113v326l70 41v-551l-56 67l-49 123q-43 86 -94 86q-18 0 -35 -22q-23 -33 -22 -80l4 -41l-23 6q-25 72 -64.5 106.5t-105.5 34.5q-47 0 -88 -36.5t-35 -94.5 q0 -43 27 -61q20 -12 55 -17h15l6 2q-18 29 -19 50q0 27 24.5 45t55.5 18q72 0 72 -84q0 -39 -32 -68.5t-77 -29.5l-26 -2q-66 0 -114 50t-48 124z" />
<glyph unicode="&#xdb;" d="M-635 903l453 328h35l-336 -328h-152z" />
<glyph unicode="&#xdc;" horiz-adv-x="630" d="M-45 864h876l35 -57h-192l41 -62q20 -41 20 -81q0 -100 -47 -153.5t-127 -53.5l-49 6q-66 12 -126 95t-95 101l8 -30l6 -33q0 -51 -33.5 -82t-85.5 -31q-45 0 -79.5 32t-34.5 85q0 55 41 93t102 38q94 0 156 -67q74 -83 123 -99l36 -4q57 0 94.5 37t37.5 86q0 74 -64 123 h-598z" />
<glyph unicode="&#xdd;" horiz-adv-x="315" d="M-578 1085q0 59 73 110.5t206 51.5q223 0 369 -137q125 -119 125 -246h120l58 -57h-172v-840l-70 70v770h-145l-56 57h195q0 133 -156 234q-121 78 -295 78q-78 0 -137 -25t-59 -61q0 -14 23.5 -32t62.5 -18l145 4q88 0 129 -38q33 -33 33 -80l-4 -35l-8 -27h-47 q6 12 10 43q0 27 -20.5 44.5t-71.5 17.5l-125 -4q-182 0 -183 120z" />
<glyph unicode="&#xde;" horiz-adv-x="315" d="M-578 1085q0 59 73 110.5t206 51.5q98 0 171 -22.5t132 -65.5l154 107h39l-152 -136q150 -125 150 -266h120l58 -57h-172v-840l-70 70v770h-145l-56 57h195q0 47 -29.5 102.5t-99.5 112.5l-133 -112l4 -25v-24q0 -37 -8 -54h-47q6 12 10 43q0 27 -20.5 44.5t-71.5 17.5 l-125 -4q-182 0 -183 120zM-522 1090q0 -14 23.5 -32t62.5 -18l145 4q68 1 105 -22l125 92q-51 29 -117 45q-31 8 -66 12.5t-82 4.5q-78 0 -137 -25t-59 -61z" />
<glyph unicode="&#xdf;" horiz-adv-x="315" d="M-578 1085q0 59 73 110.5t206 51.5q223 0 369 -137q125 -119 125 -246h120l58 -57h-172v-840l-70 70v770h-145l-56 57h195q0 133 -156 234q-121 78 -295 78q-78 0 -137 -25t-59 -61q0 -14 23.5 -32t62.5 -18l145 4q88 0 129 -38q33 -33 33 -80l-4 -35l-8 -27h-47 q6 12 10 43q0 27 -20.5 44.5t-71.5 17.5l-125 -4q-182 0 -183 120zM31 1307l39 -19q53 -123 153 -123q51 0 92 35t41 90l35 17q0 -100 -35 -154q-41 -63 -123 -63q-68 0 -127 65q-55 68 -75 152zM168 1307q0 23 16.5 36t36.5 17q58 0 58 -53q0 -25 -14.5 -38.5t-37.5 -15.5 q-20 0 -39.5 13.5t-19.5 40.5z" />
<glyph unicode="&#xe0;" horiz-adv-x="595" d="M-63 864h845l60 -57h-568v-225q35 53 132 110q84 49 139 62l80 -82q-29 -51 -29 -123q0 -18 2 -47t8 -66q39 -39 63.5 -86t24.5 -119q0 -102 -67 -170q-68 -63 -181 -63q-131 0 -223 84q-119 104 -221 385q23 -2 37 -10t18 -13q92 -233 195 -305q63 -45 199 -45 q80 0 139 37q68 43 67 127q0 43 -63 94q-23 -70 -64 -110q-55 -55 -137 -56q-76 0 -115.5 29t-39.5 78q0 47 28.5 88t73.5 41q35 0 63.5 -23.5t34.5 -56.5q0 -25 -3 -39t-23 -29q55 0 92 43q20 25 53 105l-14 78l-11 88q0 47 11 76q-78 -31 -125 -64q-37 -27 -71 -58.5 t-71 -80.5q-27 6 -52 31.5t-25 50.5v264h-201z" />
<glyph unicode="&#xe1;" horiz-adv-x="659" d="M-37 864h909l54 -57h-195q29 -29 29 -70q0 -39 -24.5 -68.5t-67.5 -29.5q-55 0 -108.5 43t-96.5 125h-277l33 -31q23 -23 39 -61q276 0 277 -156q100 0 185 -88t85 -186q0 -66 -34 -98.5t-81 -32.5q-31 0 -53 16q-20 20 -21 57q0 27 21.5 45.5t52.5 18.5q51 0 64 -37 q12 8 16 39q0 53 -59 115q-72 74 -166 73v-501l-35 30q0 47 -115.5 147.5t-212.5 118.5l-63 72q23 16 80 58q88 61 92 63q121 78 186 90q0 55 -38 81t-95 26l-45 2q-16 0 -27 -11q0 -70 -32.5 -105.5t-79.5 -35.5q-35 0 -66 17.5t-31 54.5q0 45 48.5 76.5t117.5 44.5 q-16 41 -59 69.5t-76 28.5h-94zM223 326q76 -18 150 -90q49 -47 104 -127v372q-47 -12 -121 -59q-61 -39 -133 -96zM508 807q6 -39 45 -74t86 -35q76 1 76 60q0 18 -10 30q-6 16 -19 19h-178z" />
<glyph unicode="&#xe2;" horiz-adv-x="528" d="M-76 864h750l57 -57h-442q20 -12 33 -37l10 -41q92 0 164 -47q88 -57 88 -156q0 -100 -57.5 -141t-194.5 -59q147 0 280 -146l117 -137l-33 -33q-102 139 -245 201q-72 29 -156 43t-197 14l-71 162l10 8q45 -23 100 -37q59 -12 105 -12q84 0 186 56.5t102 103.5 t-28.5 69.5t-77.5 22.5q-45 0 -100 -18q-18 -123 -138 -123q-43 0 -75.5 27.5t-32.5 74.5q0 45 55 86q59 39 121 39q6 18 -14.5 45t-69.5 35h-193z" />
<glyph unicode="&#xe3;" horiz-adv-x="374" d="M-70 864h463l56 -57q-113 -33 -209 -178q-47 -72 -71 -139.5t-24 -133.5q0 -115 41 -202.5t117 -87.5q23 0 21 14q-10 6 -19 26l-8 33q0 33 23.5 53.5t58.5 24.5q33 0 62.5 -24.5t29.5 -59.5q0 -55 -38 -94t-99 -39q-123 0 -198 109.5t-75 248.5q0 117 52 234 q59 135 159 215h-286z" />
<glyph unicode="&#xe4;" horiz-adv-x="462" d="M-70 864h658l57 -57h-201q-115 -33 -209 -176.5t-94 -274.5q0 -115 41 -202.5t117 -87.5q23 0 20 14q-12 6 -20 26l-8 33q0 33 25.5 55.5t58.5 22.5q35 0 60.5 -24.5t29.5 -59.5q0 -55 -38 -94t-99 -39q-121 0 -196 109.5t-75 248.5q0 117 52 234q59 135 159 215h-282z " />
<glyph unicode="&#xe5;" horiz-adv-x="428" d="M2 444q0 178 111 306q102 115 233 114h111l55 -57h-102q-141 0 -240 -141q-41 -63 -61.5 -121t-20.5 -121q0 -133 49 -241.5t111 -108.5q23 0 35 14q-31 16 -31 55q0 41 28.5 64.5t65.5 23.5q39 0 68.5 -28.5t29.5 -71.5q0 -53 -44 -93t-103 -40q-123 0 -209 135t-86 311 z" />
<glyph unicode="&#xe6;" horiz-adv-x="464" d="M2 444q0 178 111 306q102 115 233 114h156v-57h-92q-141 0 -240 -141q-82 -119 -82 -242q0 -133 49 -241.5t111 -108.5q23 0 35 14q-31 16 -31 55q0 41 28.5 64.5t65.5 23.5q39 0 68.5 -28.5t29.5 -71.5q0 -53 -42 -92t-105 -39q-123 0 -209 135t-86 309z" />
<glyph unicode="&#xe7;" horiz-adv-x="315" d="M-14 864q70 0 101.5 -34.5t53.5 -127.5l-10 101v176q16 0 29.5 -45t21.5 -55l66 -11q58 0 74 -61h-121v-838l-70 70v571q0 80 -16 121q-29 76 -109 76z" />
<glyph unicode="&#xe8;" horiz-adv-x="534" d="M-59 1092l2 43q0 27 10 49l33 -13l-6 -34l2 -29q10 -68 159 -68l109 7q68 0 131 -49.5t80 -108.5l4 -25h100v-57h-172q-121 -80 -183.5 -190.5t-62.5 -231.5q0 -63 8.5 -107.5t32.5 -99.5q43 -94 117 -110q20 -4 35 4q-33 12 -33 51q0 35 20.5 55.5t53.5 24.5 q29 0 55.5 -22.5t30.5 -57.5q0 -53 -41 -88t-98 -35q-113 0 -193 141q-70 127 -69 265q0 63 8 107t32 99q41 96 136 191l14 14l57 47h74q0 47 -29.5 67.5t-87.5 20.5l-49 -2l-98 -10q-59 0 -120.5 48t-61.5 104z" />
<glyph unicode="&#xe9;" horiz-adv-x="450" d="M-59 1092l2 43q0 27 10 49l33 -13l-6 -34l2 -29q10 -68 159 -68l109 7q68 0 131 -49.5t80 -108.5l4 -25h35v-57h-107q-121 -80 -183.5 -190.5t-62.5 -231.5q0 -63 8.5 -107.5t32.5 -99.5q43 -94 117 -110q20 -4 35 4q-33 12 -33 51q0 35 20.5 55.5t53.5 24.5 q29 0 55.5 -22.5t30.5 -57.5q0 -53 -41 -88t-98 -35q-113 0 -193 141q-70 127 -69 265q0 63 8 107t32 99q41 96 136 191l14 14l57 47h74q0 47 -29.5 67.5t-87.5 20.5l-49 -2l-98 -10q-59 0 -120.5 48t-61.5 104z" />
<glyph unicode="&#xea;" horiz-adv-x="421" d="M-94 1100l8 41l6 35l27 -15l-10 -51q0 -70 124 -70q33 0 52 4l43 5l47 2q86 0 156.5 -44t70.5 -100l-2 -43h14l54 -57h-41q-117 -37 -211 -165t-94 -255q0 -115 39.5 -219.5t115.5 -104.5l10 5l9 6q-12 6 -19 26l-6 33q0 33 23.5 53.5t58.5 24.5q33 0 62.5 -24.5 t29.5 -59.5q0 -55 -38 -94t-99 -39q-119 0 -201 133q-72 119 -72 262q0 111 49.5 223.5t155.5 194.5h-276l-39 57h399q16 16 21 37q0 23 -41 45.5t-105 22.5l-77 -6l-62 -5q-84 0 -133 41t-49 101z" />
<glyph unicode="&#xeb;" horiz-adv-x="479" d="M-94 1100l8 41l6 35l27 -15l-10 -51q0 -70 124 -70q33 0 52 4l43 5l47 2q86 0 156.5 -44t70.5 -100v-43h68l49 -57h-92q-117 -37 -211 -165t-94 -255q0 -115 39.5 -219.5t115.5 -104.5l10 5l9 6q-12 6 -19 26l-6 33q0 33 23.5 53.5t58.5 24.5q33 0 62.5 -24.5t29.5 -59.5 q0 -55 -38 -94t-99 -39q-119 0 -201 133q-72 119 -72 262q0 111 49.5 223.5t155.5 194.5h-276l-39 57h399q16 16 21 37q0 23 -41 45.5t-105 22.5l-77 -6l-62 -5q-84 0 -133 41t-49 101z" />
<glyph unicode="&#xec;" horiz-adv-x="280" d="M-584 1143l2 33q0 14 15 43l37 -13q-14 -29 -15 -59q0 -43 45 -73t121 -30l109 9l92 12l102 6q90 0 152.5 -22.5t87.5 -85.5v-45q0 -31 -6 -54h123l55 -57h-178v-834l-70 70v764h-131l-55 57h178q31 18 31 56l-2 20q-6 23 -54.5 33t-75 11t-42.5 1h-44.5t-48.5 -4 q-47 0 -86 -8l-90 -8l-53 -4q-78 0 -138.5 55t-60.5 127z" />
<glyph unicode="&#xed;" horiz-adv-x="575" d="M-135 864h878l58 -57h-881zM-20 782l55 -20q90 -227 190 -330q92 -92 217 -92q90 0 147.5 46t57.5 128q0 25 -18.5 75t-42.5 73q-35 -53 -82 -91q-63 -45 -146 -45q-63 0 -108 39q-41 41 -41 99q0 33 25.5 68.5t68.5 35.5q35 0 59 -23q25 -18 27 -51l-2 -32 q-2 -10 -20 -29q12 -6 28 -6q43 0 94.5 43t63.5 98h16q43 -39 83 -121.5t40 -154.5q0 -100 -69.5 -177t-178.5 -77q-260 0 -464 544z" />
<glyph unicode="&#xee;" horiz-adv-x="327" d="M-109 864h447l53 -57h-125q-51 -31 -69 -70q-14 -43 -15 -104v-29q0 -55 25 -141q55 -190 55 -234q0 -88 -39 -147q-49 -80 -157 -92l-27 24q74 0 111 74q10 25 18 67t8 87q0 33 -49 198q-25 80 -25 138q0 39 6.5 69.5t22.5 63.5q29 59 86 96h-272z" />
<glyph unicode="&#xef;" d="M-276 903l452 326h35l-336 -326h-151z" />
<glyph unicode="&#xf0;" d="M-342 1360l39 -17q49 -125 156 -124q51 0 92 35.5t41 91.5l34 14q0 -96 -37.5 -155.5t-121.5 -59.5q-66 0 -127 63q-55 63 -76 152zM-205 1360q0 23 15.5 37t39.5 18q56 0 56 -55q0 -23 -15 -37q-14 -10 -36 -14q-16 0 -37 12t-23 39z" />
<glyph unicode="&#xf1;" d="M-569 1247l39 -18q53 -123 153 -123q51 0 92 35t41 90l35 16q0 -98 -39 -156.5t-121 -58.5q-68 0 -125 65.5t-75 149.5zM-432 1247q0 53 53 53q57 0 57 -53t-53 -53q-20 0 -38.5 12.5t-18.5 40.5z" />
<glyph unicode="&#xf2;" d="M-492 27q0 63 44.5 111t105.5 48t104 -49q20 -20 41 -67q0 31 26 68.5t52 39.5q43 0 88 -65l33 -66v197l59 -39v-301l-36 33q-6 14 -11 28q-10 25 -18 39q-41 70 -92 70q-35 0 -41 -45l-6 -72l-50 18q-20 45 -34 62q-47 61 -107 61q-47 0 -75.5 -25.5t-28.5 -64.5 q0 -37 24 -55l41 -14q0 20 17.5 40.5t40.5 20.5q59 0 59 -66q0 -31 -25.5 -49t-60.5 -18q-55 0 -102.5 44t-47.5 116z" />
<glyph unicode="&#xf3;" d="M-422 39q0 43 35 76q31 35 80 35q84 0 168 -62q20 -16 65 -63v268l66 -51v-353l-62 52q-12 53 -53 80.5t-76 27.5l-28 -2q-16 0 -25 -4q4 -4 8 -27q0 -25 -19.5 -50t-62.5 -25q-41 0 -68.5 31.5t-27.5 66.5z" />
<glyph unicode="&#xf4;" horiz-adv-x="227" d="M195 836l10 10l10 -10l-10 -11z" />
<glyph unicode="&#xf5;" horiz-adv-x="215" d="M160 836l10 10l10 -10l-10 -11z" />
<glyph unicode="&#xf6;" horiz-adv-x="178" d="M127 836l10 10l10 -10l-10 -11z" />
<glyph unicode="&#xf7;" horiz-adv-x="157" d="M172 836l10 10l13 -10l-13 -11z" />
<glyph unicode="&#xf8;" horiz-adv-x="151" d="M-346 836l10 10l8 -4l4 -6l-12 -11z" />
<glyph unicode="&#xf9;" horiz-adv-x="245" d="M-68 836l11 10l8 -4l4 -6l-12 -11z" />
<glyph unicode="&#xfa;" horiz-adv-x="309" d="M41 836l12 10l10 -10l-10 -11l-10 4z" />
<glyph unicode="&#xfb;" horiz-adv-x="368" d="M-63 836l10 10l8 -4l4 -6l-12 -11z" />
<glyph unicode="&#xfc;" horiz-adv-x="57" d="M-49 836l10 10l10 -10l-10 -11z" />
<glyph unicode="&#xfd;" horiz-adv-x="163" d="M20 836l11 10l10 -10l-10 -11z" />
<glyph unicode="&#xfe;" horiz-adv-x="376" d="M-147 836q0 14 14 16q16 0 16 -16q0 -12 -16 -13q-10 0 -14 13z" />
<glyph unicode="&#xff;" horiz-adv-x="1927" />
<glyph unicode="&#x152;" horiz-adv-x="1187" d="M-49 864h1235l35 -57h-611v-453q94 117 215 213q98 74 181 105l116 -92q-49 -18 -94 -107q-51 -98 -51 -190q0 -86 13.5 -144.5t64.5 -158.5l-41 20q-55 80 -82 164q-6 20 -16.5 71.5t-10.5 104.5q0 49 17.5 101.5t56.5 129.5q-76 -33 -201 -153q-115 -115 -145 -199 l-41 23q-31 16 -43 37q-78 59 -197 100q-86 25 -215 43l-78 84q88 74 232 141q55 29 119.5 54.5t126.5 46.5v59h-537zM182 489l199 -71q97 -37 156 -92v344q-115 -41 -248 -117q-45 -23 -107 -64z" />
<glyph unicode="&#x153;" horiz-adv-x="595" d="M-55 864h463l-144 176q-92 106 -100 189q0 49 13 90t56 59l60 -49q-35 -16 -53 -49q-14 -33 -15 -63l2 -52q4 -33 66 -106l170 -195h346l43 -57h-363q90 -113 140.5 -215.5t50.5 -194.5q0 -150 -82 -239.5t-209 -89.5q-106 0 -188 53q-92 59 -92 149l6 52l4 16l43 12 q47 12 74 31l-91 37q-51 29 -73 74l-11 38v17q0 43 37 78l80 43q43 23 43 55q0 20 -14 41l-37 43h-193zM154 530q0 -23 10 -44t31 -42l69 -38l66 51q41 30 61 61l-160 111l-20 -8q-20 -10 -33 -23q-25 -29 -24 -68zM184 207q12 -39 57.5 -62.5t100.5 -23.5l31 2 q106 10 178 108q31 41 45 79t14 85q0 90 -22 164q-20 78 -66 121q0 -143 -114 -264q-84 -90 -209 -150l-9 -22q-8 -25 -6 -37zM229 807l37 -53q8 -14 10.5 -30.5t2.5 -37.5q0 -14 -15 -29l150 -104q45 73 45 141q0 66 -23 113h-207z" />
<glyph unicode="&#x178;" d="M-535 102q37 55 160 145.5t193 104.5l67 -45v-471q-8 14 -41 43l-12 12q-43 82 -147 117q-29 8 -69 14.5t-83 6.5zM-410 100q76 0 142 -45q53 -36 96 -102l-12 113v188q-51 -14 -120 -62.5t-106 -91.5z" />
<glyph unicode="&#x2c6;" horiz-adv-x="757" d="M-45 864h1044l48 -57h-875v-277q94 111 150 150q63 47 110 47q61 0 138 -71.5t77 -106.5v-21q43 18 80 30.5t90 29.5l101 -88l-23 -117l-8 -109q0 -33 2 -68.5t8 -80.5t10 -68.5t19 -70.5q-57 55 -86 141q-27 94 -27 186q0 20 2 50t8 61l15 96l-191 -74v-481 q-102 145 -183 192.5t-171 47.5l-86 76q61 49 170 114q90 51 201 105v53q0 35 -40 68.5t-67 37.5q-66 0 -186 -133l-117 -135l-37 51q-25 33 -29 56v309h-102zM334 270q78 -27 133 -63q72 -47 133 -131l-22 106v236q-135 -68 -244 -148z" />
<glyph unicode="&#x2dc;" d="M-823 -4q0 41 10 70l4 12l18 -21l-2 -39q0 -68 48.5 -100.5t119.5 -32.5q41 0 60.5 2t50.5 15q96 31 178 30q123 0 186 -77v157h35v-213h-20q-29 23 -70 39q-45 10 -92 10q-49 0 -121 -12l-96 -20l-51 -9l-56 -2q-78 0 -127 31t-61 68l-10 57q0 25 -4 35z" />
<glyph unicode="&#x2000;" horiz-adv-x="707" />
<glyph unicode="&#x2001;" horiz-adv-x="1415" />
<glyph unicode="&#x2002;" horiz-adv-x="707" />
<glyph unicode="&#x2003;" horiz-adv-x="1415" />
<glyph unicode="&#x2004;" horiz-adv-x="471" />
<glyph unicode="&#x2005;" horiz-adv-x="353" />
<glyph unicode="&#x2006;" horiz-adv-x="235" />
<glyph unicode="&#x2007;" horiz-adv-x="235" />
<glyph unicode="&#x2008;" horiz-adv-x="176" />
<glyph unicode="&#x2009;" horiz-adv-x="283" />
<glyph unicode="&#x200a;" horiz-adv-x="78" />
<glyph unicode="&#x2010;" horiz-adv-x="456" d="M94 311v68h320v-68h-320z" />
<glyph unicode="&#x2011;" horiz-adv-x="456" d="M94 311v68h320v-68h-320z" />
<glyph unicode="&#x2012;" horiz-adv-x="456" d="M94 311v68h320v-68h-320z" />
<glyph unicode="&#x2013;" horiz-adv-x="983" d="M-43 864h588q53 -18 82 -37q82 -53 82 -137q0 -70 -41 -117t-111 -47q-100 0 -170 58q-49 38 -76 106q-6 -53 -61 -95t-100 -42q-43 0 -127 109l26 28q29 -51 68 -51q61 0 104 46t43 122h-264zM285 395q0 45 20.5 67.5t54.5 26.5q51 0 68 -36l4 -37q27 0 37 4 q84 20 115 112q43 -27 78 -61q35 -41 34 -94q0 -74 -57 -123l-59 -35q31 0 60.5 -10t70.5 -37q72 -45 108 -100l-20 182v731q12 0 30 -41l27 -49q51 -12 90 -33q35 -14 58 -55h-136v-850l-37 41q-51 84 -145 120t-262 36l-49 84q113 0 179.5 50t66.5 115q0 35 -13 60l-12 12 q-27 -55 -45 -80q-66 -82 -156 -82q-29 0 -40 2t-31 15q-39 23 -39 65zM319 807q0 -88 60.5 -149.5t128.5 -61.5q59 0 89 34t30 83q0 29 -12.5 50t-51.5 44h-244z" />
<glyph unicode="&#x2014;" d="M-596 238q0 94 59 172l25 -2q-33 -66 -33 -123q0 -63 32 -109.5t91 -64.5l86 -9l109 7l94 6q49 0 102 -33q43 -25 76 -72l-10 62v370q0 20 -31 25q-70 0 -137.5 -57.5t-67.5 -116.5l6 6q23 14 54 14q23 0 37 -17t14 -40l-2 -20q-6 -35 -29.5 -50.5t-60.5 -19.5 q-49 0 -80 30.5t-31 82.5l2 20q0 70 86 145.5t197 75.5q53 0 90 -45q18 -27 22 -51v-500l-38 23q-8 33 -68 55q-66 20 -139 21l-99 -13l-94 -6q-59 0 -118.5 16.5t-101.5 80t-42 137.5z" />
<glyph unicode="&#x2018;" d="M-481 291q76 82 183.5 136t240.5 87l123 14v-546l-35 38q-102 109 -172 137.5t-221 28.5zM-348 287q125 -12 208.5 -56.5t159.5 -146.5l-24 117v237q-39 0 -82 -10t-98 -37q-100 -41 -164 -104z" />
<glyph unicode="&#x2019;" horiz-adv-x="763" d="M-39 864h1057l37 -57h-406v-344q90 -12 172 -88t82 -156q0 -74 -35 -110q-23 -29 -61 -35q-37 -6 -62.5 18.5t-25.5 50.5q0 31 19.5 53.5t49.5 22.5q16 0 29 -10q12 -6 27 -33l12 17l8 26q0 57 -63.5 108.5t-151.5 51.5v-410q-70 109 -164 160q-72 37 -223 66l-84 75 q123 92 203 136q119 59 223 59q-12 25 -24.5 48.5t-22.5 37.5q-55 86 -100 86q-59 0 -60 -66l6 -43l-53 23q-25 57 -65 80q-37 25 -82 24q-51 0 -89 -34.5t-38 -71.5q0 -25 18 -43q16 -10 45 -14q0 27 16.5 43t43.5 20q31 0 50 -19.5t19 -50.5q0 -35 -30 -59 q-31 -20 -68 -20q-57 0 -100 51q-39 51 -39 118q0 68 36.5 111t118.5 51q47 0 84 -18.5t74 -52.5l39 45q16 12 45 16q47 0 86 -39q27 -27 72 -106v225h-584zM311 256q106 -35 156 -66q86 -51 145 -135l-26 117v203q-41 0 -67.5 -6.5t-75 -28t-132.5 -84.5z" />
<glyph unicode="&#x201a;" horiz-adv-x="321" d="M-244 213q0 51 39 87t90 36q4 20 0 37.5t-16 38.5q-23 37 -82 55l55 29l60 -43q59 -55 59 -127q68 -18 127 -74q41 -37 64 -84l-15 149v490h-225l-45 57h455l34 -57h-149v-807l-41 18q-6 55 -41 113q-41 68 -84 80l-27 4q-16 0 -24 4h-21q4 -41 -21.5 -81t-78.5 -40 q-41 0 -74 27q-39 33 -39 88z" />
<glyph unicode="&#x201c;" horiz-adv-x="821" d="M-39 864h868l43 -57h-170v-821l-65 59v131q-47 70 -111 121q-86 63 -172 63q-76 0 -130 -35.5t-54 -95.5q16 14 71.5 32t75.5 18q70 0 110 -38t40 -118q0 -61 -84 -105l-121 -45l-74 70q74 0 154 39q84 37 84 88q0 53 -64 53q-45 0 -100 -28l-125 -64q-27 0 -45 19 q-14 23 -14 69q0 94 71.5 151.5t182.5 57.5q41 0 82 -12.5t84 -40.5q82 -49 137 -131v252l-45 82q-55 84 -101 84q-29 0 -58.5 -32t-29.5 -81l-51 20q-23 55 -66.5 83t-88.5 28q-43 0 -79 -31t-36 -78q0 -25 18.5 -40t44.5 -19q0 27 16.5 43t43.5 20q31 0 50 -19t19 -50 q0 -39 -29.5 -60.5t-68.5 -21.5q-57 0 -98 53t-41 117q0 72 38 118t120 46q41 0 90 -41q20 -16 65 -70q10 27 49 66q35 31 66 35q43 0 93 -53.5t79 -125.5v238h-633z" />
<glyph unicode="&#x201d;" horiz-adv-x="888" d="M-39 864h936l39 -57h-168v-817l-63 59v109l-37 43l-64 67l-280 -280l-101 37l78 69l14 10l9 15q0 27 -29 57.5t-64 30.5l-51 -6l-49 -6q-39 0 -39 55q0 27 47 80q109 123 248 123q92 0 164 -58q47 -39 147 -168v209q-25 68 -45 103q-55 102 -116 102q-37 0 -70 -26.5 t-33 -65.5l2 -21l-51 23q-25 55 -77 79.5t-105 24.5q-47 0 -87 -37.5t-40 -72.5q0 -33 24 -58q23 -18 47 -22q0 27 16.5 44t43.5 21q33 0 49 -22q16 -16 20 -49q0 -35 -30 -60q-31 -20 -70 -20q-55 0 -100 60.5t-45 121.5q0 72 36.5 120t118.5 56q29 0 51.5 -4t66.5 -21.5 t75 -45.5q18 29 53 45q16 8 30.5 12t35.5 4q47 0 108 -59q55 -53 94 -127v266h-698zM215 279q72 -25 92 -46q37 -31 43 -94l195 180q-12 29 -51 47.5t-80 18.5q-59 0 -107.5 -22.5t-91.5 -83.5z" />
<glyph unicode="&#x201e;" horiz-adv-x="782" d="M33 668q0 82 74.5 152.5t183.5 70.5q96 0 188 -76t148 -199l-9 101v258q10 0 41 -60q12 -31 33 -43l60 -8h266l65 -57h-393v-299q12 4 24.5 8t45.5 21l57 20l101 -86q-31 -127 -31 -262l2 -74l37 -149q-61 57 -90 116q-23 57 -23 146l6 104l19 133l-148 -61v-459 q-74 104 -139 150q-88 59 -209 59l-84 68l166 123q43 29 74 47q51 31 123 67v92q-25 47 -55.5 86t-71.5 76q-92 86 -179 86q-78 0 -129 -42t-51 -99q47 35 101 35q72 0 114.5 -55.5t55.5 -141.5q0 -66 -64 -102l-106 -43l-78 75q113 18 116 23q78 25 78 92q0 80 -69 80 q-59 0 -115 -37q-45 -31 -72 -35q-31 0 -49 21q-14 25 -14 78zM381 240q90 -31 133 -56q76 -43 133 -121l-26 119v213q-74 -33 -129 -73z" />
<glyph unicode="&#x2022;" horiz-adv-x="735" d="M-43 864h1059l53 -57h-330l56 -51q29 -33 28 -94q0 -74 -84 -113q-27 -12 -84 -25q90 -25 168 -102q45 -47 66.5 -90t21.5 -92q0 -82 -39 -121q-25 -25 -65 -25q-29 0 -51 19q-12 16 -17 47q0 31 18.5 51t51.5 25q23 0 53 -39q6 6 10 43q0 74 -76.5 127t-170.5 53v-449 q-72 121 -161 180.5t-228 84.5l-82 75q98 90 176 138q111 68 217 79q-61 20 -117.5 64.5t-97.5 114.5q-29 -117 -53 -158q-37 -66 -105 -66q-57 0 -139 95l26 34q25 -49 68 -49q55 0 105.5 82t50.5 162h-285zM287 299q88 -31 155 -76q91 -61 144 -151l-27 116v236 q-70 0 -138.5 -32t-133.5 -93zM342 807q0 -78 80 -139q70 -51 135 -52q109 0 154 25t45 72q0 27 -25 51l-61 43h-328z" />
<glyph unicode="&#x2026;" horiz-adv-x="847" d="M-41 864h291l41 23l49 16l53 6q41 0 82 -14q45 -20 57 -68q12 -39 -24 -69q-12 -8 -33.5 -17.5t-50.5 -9.5t-43 2t-53 13.5t-62 37.5l-28 -53q-12 -29 -13 -59q0 -33 16.5 -50.5t57.5 -17.5q43 0 94 58l21 26l67 -33q45 -29 45 -94q0 -53 -43 -100q25 -14 46.5 -26.5 t29.5 -20.5q35 -31 35 -80q0 -72 -57 -121q-49 -41 -121 -49q133 -23 162 -33q61 -23 114 -65l-26 145v770q14 0 32 -33l31 -57l64 -23q55 -14 79 -61h-135v-815l-37 10q-41 51 -123.5 76.5t-179.5 25.5l-59 -2l-62 -8l-14 25q-16 29 -45 59q115 0 210 50.5t95 107.5 q0 35 -18 63l-19 17q-18 -63 -55 -121q-49 -66 -108 -66q-35 0 -68 18.5t-33 43.5q0 31 21.5 52.5t54.5 23.5q37 0 53 -29l10 -31l41 33q41 45 58 104q-25 -16 -66 -28l-78 -8q-121 0 -204 92q-68 80 -105 225l35 -10q43 -127 106 -183q61 -49 166 -49q57 0 116.5 26 t59.5 58q0 23 -26 37l-12 6l-29 -20q-45 -23 -96 -23q-66 0 -115 25q-59 31 -59 100q0 55 43 115h-195zM281 813l49 -27q18 -6 57 -10q39 0 70 12q38 19 30 52q0 12 -28 18l-56 8q-55 0 -80.5 -12t-41.5 -41z" />
<glyph unicode="&#x202f;" horiz-adv-x="283" />
<glyph unicode="&#x2039;" horiz-adv-x="1277" d="M-49 864h1329l49 -57h-715v-55q49 -61 125 -80q49 -8 160 -8h29q16 0 38.5 4t44 9t44.5 13l129 -125q-49 -51 -75 -112.5t-26 -133.5q0 -27 2 -55t11.5 -77.5t36.5 -112.5q23 -61 36 -72l-22 -41l-43 98q-45 117 -62 197l-10 70l-4 67q0 59 10.5 106.5t36.5 100.5l-45 -8 l-45 -4q-233 0 -371 112v-331q0 -12 15 -27q10 -6 37 -10q31 0 79 47q43 39 74 82q47 -47 74 -94q18 -35 28.5 -69t10.5 -71q0 -106 -90 -172q-82 -59 -193 -59q-172 0 -330 149q-188 182 -286 547l47 -20q74 -287 246 -441q147 -131 313 -131q98 0 166 33q84 37 84 109 q0 41 -43 94q-57 -51 -101 -78q-37 -18 -71 -18q-47 0 -134 101t-233 120l-96 104q68 51 151 103q102 61 187 92v47h-549zM311 545l125 -70q66 -39 113 -86v291q-49 -12 -128 -58.5t-110 -76.5z" />
<glyph unicode="&#x203a;" horiz-adv-x="587" d="M-37 864h899l47 -57h-313l29 -27q29 -39 28 -100q0 -80 -59 -131q-37 -31 -102 -57q86 0 171 -75t85 -169q0 -74 -37 -111q-31 -27 -74 -26q-25 0 -55 24q-25 25 -25 51q2 18 19.5 42t37.5 24q27 0 39 -37l4 -37l23 19q23 27 22 61q0 63 -74.5 111.5t-150.5 48.5v-449 l-102 103q-115 104 -240 104l-76 92l119 90q37 27 72 47.5t69 36.5h-14q-86 8 -133 45q-61 43 -61 127q0 119 131 193h-242zM162 244q125 -12 266 -178l-14 96v248q-23 0 -113 -64q-80 -53 -139 -102zM178 580q0 -25 17.5 -44.5t56.5 -25.5l65 -4q49 0 83 11t71 38l-203 180 q-53 -35 -78 -82q-12 -29 -12 -73zM311 770l199 -184q80 41 80 129q0 41 -39 64.5t-80 23.5q-57 0 -94 -7.5t-66 -25.5z" />
<glyph unicode="&#x205f;" horiz-adv-x="353" />
<glyph unicode="&#x2122;" d="M-690 678l63 -43q29 -96 66 -177t92 -163q143 -217 295 -217q113 0 188.5 57.5t75.5 147.5q0 57 -28.5 102t-92.5 45q-33 0 -53 -27q27 -16 34 -26t11 -45q0 -45 -31 -74q-31 -25 -75 -25q-51 0 -81 29t-30 86t40 102.5t132 45.5q86 0 158 -74q67 -74 67 -170 q0 -102 -78.5 -183t-197.5 -81q-139 0 -260 129q-90 100 -178 284z" />
<glyph unicode="&#xe000;" horiz-adv-x="983" d="M0 0v983h983v-983h-983z" />
</font>
</defs>
</svg>
