<?xml version="1.0" standalone="no"?>
<!DOCTYPE svg PUBLIC "-//W3C//DTD SVG 1.1//EN" "http://www.w3.org/Graphics/SVG/1.1/DTD/svg11.dtd" >
<svg xmlns="http://www.w3.org/2000/svg">
<metadata></metadata>
<defs>
<font id="av-font-symbolregular" horiz-adv-x="1806" >
<font-face units-per-em="2048" ascent="1638" descent="-410" />
<missing-glyph horiz-adv-x="500" />
<glyph horiz-adv-x="2048" />
<glyph horiz-adv-x="2048" />
<glyph unicode="&#xd;" />
<glyph unicode=" " />
<glyph unicode="U" horiz-adv-x="2242" d="M102 600q45 29 115 141q59 109 141 174l-2 35q0 37 6.5 78t22.5 100q31 111 31 146l-6 41l55 -6q25 0 63.5 6t108.5 22l106 15q37 0 74 -11q47 86 172 152q156 78 168 90l176 -100q121 -72 152 -150l39 21l53 8q55 0 129 -19l213 -53l-6 -37l-2 -36l8 -95l8 -96v-27 q0 -18 -4 -34q0 -18 -12 -56q61 -27 104 -104q111 -195 131 -209q-8 -8 -100 -201q-68 -143 -160 -159q4 -16 6 -31t4 -31l-49 -319l-47 6q-33 0 -49 -2t-65 -15q-164 -37 -199 -37q-31 0 -53 9q-31 -72 -140 -129q-139 -72 -168 -99q-10 10 -180 82q-135 55 -155 137 q-41 -12 -82 -12q-37 0 -55.5 2t-61.5 15l-168 36l-27 -2q1 8 1 18q0 32 -13 89q-45 199 -45 233q0 57 22 93q-53 27 -142 168t-118 153zM201 596q37 -37 110 -158q55 -96 125 -123l-22 -55l-6 -61q0 -55 38 -197q15 -52 15 -81v-9q6 1 14 1q33 1 101 -21q82 -26 137 -27 l51 2l59 12q31 -86 131 -141q125 -51 166 -76q72 37 121 65.5t78 49.5q59 39 88 104l59 -6q55 0 160 24.5t139 24.5l27 -2l-2 29q0 27 4 53.5t18 77.5q25 86 25 127q0 31 -10 61q102 33 158 142l81 178q-27 29 -98 166q-51 102 -117 118l15 60l4 57q0 35 -12 107l-11 92 l6 51l-155 39q-39 8 -66.5 12t-60.5 4q-72 0 -125 -30q-18 98 -150 168l-137 69l-182 -84q-98 -59 -121 -159q-47 30 -109 30h-4q-47 0 -136 -19.5t-136 -19.5l2 -26q0 -51 -25.5 -143.5t-25.5 -133.5q0 -37 12 -74q-82 -39 -158 -161zM274 596q47 92 86 149.5t86 71.5 l11 -39l14 -28q-43 -55 -43 -117q0 -27 2 -39t16 -43.5t39 -56.5l-8 -76q0 -37 6 -56q-59 10 -118 103q-78 121 -91 131zM475 201q0 43 19 86q6 -49 59 -94q41 -35 78 -43l-8 -29l-2 -23l2 -30l8 -17q12 -31 87 -50t95 -54q-41 -27 -92 -27q-27 0 -42 2t-52 15l-115 30 q0 29 -25 146q-12 55 -12 88zM481 631l6 41q6 26 31 58q19 25 45 24q8 0 17 -2q12 -6 16 -37l-6 -31l-23 -35q-6 -10 -6 -26q0 -27 27 -33q20 4 24 8l60 115q39 -27 39 -80q0 -43 -27 -70q-16 -16 -43 -30.5t-51 -14.5q-29 0 -53 17q-33 16 -44.5 40.5t-11.5 55.5zM483 948 q0 31 4.5 55.5t17.5 68.5t17 62.5t6 43.5l-2 20q25 0 90 14q68 18 109 19q35 0 66.5 -9.5t68.5 -37.5v-348q-31 -96 -123 -119q0 14 -16 33.5t-55 37.5l-21 -18q-6 16 -33 25l-45 8q-31 0 -47 -10q-8 16 -12 26t-16 53zM535 381l2 51l6 45q14 -6 49 -10q29 0 41 3t35 13 q35 18 63 56l62 -15q-12 -37 -13 -88q0 -61 14.5 -109t39.5 -73q-8 -14 -59.5 -34.5t-96.5 -20.5q-37 0 -60 14q-43 23 -63 66t-20 102zM690 88v21l21 4q18 0 28 -4l27 -11l33 -6l41 -2q49 0 83.5 11.5t53.5 33.5l63 -18l-8 -60l-6 -43q-2 2 -23.5 7.5t-31.5 7.5 q-29 0 -45 -4q-33 -16 -68 -17q-27 0 -51.5 9.5t-40.5 27.5l-57 14q-12 6 -19 29zM739 156q29 0 59.5 11t39 16t28.5 20q6 -10 31 -27l35 -16l-43 -13l-74 -8q-53 0 -76 17zM750 598l6 29l-6 39l32 10l39 24l15 -18l20 -29l-29 -37l-12 -20l-8 -21l-16 9zM840 434 q0 66 19.5 122t60.5 85q25 -63 83.5 -97t124.5 -34q0 -84 -94 -170q-82 -70 -147 -70q-47 66 -47 164zM864 735l33 51q14 18 33 27q27 4 37 -10q12 -10 14 -33l-6 -20q-18 -20 -60 -50l-18 -12l-14 19zM870 -49l125 31q27 -12 29 -45l-2 -43q0 -27 7 -46.5t36 -35.5l39 -15 l29 -2q14 16 57 113q35 80 86 104q166 53 225 78q131 47 178 133q23 45 23 103l-2 28q98 10 147 105l8 53q0 76 -47 125l-20 25q-16 18 -45 30l33 29q35 39 57 94q49 -25 76 -78q74 -143 88 -155l-78 -152q-53 -92 -150 -129l5 -31v-30q0 -57 -19.5 -144.5t-19.5 -109.5 l-291 -39l-72 6q-25 -80 -115 -146q-43 -31 -141 -75l-145 69q-88 55 -101 150zM918 1239q0 74 96 133l143 76q49 -25 72 -37q37 -20 59 -35q94 -59 94 -135l-43 12l-53 4q-86 0 -127 -36q-18 16 -58 26t-58.5 11.5t-28.5 1.5q-61 0 -96 -21zM920 870v295q6 18 49 25l69 6 q23 0 35 -2t45 -14q20 -4 43 -17l51 21q16 6 56 10q43 0 59 -4q18 0 41 -16v-259h-5q-31 1 -63 -23q-36 -26 -36 -63l-4 -20q0 -14 3 -27.5t21.5 -39t65.5 -35.5l104 8q45 0 64.5 -2t50.5 -15q15 -4 33 -16l-72 -51l-6 -58q0 -27 -6 -38q-35 37 -73 50t-81 13 q-33 0 -50.5 -2t-66.5 -14q-82 -16 -114 -17q-41 0 -68 11.5t-57 41.5q-29 39 -37 60q23 6 47 33q20 27 20 59q0 18 -12 48t-42 41t-64 11zM940 219q88 37 152 94q92 86 92 195l53 16q68 18 113 19q27 0 48 -4t44 -21q25 -12 33 -51l2 -23q0 -72 -62 -143q-45 -53 -129 -100 l-80 -31l-82 -8q-41 0 -87 12t-97 45zM981 1049q0 -14 13.5 -27.5t31.5 -13.5q41 0 41 41t-43 41q-14 0 -28.5 -12.5t-14.5 -28.5zM1065 -94l8 37l10 28q0 20 -10 37l6 60l6 45l39 -4l45 4l-4 -25v-25q0 -14 8.5 -29.5t12.5 -19.5l-8 -32q-12 -37 -43 -74q-6 -6 -7 -29 q0 -37 -14 -37q-16 0 -35 25zM1069 1335l21 -8l24 -14l43 -39q16 27 35 37l29 18l20 6q-6 16 -18 27l-35 12q-6 37 -33 39q-27 0 -35 -39q-16 0 -29.5 -6t-21.5 -33zM1128 1362q2 14 5 18t8 4t12 -4q25 -12 25 -37q0 -27 -23 -43q-10 2 -12 7q-10 23 -15 55zM1198 92 q0 18 10 27l37 10l15 -72l-21 -8l-20 -8q-20 20 -21 51zM1223 1049q0 -14 13 -27.5t32 -13.5q39 0 39 41q0 12 -12.5 26.5t-28.5 14.5q-14 0 -28.5 -12.5t-14.5 -28.5zM1280 135q123 63 164 109q63 66 88 155l55 -32l51 -13l4 -32q0 -35 -9 -65t-29 -46q-45 -39 -148 -76 q-141 -47 -164 -59l-4 22zM1315 803q-1 7 -1 13q0 18 9 31q12 17 39 23q23 4 41 -9t24 -38q1 -5 1 -10q0 -40 -46 -51q-16 -6 -41 6q-18 12 -26 35zM1427 913v267l23 16l51 29l64 8q53 0 149 -35q53 -18 74 -18l-6 -37l4 -60l6 -53l4 -35v-32q0 -78 -26.5 -133.5 t-81.5 -108.5l-17 -12q-12 25 -72.5 49t-105.5 24l-18 -2l8 41q0 68 -56 92zM1559 471v33q6 12 34 12q27 0 60 -10q14 0 33 -10l30 8l47 10q16 0 25.5 -6t9.5 -14l-2 -15q-2 -10 -4 -12q-12 -31 -45 -49q-37 -14 -70 -15l-41 5q-25 4 -51 20q-23 18 -26 43zM1569 567 q6 37 18 48.5t80 48.5l53 -23q56 -27 64 -66l-43 -10q-35 -6 -51 -14q-16 12 -52 12h-26q-14 0 -43 4z" />
<glyph unicode="Y" horiz-adv-x="1908" d="M102 403q0 96 43 156q53 70 136 70q37 0 77 -25q16 35 33 58l49 61l70 63l22 15q-12 25 -22 73l-6 80v50l2 55q0 45 -13.5 100t-25.5 74q43 14 84 20.5t108 6.5q61 0 117 -27q18 -6 47 -29q18 61 49 111q20 37 60 71l80 78q45 45 75 90l43 -49l117 -119 q31 -31 50.5 -67.5t19.5 -79.5l-2 -18q20 16 71 34l87 25l86 8q45 0 63 -4l45 -8q-16 -66 -16 -117l4 -86l4 -78q0 -35 -4 -47q-18 -94 -133 -127l80 13l38 -136q16 -2 33 -18l19 -29q12 -18 12 -35l2 -24q27 0 52.5 -10t37.5 -33l10 -37v-18q0 -35 -15 -60.5t-36 -42.5 q-29 -29 -51 -33q29 -18 29 -57q0 -16 -21 -45q16 -20 30.5 -59t14.5 -72q0 -45 -13 -81t-43 -56.5t-61.5 -32.5t-64.5 -12q-37 0 -64 16v-168l9 -43q0 -31 -11 -49q-6 -20 -26 -37q-63 -47 -160 -47h-37q-20 0 -45 4q-23 0 -65 19q-25 -25 -60 -25q-31 0 -45 28.5t-14 67.5 v33l6 20l-227 -20l-127 -8l-58 -2q-111 0 -184.5 21.5t-126.5 80.5q-25 31 -37 70l-8 82v41q0 33 4 51q-55 25 -96 59q-47 41 -65.5 92.5t-27 88t-8.5 85.5zM141 399q0 -66 19.5 -123t63.5 -99t102 -42q63 0 118 53q33 29 45 80q8 47 9.5 72t1.5 39v31q0 16 -21 16 q-10 0 -25.5 -11.5t-20.5 -43t-17 -41.5l-41 -35l-51 -31q-10 -6 -25 -2q-8 4 -10 17q8 12 12 16q57 29 96 67q12 27 17 60l-4 22q0 14 -12.5 51t-46.5 67t-70 30q-31 0 -64 -20.5t-57 -59.5q-18 -37 -19 -113zM336 -10q0 -68 33.5 -118t109.5 -75q77 -22 176 -22h9 q39 0 81.5 2t88.5 8q49 0 73.5 3t75.5 13q39 4 57.5 7.5t34.5 9.5q12 41 12 125q0 78 -22.5 112.5t-103.5 34.5h-39t-43 -4l-150 -14q-25 0 -62.5 2t-88.5 8l-123 12q-68 0 -97 -28l-16 -35zM387 580l37 -56l12 -32l10 -37h43l74 92q-2 10 -4 12q-14 37 -35.5 64.5 t-52.5 46.5l-16 8q-37 -37 -68 -98zM479 707l23 -15l45 -43q25 -25 43 -63l6 -17l18 41l27 39l33 31l49 29l-51 6q-23 4 -53.5 16t-57.5 37l-47 -29zM526 1202q12 -37 19 -92l6 -127q0 -78 12 -125t59.5 -75.5t114.5 -28.5q43 0 72 10v395l-68 37q-39 16 -90 16l-63 -2 h-25.5t-36.5 -8zM530 356l2 -32l15 -56q4 -16 8 -30.5t14 -30.5q12 -27 47 -57l302 333q-33 25 -60 68q-14 20 -29 57l-14 64q-14 2 -24 2q-8 0 -37 -5t-58 -26q-47 -37 -63 -104q-59 -29 -90 -117q-12 -37 -13 -66zM655 127q43 -12 105 -12l41 2q43 6 84 10t80 4h7 q79 0 124 -22v297l-39 4l-33 10q-47 14 -74 35zM856 766q0 -145 59 -223q61 -74 177 -94l41 -5q92 0 196 86l107 99q41 37 76.5 57.5t86.5 20.5l-22 86q-45 0 -84 -13.5t-80 -56.5l-39 -53q-37 -53 -78 -54q-82 0 -82 82q0 29 9 56l28 116q12 53 13 101v186h-408v-391z M879 1202h170l-84 154q-35 -29 -58 -72l-18 -43zM885 987q33 -4 55 -26q8 -12 12 -31t4 -35l-55 29l-8 24zM913 1255q0 25 25 25t25 -25t-25 -24q-25 0 -25 24zM922 190q0 41 41 41q38 0 38 -41q0 -39 -38 -38q-16 0 -28.5 10t-12.5 28zM993 1032v37l8 47h29l-6 -47l-2 -55 q0 -35 9 -50.5t28 -19.5q14 0 25.5 34t11.5 73l-6 65h32l4 -43l2 -33q0 -51 -16 -88t-51 -37t-53 33q-14 37 -15 84zM993 1386l88 -161l111 153l-59 62l-43 51l-11 -14l-32 -37zM1047 1368q0 14 11 25.5t25 11.5t26.5 -11.5t12.5 -25.5q0 -12 -11 -25.5t-28 -13.5 q-14 0 -26 10q-10 14 -10 29zM1096 -281q0 -29 6 -46t26 -17q25 0 39.5 26.5t18.5 61.5l-4 20l-70 15q-12 -10 -14 -19zM1118 1202h154l2 17l2 22q0 29 -10 45q-6 18 -19 31q-6 14 -26 31zM1135 -43q0 -102 57 -129q37 -14 121 -14q86 0 117 18q49 29 49 119v295 q0 96 -48.5 137t-134.5 41q-74 0 -110 -29q-51 -39 -51 -123v-315zM1153 895q-1 7 -1 13q0 26 17 53q19 20 54 26l-6 -31q0 -20 -8.5 -31.5t-30.5 -19.5zM1200 1251q-2 20 23 27h3q17 0 23 -23q2 -20 -18 -26q-23 -4 -31 22zM1210 -311q0 -18 11 -25q29 -16 88 -16l69 6 q39 6 70 22.5t31 65.5q-1 19 -9 35q-6 10 -71 10l-113 -6q-49 -6 -51 -17q-25 -37 -25 -75zM1260 696q0 -33 22 -32q31 0 53 30q39 58 66 78l-33 -6l-37 -2l-61 4l-4 -25zM1280 809l33 -2l67 2q20 2 30.5 4t31.5 12q66 25 104.5 49.5t52.5 47.5q20 41 21 86l-6 67l-6 74 l8 90l-64 8q-41 0 -90 -12q-20 -4 -43.5 -12.5t-48.5 -22.5q-43 -25 -63 -45v-184q0 -51 -6.5 -91t-20.5 -71zM1430 502q0 -68 45 -101q25 -16 51 -24t63 -8q70 0 123 41t53 98q0 29 -26.5 37t-47 9t-32.5 1h-53h-43q-68 0 -98.5 -9t-34.5 -44zM1464 588l4 -6l25 -2l37 2 q29 0 45 4l59 -2q31 0 33 10q8 25 -14.5 51.5t-57.5 28.5q-45 0 -73 -23q-18 -12 -58 -63zM1511 123q0 -88 7.5 -115.5t46.5 -27.5q68 0 116 47q16 12 25 45l8 61v6q0 68 -24 92q-4 4 -35 2l-43 -4q-43 0 -66 9l-33 14l-2 -62v-67zM1511 315q-1 -4 -1 -7q0 -17 28 -34 q18 -8 35.5 -12t40.5 -4q35 0 59.5 11t24.5 40q0 20 -37 25l-57 -4h-43q-41 0 -50 -15z" />
<glyph unicode="&#x2000;" horiz-adv-x="791" />
<glyph unicode="&#x2001;" horiz-adv-x="1583" />
<glyph unicode="&#x2002;" horiz-adv-x="791" />
<glyph unicode="&#x2003;" horiz-adv-x="1583" />
<glyph unicode="&#x2004;" horiz-adv-x="527" />
<glyph unicode="&#x2005;" horiz-adv-x="395" />
<glyph unicode="&#x2006;" horiz-adv-x="263" />
<glyph unicode="&#x2007;" horiz-adv-x="263" />
<glyph unicode="&#x2008;" horiz-adv-x="197" />
<glyph unicode="&#x2009;" horiz-adv-x="316" />
<glyph unicode="&#x200a;" horiz-adv-x="87" />
<glyph unicode="&#x202f;" horiz-adv-x="316" />
<glyph unicode="&#x205f;" horiz-adv-x="395" />
<glyph unicode="&#xe000;" horiz-adv-x="1024" d="M0 0z" />
</font>
</defs>
</svg>
